#TITLE:Chicken Wing;
#SUBTITLE:;
#ARTIST:Banya;
#TITLETRANSLIT:;
#SUBTITLETRANSLIT:;
#ARTISTTRANSLIT:;
#CREDIT:;
#BANNER:CW-bn.png;
#BACKGROUND:CW-bg.png;
#LYRICSPATH:;
#CDTITLE:!tank101title.png;
#MUSIC:Chicken Wing.mp3;
#OFFSET:-0.046;
#SAMPLESTART:30.487;
#SAMPLELENGTH:12.000;
#SELECTABLE:YES;
#BPMS:0.000=200.000;
#STOPS:;
#BGCHANGES:;
// cache tags:
#FIRSTBEAT:0.000;
#LASTBEAT:320.000;
#SONGFILENAME:Songs/Keyboard Collaboration II/Tank101 - Chicken Wing/CW.sm;
#HASMUSIC:1;
#HASBANNER:1;
#MUSICLENGTH:98.367;
// end cache tags

//---------------dance-single - ----------------
#NOTES:
     dance-single:
     :
     Hard:
     11:
     1.000,1.000,1.000,0.122,0.905,713.000,155.000,12.000,0.000,0.000:  // measure 1
1000
0100
1001
0010
0100
0010
0101
1000
,  // measure 2
0010
0100
1010
0001
0100
0010
1001
0010
,  // measure 3
1001
0000
0000
0101
0000
1010
0000
0011
,  // measure 4
1100
0001
1000
0100
0010
0001
1000
0010
1000
0001
0010
0100
1000
0001
1000
0010
,  // measure 5
1100
0010
0101
1010
0101
1010
0001
1010
,  // measure 6
0100
1001
0010
1001
0110
1000
0101
1000
,  // measure 7
0101
0010
1001
0110
1001
0110
1000
0101
,  // measure 8
0010
1001
0100
0011
1100
0010
0101
0010
,  // measure 9
1001
0000
0000
0010
0100
0000
0000
0010
,  // measure 10
0100
0001
1000
0010
0000
0000
0000
0000
,  // measure 11
0011
0000
0000
1000
0100
0000
0000
0001
,  // measure 12
0010
0000
0001
0000
1000
0000
0010
0000
0001
0010
0100
1000
0001
0010
0100
0010
,  // measure 13
1001
0100
1001
0110
0101
1010
0100
0011
,  // measure 14
0100
1001
0100
1001
0110
0001
1010
0100
,  // measure 15
1001
0010
1001
0110
1001
0110
0001
1010
,  // measure 16
0100
1001
0010
0011
1100
0001
1100
0000
,  // measure 17
0001
0001
0010
0010
0100
0100
1000
1000
,  // measure 18
0100
0100
0010
0010
0001
0001
0010
0010
,  // measure 19
0001
0010
0001
0100
0001
1000
0001
0100
,  // measure 20
0001
0010
0100
1000
0001
0010
0100
1000
0010
0100
0001
1000
0010
0100
0001
0010
,  // measure 21
1001
0010
1100
0001
0110
1001
0010
1001
,  // measure 22
0100
1001
0110
0220
0000
0000
0330
0000
,  // measure 23
0101
1000
0110
0011
0101
1010
0100
0011
,  // measure 24
0100
1010
0100
1000
0022
0000
0033
0000
,  // measure 25
1001
0100
0011
1100
1001
0110
0001
1010
,  // measure 26
0100
0011
1100
0022
0000
0000
0000
0033
,  // measure 27
1001
0010
0100
1000
0010
0100
0001
1000
0001
0010
0100
1000
0001
0100
0010
1000
,  // measure 28
0100
0010
0100
1000
0001
1000
0100
0010
0001
0010
0100
1000
0010
0100
0001
0010
,  // measure 29
0101
0010
1100
0011
1100
0011
0100
1001
,  // measure 30
0010
1100
0001
0110
1001
0010
1010
0100
,  // measure 31
1001
0100
1001
0110
1001
0101
0010
1001
,  // measure 32
0100
1001
0010
0101
1010
0010
1001
0010
,  // measure 33
1001
0010
0000
0010
0100
0001
0000
0001
,  // measure 34
0010
0100
0010
0001
0000
0000
0000
0000
,  // measure 35
0000
0001
0000
0001
0010
0100
0010
0100
,  // measure 36
1000
0100
1000
0100
1000
0100
1000
0100
1000
0100
1000
0100
1000
0100
1000
0100
,  // measure 37
1001
0000
1001
0000
,  // measure 38
1001
1001
1001
1001
,  // measure 39
1001
0010
1001
0100
1001
0010
1001
0100
,  // measure 40
1002
1000
1000
1000
,  // measure 41
1003
0100
0010
0001
0000
0001
0010
0100
,  // measure 42
0000
1000
0100
0001
0000
0001
0010
0000
,  // measure 43
1000
0010
0100
1000
0000
0001
0010
0100
,  // measure 44
0000
1000
0100
0010
0000
0001
0010
0000
,  // measure 45
1001
0100
1010
0001
0000
0100
1001
0010
,  // measure 46
0000
1000
0101
1000
0000
0001
0110
0000
,  // measure 47
0001
0010
1001
0100
0000
1000
0011
0100
,  // measure 48
1001
0010
0100
1000
0001
0010
0100
1000
0010
0100
0001
0010
0100
1000
0010
0100
,  // measure 49
0001
0010
0100
1000
0001
0010
0100
1000
0010
0100
0001
1000
0010
0100
0001
1000
,  // measure 50
0100
0010
0001
0010
0100
1000
0010
0100
0001
1000
0010
0100
0001
0010
0100
1000
,  // measure 51
0100
1000
0010
1000
0001
0100
0010
1000
0010
0100
0001
0100
0001
1000
0010
1000
,  // measure 52
0100
0010
0001
0010
0100
1000
0010
0100
0001
0010
0100
1000
0200
0000
0300
0000
,  // measure 53
1001
0010
0100
1000
0100
0010
0001
0010
0100
1000
0010
0100
0001
0100
0010
1000
,  // measure 54
0100
1000
0100
0010
0100
0010
0100
1000
0100
1000
0010
0100
0001
0010
0100
1000
,  // measure 55
0100
0010
0001
0010
0100
1000
0010
0100
0001
1000
0010
0100
0001
1000
0100
0010
,  // measure 56
0002
0000
0003
2000
,  // measure 57
3001
0010
0001
0010
0100
1000
0100
1000
0010
0100
0001
0100
0010
1000
0100
1000
,  // measure 58
0100
0010
0001
0010
0100
1000
0010
0100
0001
0010
0100
1000
0010
0100
0001
1000
,  // measure 59
0100
0010
0001
0100
0010
1000
0001
0010
0100
1000
0010
0100
0001
0100
0010
1000
,  // measure 60
0001
0100
0010
1000
0001
0100
0010
1000
0100
0010
0001
0010
0100
1000
0001
0010
,  // measure 61
0100
1000
0010
0100
0001
1000
0010
0100
0001
0010
0100
1000
0001
0010
0100
1000
,  // measure 62
0010
0100
0001
1000
0100
0010
0001
0010
0100
1000
0010
1000
0100
1000
0001
0100
,  // measure 63
0001
0010
0001
0100
0001
1000
0010
0100
0001
1000
0100
0010
0001
0010
0100
1000
,  // measure 64
0001
0010
0100
1000
0100
0010
0001
0010
0100
1000
0010
0100
0001
0010
0100
0010
,  // measure 65
1001
0010
0101
1010
0011
0101
0010
1001
,  // measure 66
0100
1010
0100
1001
0110
0100
1001
0010
,  // measure 67
1001
0100
1001
1010
0101
0110
0001
1010
,  // measure 68
0100
0011
0001
1010
1100
0100
1001
0010
,  // measure 69
0110
0001
0000
1000
0100
1000
0000
0001
,  // measure 70
0010
0100
0010
0001
0000
0000
0000
0000
,  // measure 71
1000
0100
0000
0001
0010
0100
0000
1000
,  // measure 72
0010
0100
0001
1000
0000
0000
0000
0000
,  // measure 73
0001
1000
0000
0010
0100
0001
0000
1000
,  // measure 74
0010
0100
0001
0010
0000
0000
0000
0000
,  // measure 75
1001
0010
0011
0100
1100
0010
1010
0100
,  // measure 76
0101
1000
1100
0001
0011
1000
1010
0001
,  // measure 77
0101
0000
1001
0000
,  // measure 78
1001
1001
1001
1001
,  // measure 79
1001
0010
0100
1000
0010
0100
0001
0010
0100
1000
0010
0100
0001
0010
0100
0010
,  // measure 80
2002
0000
0000
0000
,  // measure 81
3003
0000
0000
0000
;
