#TITLE:HEADACHE;
#SUBTITLE:;
#ARTIST:good-cool;
#TITLETRANSLIT:;
#SUBTITLETRANSLIT:;
#ARTISTTRANSLIT:;
#CREDIT:;
#BANNER:Headache.png;
#BACKGROUND:Headache-bg.png;
#LYRICSPATH:;
#CDTITLE:!toph-cdtitle.png;
#MUSIC:Good-Cool - Headache.mp3;
#OFFSET:-0.597;
#SAMPLESTART:42.500;
#SAMPLELENGTH:13.500;
#SELECTABLE:YES;
#BPMS:0.000=143.000,65.750=15.797,66.000=143.000;
#STOPS:;
#BGCHANGES:;
// cache tags:
#FIRSTBEAT:4.000;
#LASTBEAT:194.000;
#SONGFILENAME:Songs/Ace Megapack/Headache/Headache.sm;
#HASMUSIC:1;
#HASBANNER:1;
#MUSICLENGTH:91.382;
// end cache tags

//---------------dance-single - ----------------
#NOTES:
     dance-single:
     :
     Easy:
     5:
     0.414,0.478,0.514,0.000,0.000,218.000,47.000,0.000,0.000,0.000:  // measure 1
0000
0000
0000
0000
,  // measure 2
1000
0001
0100
0010
,  // measure 3
1000
0100
0010
0001
,  // measure 4
0100
0010
1000
0100
,  // measure 5
0010
0000
0001
0000
1000
0000
0010
0100
,  // measure 6
0001
1000
0100
0010
,  // measure 7
0001
0000
0100
0000
0010
0000
1000
0100
,  // measure 8
0010
0001
1000
0001
,  // measure 9
1100
1001
0101
1001
,  // measure 10
0110
0000
1000
0000
0001
0100
0010
0000
,  // measure 11
1000
0000
0100
0000
0010
0001
1000
0000
,  // measure 12
0010
0000
0100
0000
0001
0010
0100
0000
,  // measure 13
1001
1001
0110
1001
,  // measure 14
0100
0000
0010
0000
1000
0001
0010
0000
,  // measure 15
0100
0000
1000
0000
0010
0100
0010
0000
,  // measure 16
1000
0000
0100
0000
0010
0001
0100
0000
,  // measure 17
0010
0000
1001
0100
,  // measure 18
0010
1000
1001
0010
,  // measure 19
0001
0100
1100
0010
,  // measure 20
0001
1000
0110
1001
,  // measure 21
0110
1001
0110
1000
,  // measure 22
0001
0100
1001
0010
,  // measure 23
0001
0100
1010
0100
,  // measure 24
0001
1000
1100
0101
,  // measure 25
1100
0000
0101
0000
1000
0000
0001
0100
,  // measure 26
0000
0010
0000
1000
0100
0000
0010
0001
,  // measure 27
0000
1000
0000
0001
0100
0000
0010
1000
,  // measure 28
0000
0001
0000
1000
0100
0000
0010
0001
,  // measure 29
0000
0100
0010
0000
1001
0000
1000
0100
,  // measure 30
0000
0001
0000
0100
1000
0000
0001
0100
,  // measure 31
0000
1000
0000
0100
0010
0000
0001
1000
,  // measure 32
0000
0010
0000
0100
0001
0000
0001
0000
,  // measure 33
0001
0000
0001
0001
1001
0000
0100
0000
,  // measure 34
0010
1000
0100
0000
1000
0000
0100
0000
,  // measure 35
0010
0001
0100
0000
0001
0000
1000
0000
,  // measure 36
0010
1000
0001
0000
1000
0000
0001
0000
,  // measure 37
0010
0001
1000
0000
0010
0000
0100
0000
,  // measure 38
0010
0100
0001
0000
0010
0000
0100
0000
,  // measure 39
0010
0100
1000
0000
0010
0000
1000
0000
,  // measure 40
0001
1000
0100
0000
0011
0000
1001
0000
,  // measure 41
1010
0000
1001
0000
0110
0000
1000
0001
,  // measure 42
0000
0001
1000
0000
0010
0000
1000
0100
,  // measure 43
0000
0100
1000
0000
0001
0000
0100
0010
,  // measure 44
0000
0010
0100
0000
0001
0000
0010
0100
,  // measure 45
0000
0100
1000
1000
1001
0000
0110
0000
,  // measure 46
0101
1010
1100
0101
,  // measure 47
1010
1100
0011
0101
,  // measure 48
1001
1100
0011
0101
,  // measure 49
0110
1010
1001
0000
;

//---------------dance-single - ----------------
#NOTES:
     dance-single:
     :
     Medium:
     7:
     0.519,0.557,0.503,0.022,0.268,284.000,46.000,2.000,0.000,0.000:  // measure 1
0000
0000
0000
0000
,  // measure 2
1000
0000
1000
0000
1000
0000
1000
0001
,  // measure 3
0001
0000
0001
0000
0001
0000
0001
1000
,  // measure 4
1000
0000
1000
0000
1000
0000
1000
0001
,  // measure 5
0001
0000
0001
0000
0001
0100
0010
1000
,  // measure 6
0001
0010
0100
0000
1000
0010
0100
0000
,  // measure 7
1001
1100
1001
0101
,  // measure 8
0010
1000
0100
0000
0010
0001
0100
0000
,  // measure 9
0010
1000
0001
1000
0010
1000
0100
1000
,  // measure 10
1001
0000
0110
0000
1000
0100
0010
0000
,  // measure 11
1001
0000
0110
0000
0001
0100
0010
0000
,  // measure 12
1001
0000
1100
0000
0010
0001
0100
0000
,  // measure 13
1001
0000
0101
0000
0010
1000
0100
0000
,  // measure 14
1001
0000
0110
0000
1000
0100
0001
0000
,  // measure 15
1001
0000
0110
0000
0001
0100
1000
0000
,  // measure 16
0010
1000
0100
0000
0010
0001
0100
0000
,  // measure 17
1001
0000
0000
0000
0000
0000
0000
0000
0010
0000
0000
1000
0000
0000
0100
0000
,  // measure 18
0000
0010
0000
0000
0001
0000
0100
0000
0010
0000
0000
1000
0000
0000
0001
0000
,  // measure 19
0010
0000
0010
0000
0100
0000
1000
0000
0001
0000
0000
0100
0000
0000
1000
0000
,  // measure 20
0000
0100
0000
0000
0010
0000
1000
0000
0100
0000
0000
0001
0000
0000
0100
0000
,  // measure 21
0000
1000
0000
0000
0010
0000
0100
0000
1001
0000
0000
0010
0000
0000
0100
0000
,  // measure 22
0000
0001
0000
0000
1000
0000
0100
0000
1001
0000
0000
0010
0000
0000
0001
0000
,  // measure 23
0100
0000
0100
0000
0010
0000
1000
0000
1001
0000
0000
0010
0000
0000
0001
0000
,  // measure 24
0000
0100
0000
0000
0010
0000
1000
0000
0100
0000
0001
0000
0100
0000
1000
0000
,  // measure 25
0001
0000
0100
0000
1000
0000
0100
0000
0001
0000
0000
1000
0100
0000
0010
0000
,  // measure 26
0001
0000
1000
0000
0100
0000
0010
0000
0001
0000
0000
0100
0010
0000
1000
0000
,  // measure 27
0001
0000
0100
0000
0010
0000
1000
0000
0001
0000
0000
0010
0100
0000
1000
0000
,  // measure 28
0001
0000
0010
0000
0100
0000
1000
0000
0001
0000
0000
0100
0010
0000
1000
0000
,  // measure 29
0100
0000
0010
0000
0001
0000
0001
0000
1001
0000
0000
1000
0100
0000
0010
0000
,  // measure 30
0001
0000
0100
0000
0010
0000
1000
0000
0001
0000
0000
1000
0100
0000
1000
0000
,  // measure 31
0010
0000
1000
0000
0001
0000
0010
0000
0100
0000
0000
1000
0010
0000
0100
0000
,  // measure 32
0001
0010
0100
1000
2002
0000
3003
0000
,  // measure 33
1001
0000
0000
0000
1000
0001
1000
0001
1000
0000
0100
0000
0010
0000
0000
0001
,  // measure 34
0000
0000
0100
0000
0000
0010
0000
0000
0000
1000
0000
0000
0100
0000
0000
0010
,  // measure 35
0000
0000
0001
0000
0000
1000
0001
0000
0000
0000
1000
0000
0100
0000
0000
1000
,  // measure 36
0000
0000
0010
0000
0000
0100
0000
0000
0000
0001
0000
0000
0010
0000
0000
0100
,  // measure 37
0000
0000
1000
0000
0000
0001
0100
0000
1001
0000
0001
0000
0100
0000
0000
0010
,  // measure 38
0000
0000
1000
0000
0000
0100
0000
0000
0000
0010
0000
0000
0001
0000
0000
0100
,  // measure 39
0000
0000
0010
0000
0000
1000
0001
0000
0000
0000
1000
0000
0100
0000
0000
1000
,  // measure 40
0000
0000
0010
0000
0000
0100
0000
0000
0000
0001
0000
0000
0100
0000
0000
0010
,  // measure 41
0000
0000
1000
0000
0000
0001
1000
0000
0010
0000
0000
0010
0000
0000
0100
0000
,  // measure 42
0000
0000
0001
0000
0000
0000
1000
0000
0100
0000
0000
0010
0000
0000
0001
0000
,  // measure 43
0000
0000
1000
0000
0000
0000
0010
0000
0100
0000
0000
0001
0000
0000
0010
0000
,  // measure 44
0000
0000
0100
0000
0000
0000
1000
0000
0010
0000
0000
0100
0000
0000
0001
0000
,  // measure 45
0000
0000
1000
0000
1100
0000
1001
0000
0101
0000
0000
1010
0000
0000
1001
0000
,  // measure 46
0000
0000
1100
0000
0000
0000
0011
0000
1001
0000
0000
1010
0000
0000
0101
0000
,  // measure 47
0000
0000
0110
0000
0000
0000
1010
0000
1001
0000
0000
0110
0000
0000
1100
0000
,  // measure 48
0000
0000
0101
0000
0000
0000
1010
0000
1001
0000
0000
0011
0000
0000
1100
0000
,  // measure 49
0000
0110
0000
0011
1000
0000
0000
0000
;

//---------------dance-single - ----------------
#NOTES:
     dance-single:
     :
     Hard:
     10:
     0.786,0.716,0.897,0.022,0.673,419.000,82.000,2.000,0.000,0.000:  // measure 1
0000
0000
0000
0000
,  // measure 2
1001
0000
1000
0000
1000
0000
1000
0100
,  // measure 3
0100
0000
0100
0000
0010
0000
0010
0001
,  // measure 4
0001
0000
0001
0000
0001
0000
0001
0100
,  // measure 5
0100
0000
0100
0000
0010
1000
0001
1000
,  // measure 6
0100
0000
0010
0000
0100
1000
0100
0000
0010
0000
0100
1000
0001
0100
0010
0000
,  // measure 7
1000
0000
0100
0000
0010
0000
0001
0100
,  // measure 8
0100
0000
0010
0000
1000
0100
0010
0000
0001
0000
0100
0010
1000
0001
0010
0000
,  // measure 9
0001
0100
0001
0100
0010
1000
0010
1000
0001
0010
0001
0010
0100
1000
0100
1000
,  // measure 10
0010
0000
0000
0000
1001
0000
1000
0000
0100
0010
0100
0000
1000
0000
0001
0100
,  // measure 11
0001
0000
0000
0000
1100
0000
0001
0000
0100
0010
0100
0000
0010
0000
0100
0010
,  // measure 12
1000
0000
0000
0000
1001
0000
0100
0000
0001
0000
1000
0000
0110
0000
0001
1000
,  // measure 13
0010
0100
0010
0100
0010
0000
1000
0000
0100
0010
0100
0000
0010
0000
0100
0010
,  // measure 14
0001
0000
0000
0000
1010
0000
1000
0000
0000
0000
0001
0000
0011
0000
0100
1000
,  // measure 15
0100
0000
0000
0000
1001
0000
0001
0000
0100
0010
0100
0000
0010
0000
0100
0010
,  // measure 16
1000
0000
1001
0001
0000
1000
0110
0001
,  // measure 17
1000
0000
0100
0010
0001
0000
0000
1000
0110
0000
0000
0011
0000
0000
1001
0000
,  // measure 18
0000
1010
0000
0000
0110
0000
0101
0000
1010
0000
0000
1001
0000
0000
1100
0000
,  // measure 19
0010
0000
0001
0000
0100
0000
0010
0000
1001
0000
0000
1010
0000
0000
0110
0000
,  // measure 20
0000
0101
0000
0000
0011
0000
1100
0000
1001
0000
0000
0110
0000
0000
1100
0000
,  // measure 21
0000
0011
0000
0000
0101
0000
1010
0000
1001
0000
0000
0110
0000
0000
0011
0000
,  // measure 22
0000
1100
0000
0000
1010
0000
0101
0000
1100
0000
0000
0110
0000
0000
0011
0000
,  // measure 23
1000
0000
0010
0000
0100
0000
0001
0000
1100
0000
0000
0011
0000
0000
0101
0000
,  // measure 24
0000
1010
0000
0000
1001
0000
0110
0000
1100
0000
0000
0101
0000
0000
0011
0000
,  // measure 25
0000
1010
0000
0000
1001
0000
0110
0000
1000
0000
0000
0100
0010
0000
0001
0000
,  // measure 26
0100
0010
1000
0000
0001
1000
0100
0010
0001
0000
0000
1000
0010
0000
0100
0000
,  // measure 27
0001
0010
0100
0000
1000
0010
0100
0001
0010
0000
0000
0100
1000
0000
0001
0000
,  // measure 28
1000
0010
0100
0000
0001
0010
0100
1000
0001
0000
0000
0100
0010
0000
1000
0100
,  // measure 29
0010
0001
1000
0000
0010
0100
0010
0100
0001
0000
0000
1000
0100
0000
0010
0001
,  // measure 30
1000
0010
0100
0000
0001
0010
0100
1000
0001
0000
0000
0100
0010
0000
1000
0100
,  // measure 31
0010
0100
1000
0000
0001
0100
0010
1000
0100
0000
0000
0010
0001
0000
1000
0010
,  // measure 32
0100
0001
0010
0000
0100
1000
0010
0100
2002
0000
0000
0000
3003
0000
0000
0000
,  // measure 33
1000
0100
0010
0000
0001
1000
0001
1000
1001
0000
0000
0000
1010
0000
0000
0010
,  // measure 34
0100
0000
0001
0000
1000
0000
0100
0010
0001
0000
0000
0000
1010
0000
0100
0000
,  // measure 35
0001
1000
0001
0000
1000
0000
0001
1000
0001
0000
0000
0000
0110
0000
0000
1000
,  // measure 36
0001
0000
0100
0000
0010
0000
1000
0100
1000
0010
0100
0000
1001
0000
0010
0000
,  // measure 37
1000
0001
1000
0001
1000
0000
1000
0100
0010
0000
0001
0000
1001
0000
0000
0100
,  // measure 38
1000
0000
0010
0000
0001
0000
0010
0000
1000
0000
0000
0000
1001
0000
0000
0001
,  // measure 39
0100
0010
0100
0000
0010
0000
0100
0010
0100
0000
0000
0000
1001
0000
0100
0000
,  // measure 40
1000
0000
0100
0000
0001
0000
0100
0000
1000
0001
1000
0001
0100
0010
0100
0010
,  // measure 41
1000
0001
1000
0001
0010
0100
0010
0100
1000
0000
0000
1100
0000
0000
0101
0000
,  // measure 42
0000
0000
0110
0000
0000
0000
1010
0000
1001
0000
0000
0011
0000
0000
1100
0000
,  // measure 43
0000
0000
0101
0000
0000
0000
1010
0000
1001
0000
0000
0110
0000
0000
0101
0000
,  // measure 44
0000
0000
1100
0000
0000
0000
0101
0000
1010
0000
0000
1100
0000
0000
0101
0000
,  // measure 45
0000
0000
0011
0000
1001
0000
1001
0000
0110
0000
1000
0100
1000
0000
0001
0100
,  // measure 46
0001
0000
0010
0100
0010
0000
0001
1000
0001
0000
0100
0010
0100
0000
0001
0010
,  // measure 47
0001
0000
1000
0010
1000
0000
0100
0010
0001
0000
1000
0010
0100
0000
0001
1000
,  // measure 48
0100
0000
0010
0001
0100
0000
0010
1000
0100
0010
0001
0100
0010
0100
0001
1000
,  // measure 49
0100
0010
0100
1000
0010
0100
0001
0010
0100
0000
0000
0000
0000
0000
0000
0000
;

//---------------dance-single - ----------------
#NOTES:
     dance-single:
     :
     Challenge:
     11:
     1.000,0.955,1.000,0.000,0.821,502.000,177.000,0.000,0.000,0.000:  // measure 1
0000
0000
0000
0000
,  // measure 2
1001
0000
1100
0000
1001
0000
0101
0010
,  // measure 3
1010
0000
1100
0010
0011
0000
0101
0010
,  // measure 4
1001
0000
1100
0000
0011
0000
0101
1000
,  // measure 5
1010
0000
0101
1000
1001
0010
0101
1000
,  // measure 6
1001
0000
0010
0000
1000
0100
1000
0000
0010
0000
0100
0001
0010
0100
1000
0000
,  // measure 7
0110
0000
0101
0000
1010
0000
1100
0010
,  // measure 8
0110
0000
0001
0000
1000
0100
1000
0000
0010
0000
0100
0001
1000
0100
0010
0000
,  // measure 9
0001
0100
0010
1000
0001
0010
0100
1000
0010
0100
0001
0010
0100
1000
0010
0100
,  // measure 10
1001
0000
0100
0000
1100
0000
0010
0100
0010
1000
0001
0000
0101
0000
0010
1001
,  // measure 11
0100
0000
0010
0000
1100
0000
0100
0010
0001
1010
0100
0000
0011
0000
1000
0011
,  // measure 12
0100
0000
0010
0000
1001
0000
0100
0000
0001
0000
1000
0000
0110
0000
0001
1100
,  // measure 13
0010
0001
1000
0010
0100
0000
0001
0000
1000
0101
1000
0000
0101
0000
1000
0110
,  // measure 14
1001
0000
0100
0000
0101
0000
1000
0000
0001
0000
1000
0000
0101
0000
0010
1001
,  // measure 15
0100
0000
1000
0000
0101
0000
1000
0001
0100
0011
1000
0000
0011
0000
0100
0011
,  // measure 16
1000
0000
0100
0000
0011
0000
0100
0000
0010
0000
1000
0000
0101
0000
1000
0110
,  // measure 17
0001
0000
0010
0100
1000
0000
0000
0001
1010
0000
0000
0001
1100
0000
0010
0000
,  // measure 18
0100
1001
0100
0000
1010
0000
0001
0110
1000
0000
0000
0100
0011
0000
1000
0000
,  // measure 19
0001
1100
0001
0000
0110
0000
1000
0101
1000
0000
0000
0001
1100
0000
0010
0000
,  // measure 20
0001
0110
0001
0000
1100
0000
0001
1010
0100
0000
0011
1000
0011
0000
0100
0000
,  // measure 21
0001
1100
0001
0000
0110
0000
1000
0101
1010
0000
0000
1000
0101
0000
0010
0000
,  // measure 22
1000
0110
1000
0000
0011
0000
0100
0011
1000
0000
0000
0010
1001
0000
0100
0000
,  // measure 23
0010
1100
0001
0000
0101
0000
1000
0101
1000
0000
0000
0010
0101
0000
1000
0000
,  // measure 24
0001
0110
1000
0000
0101
0000
1000
0110
1001
0010
0100
0010
1001
0100
0010
0100
,  // measure 25
1001
0010
0100
0001
1100
0010
0001
0100
1001
0000
0000
1000
0101
0000
0010
0100
,  // measure 26
1000
0001
0100
0000
1010
0100
0001
1010
0001
0000
0000
0001
1010
0000
0001
0100
,  // measure 27
0010
1000
0100
0000
1001
0010
0100
1001
0010
0000
0000
1000
0101
0000
0010
1000
,  // measure 28
0001
0010
0100
0000
1100
0001
1000
0101
1000
0001
0100
0010
1001
0000
0110
0110
,  // measure 29
0000
0110
0100
0000
1001
1001
1001
1001
1100
0000
0000
0010
1001
0000
0100
0010
,  // measure 30
1001
0100
0010
0000
1001
0100
0001
0100
1001
0000
0000
0010
0101
0000
1000
0100
,  // measure 31
0011
1000
0100
0000
0011
1000
0001
1000
0110
0000
0000
0001
0110
0000
1000
0001
,  // measure 32
1010
0001
1000
0000
0011
0100
0010
1000
1001
0000
0000
0000
0000
0000
0000
0000
,  // measure 33
1000
0010
0001
0000
0110
0110
0110
0110
1001
0000
0001
0000
1010
0000
0100
0000
,  // measure 34
0001
0000
0100
0000
0011
0000
0100
1001
0100
0000
0010
0000
1100
0000
0001
0000
,  // measure 35
1000
0110
1000
0000
0011
0000
1000
0110
0001
0000
1000
0000
0110
0000
0001
0000
,  // measure 36
1000
0000
0001
0000
0110
0000
1000
0011
0100
1000
0010
0000
1010
0000
0100
0000
,  // measure 37
0001
1100
0001
0100
0010
0000
1000
0101
1010
0000
0001
0000
1100
0000
0010
0000
,  // measure 38
0100
0000
0011
0000
1100
0000
0011
1100
0001
0000
0100
0000
1001
0000
0010
0000
,  // measure 39
1000
0101
0010
0000
1001
0000
0100
1001
0100
0000
1000
0000
0101
0000
1010
0000
,  // measure 40
0001
0000
1010
0000
0101
0000
1001
0110
1001
0100
0010
0100
1001
0010
0100
0010
,  // measure 41
1001
0010
0100
1000
0101
0010
1000
0001
1100
0000
1000
0000
0011
0000
0100
0010
,  // measure 42
1000
0100
0010
0000
1001
0000
0010
0001
0100
0000
0010
0000
1001
0000
1000
0100
,  // measure 43
1000
0010
0100
0000
0001
0010
0100
0000
1000
0000
0001
0000
0110
0000
1000
0001
,  // measure 44
0100
0010
1000
0000
0011
0000
0100
1000
0010
0000
0100
0000
1001
0000
0010
0001
,  // measure 45
0100
0000
0010
0000
1100
0000
0110
0000
0101
0000
1000
0001
0110
0000
0001
1000
,  // measure 46
0101
0000
0010
1000
0011
0000
0100
1000
0110
0000
0001
1000
0110
0000
1000
0100
,  // measure 47
0011
0000
0001
1000
0110
0000
1000
0100
1001
0000
0010
0001
1010
0000
0100
0001
,  // measure 48
1100
0000
0010
0100
1001
0000
0100
0010
1100
0001
0100
0010
1001
0100
0010
1000
,  // measure 49
0011
0100
1000
0001
0110
1000
0001
0100
1001
0000
0000
0000
0000
0000
0000
0000
;
