#TITLE:Accro a la Violence;
#SUBTITLE:;
#ARTIST:Pyrrhon;
#TITLETRANSLIT:;
#SUBTITLETRANSLIT:;
#ARTISTTRANSLIT:;
#CREDIT:Aoreo;
#BANNER:accro bn.png;
#BACKGROUND:accro bg.png;
#LYRICSPATH:;
#CDTITLE:;
#MUSIC:Accro a la Violence.ogg;
#OFFSET:0.011;
#SAMPLESTART:29.154;
#SAMPLELENGTH:12.000;
#SELECTABLE:YES;
#BPMS:0.000=235.000;
#STOPS:;
#BGCHANGES:;
// cache tags:
#FIRSTBEAT:32.000;
#LASTBEAT:683.000;
#SONGFILENAME:Songs/SPEEEDCOOOORE 3/Accro a la Violence - [Aoreo]/Accro a la Violence.sm;
#HASMUSIC:1;
#HASBANNER:1;
#MUSICLENGTH:174.893;
// end cache tags

//---------------dance-single - J. Nero----------------
#NOTES:
     dance-single:
     J. Nero:
     Challenge:
     17:
     1.000,1.000,0.183,0.034,1.000,1459.000,32.000,6.000,0.000,0.000:
0000
0000
0000
0000
,
0000
0000
0000
0000
,
0000
0000
0000
0000
,
0000
0000
0000
0000
,
0000
0000
0000
0000
,
0000
0000
0000
0000
,
0000
0000
0000
0000
,
0000
0000
0000
0000
,
1000
0001
0100
0001
1000
0010
0100
0001
1000
0001
1000
0010
0100
0010
1000
0001
,
1000
0100
1000
0001
0010
0100
1000
0001
0010
0001
1000
0100
1000
0001
0400
0300
,
0004
1003
0010
0100
0010
1000
0001
0010
0100
1000
0001
0100
0001
1000
0100
0010
,
0001
1000
0001
0100
0010
0100
0001
1000
0001
0100
0010
1000
0004
0000
0000
0003
,
1000
0100
1000
0001
0010
0100
1000
0001
1000
0001
0100
0010
0100
0001
1000
0001
,
0100
0010
1000
0001
1000
0010
0100
0010
1000
0001
1000
0100
0010
0001
4000
3000
,
0004
0103
0010
1000
0001
1000
0100
0010
0001
1000
0001
0100
0001
1000
0010
0100
,
0010
1000
0001
1000
0010
0100
0001
1000
0004
0000
0000
0000
0000
0000
0000
0003
,
1000
0100
1000
0001
0010
0100
1000
0001
1000
0010
0100
0001
1000
0001
0010
0001
,
1000
0100
0010
0001
1000
0100
1000
0001
0100
0001
1000
0010
0100
0010
1000
0001
,
0010
0100
1000
0001
0010
0001
1000
0001
0100
0010
0100
0001
1000
0001
0010
0001
,
1000
0010
0100
0001
1000
0100
0010
0001
4000
0000
3000
0000
0004
0000
0000
0003
,
1000
0010
0100
0010
1000
0001
0100
0001
1000
0001
0010
0100
1000
0001
1000
0100
,
1000
0001
0100
0001
1000
0010
1000
0001
1000
0001
0010
0100
1000
0001
0010
0001
,
1000
0100
0010
0001
1000
0001
0100
0010
0100
0001
1000
0010
0100
0001
1000
0001
,
0400
0000
0000
0000
0000
0000
0000
0000
0000
0000
0000
0000
0304
0003
0000
0000
,
1000
0010
1000
0001
0100
0001
1000
0100
0010
0001
1000
0001
0010
0100
1000
0001
,
0100
0001
1000
0010
0100
0010
1000
0001
1000
0100
1000
0001
0400
0300
0040
0030
,
1000
0001
0100
0001
1000
0010
0100
0010
1000
0001
1000
0010
0100
0001
0100
0010
,
1000
0001
1000
0100
0010
0001
1000
0100
1000
0001
0100
0001
1000
0010
0400
0300
,
0001
1000
0010
1000
0001
0100
0001
0010
0001
1000
0100
1000
0001
0010
0100
1000
,
0001
1000
0010
0100
0001
1000
0010
1000
0001
0100
0010
0100
0004
0000
0003
0000
,
0100
0010
1000
0010
0100
0001
1000
0001
0010
0100
1000
0001
1000
0100
1000
0001
,
0400
0300
0001
0000
0040
0030
0100
0000
4000
3000
0001
0000
0400
0300
0000
0000
,
0001
1000
0001
0100
0010
0100
0001
1000
0001
0010
0100
1000
0001
1000
0100
1000
,
0001
0100
0001
1000
0010
0100
0010
1000
0001
1000
0100
0010
0001
1000
0004
0003
,
1000
0100
1000
0001
0010
0100
1000
0001
1000
0010
0100
0010
1000
0001
0100
0001
,
1000
0010
1000
0001
1000
0100
0010
0001
1000
0001
0100
0001
1000
0100
0010
0001
,
1000
0001
0100
0010
0100
0001
1000
0001
0100
0010
0100
0001
1000
0001
0010
0100
,
1000
0001
0010
0001
1000
0001
0100
0010
0100
0001
1000
0001
4000
0000
3000
0000
,
0001
0100
0001
1000
0100
0010
0001
1000
0001
0100
0010
0100
0001
1000
0001
0010
,
0100
1000
0001
1000
0010
0100
0001
1000
0100
1000
0001
0100
0010
1000
0001
0100
,
0002
0000
0000
0000
,
0000
0000
0000
0000
,
0000
0000
0000
0000
,
0000
0000
0000
0000
,
2003
0000
0000
0000
,
0000
0000
0000
0000
,
0000
0000
0000
0000
,
0000
0000
0000
0000
0000
0000
0000
0000
0000
0000
0000
0000
0000
0000
0000
3000
,
0001
0001
0000
0000
1000
1000
0000
0000
,
0100
0100
0000
0000
1000
1000
0000
0000
,
0001
0001
0000
0000
0100
0100
0000
0000
,
0001
0001
0000
0000
1000
1000
0000
0000
,
0100
0100
0000
0000
1000
1000
0000
0000
,
0001
0001
0000
0000
0100
0100
0000
0000
,
0001
0001
0000
0000
1000
1000
0000
0000
,
0100
0100
0000
0000
1000
1000
0000
0000
,
0001
0001
0000
0000
0100
0100
0000
0000
,
0001
0001
0000
0000
1000
1000
0000
0000
,
0100
0100
0000
0000
1000
1000
0000
0000
,
0001
0001
0000
0000
0100
0100
0000
0000
,
0001
0001
0001
0001
,
1000
1000
0001
0000
,
0100
0100
0000
0000
0001
0001
0000
0000
,
1000
0000
0001
0000
0100
0000
0001
0000
1000
0010
1000
0010
0100
0001
1000
0100
,
1000
0010
0100
0001
1000
0001
0010
0100
1000
0001
0010
0001
1000
0100
1000
0001
,
1000
0010
0100
0001
0100
0001
1000
0001
0100
0010
1000
0001
1000
0100
1000
0001
,
0100
0010
0100
0001
1000
0001
0100
0010
0100
0001
1000
0001
0010
0100
1000
0001
,
4000
0000
0000
0000
0000
0000
0000
0000
0000
0000
0000
0000
3004
0003
0000
0000
,
0100
0010
0100
0001
1000
0001
0010
0100
1000
0001
1000
0010
0100
0010
1000
0001
,
1000
0100
0010
0001
1000
0001
0100
0001
1000
0010
0100
0010
1000
0001
1000
0100
,
1000
0001
0010
0100
1000
0001
0010
0001
1000
0001
0100
0010
0100
0001
1000
0001
,
4000
3000
0400
0300
0040
0030
0400
0300
4000
3000
0040
0030
0400
0300
0002
0003
,
1000
0010
1000
0001
0100
0001
1000
0100
0010
0001
1000
0001
0100
0010
0100
0001
,
1000
0001
0010
0100
1000
0001
0100
0001
1000
0010
0100
0010
1000
0001
1000
0100
,
0010
0001
1000
0001
0100
0001
1000
0010
0100
0010
1000
0001
1000
0100
0010
0001
,
4000
0000
0000
3000
0000
0000
0000
0000
0000
0000
0000
0000
0004
0000
0000
0003
0000
0000
0000
0000
0000
0000
0000
0000
0400
0000
0000
0000
0000
0000
0000
0000
0000
0000
0000
0000
0304
0000
0003
0000
0000
0000
0000
0000
0000
0000
0000
0000
,
1000
0010
1000
0001
0100
0001
1000
0100
0010
0001
1000
0001
0100
0010
0100
0001
,
1000
0001
0010
0100
1000
0001
1000
0010
0100
0010
1000
0001
0100
0001
1000
0100
,
0010
0001
1000
0001
0100
0001
1000
0010
0100
0010
1000
0001
0010
0100
1000
0001
,
4000
3000
0040
0030
0400
0300
0004
0003
0040
0030
0400
0300
4000
3000
0000
0000
,
0001
0100
0001
1000
0100
0010
0001
1000
,
0010
0100
0010
1000
0001
0100
0001
0010
,
0100
1000
0001
1000
0100
0010
0100
1000
,
0001
0100
0010
0100
0001
1000
0100
1000
,
0001
0010
0100
1000
0001
0100
0001
1000
,
0100
1000
0010
0100
0010
1000
0001
0100
,
0010
0100
0001
0010
0100
1000
0010
0100
,
0001
1000
0100
1000
0001
0010
0100
1000
,
0001
0100
0010
0100
0001
1000
0100
1000
,
0010
0100
0010
1000
0100
1000
0001
0100
,
0010
0100
0001
0010
0100
1000
0100
1000
,
0001
0100
0010
0100
0001
0010
0100
1000
,
0100
1000
0001
0100
0010
0100
0001
1000
,
0100
1000
0100
0010
0001
1000
0001
0010
,
0001
1000
0100
1000
0001
0100
0010
1000
,
0010
0100
0001
1000
0001
0000
0000
0000
,
1000
0010
1000
0001
0100
0001
1000
0010
0100
0001
1000
0001
0100
0001
1000
0100
,
1000
0001
0010
0001
1000
0100
1000
0001
0010
0100
1000
0001
4000
0000
0000
0000
,
3001
0100
0001
1000
0010
0100
0010
1000
0001
1000
0100
1000
0001
0010
0100
1000
,
0001
0010
0001
1000
0001
0100
0010
0100
0001
1000
0001
0100
0010
1000
0001
0010
,
0100
1000
0001
1000
0100
1000
0001
0010
0100
1000
0001
0100
0001
1000
0010
0100
,
0010
1000
0001
0100
0001
1000
0010
0100
0001
0000
0000
0000
0000
0000
0000
0000
,
1000
0100
1000
0001
0010
0100
1000
0001
0100
0001
1000
0001
0100
0010
0100
0001
,
1000
0001
1000
0100
1000
0001
0010
0100
1000
0001
0010
0001
1000
0010
1000
0001
,
0100
0001
1000
0010
0100
0010
1000
0001
1000
0001
0100
0001
1000
0100
1000
0001
,
0010
0100
1000
0001
0010
0001
1000
0100
0010
0001
1000
0001
0100
0001
1000
0010
,
0100
0010
1000
0001
0100
0001
1000
0010
0100
0001
1000
0001
0010
0100
0010
0001
,
1000
0100
1000
0001
0010
0100
1000
0001
1000
0010
0100
0001
4000
0000
0000
0000
,
3001
0100
0001
1000
0001
0100
0010
1000
0001
0100
0001
1000
0100
0010
0001
1000
,
0100
1000
0001
0010
0100
0010
0001
1000
0100
0010
0001
1000
0001
0100
0001
1000
,
0010
0100
0010
1000
0001
0100
0001
1000
0010
0100
0010
1000
0001
1000
0100
0010
,
0004
0043
0430
0340
0034
4003
3040
0430
,
0301
1000
0100
1000
0001
0010
0100
1000
,
0010
0000
0100
0000
0001
0000
1000
0000
0100
0000
1000
0000
0001
0010
0001
0010
,
0100
1000
0010
0100
0001
1000
0001
0100
,
0010
0000
0100
0000
0001
0000
1000
0000
0100
0000
1000
0010
1000
0000
0001
0000
,
1000
0100
1000
0000
0001
0000
0100
0000
0010
0000
0100
0000
0001
0000
0010
0000
,
0100
1000
0001
1000
0100
1000
0010
0100
,
0001
0010
0100
1000
0010
0100
0001
1000
,
0100
0000
0010
0000
0001
0000
1000
0000
0004
0000
0000
0000
0000
0000
0000
0003
,
1001
0000
1010
0000
,
0101
0000
1001
0000
,
1100
0000
0011
0000
,
0101
0000
1010
0000
,
0110
0000
0101
0000
,
1001
0000
1100
0000
,
0110
0000
0011
0000
,
1001
0000
1010
0000
,
0110
0000
1001
0000
,
0101
0000
0110
0000
,
1001
0000
1100
0000
,
0011
0000
1001
0000
,
1000
0100
1000
0001
,
0100
0001
0010
0100
,
1000
0001
0100
0010
,
0100
0000
0001
0000
1000
0000
0001
0000
0010
0000
0100
0000
1000
0001
1000
0001
,
0100
0010
1000
0001
0100
0001
1000
0010
0100
0010
1000
0001
1000
0100
1000
0001
,
0010
0100
1000
0001
0010
0100
0010
0001
1000
0001
0100
0001
1000
0010
0100
0001
,
1000
0100
1000
0001
0100
0001
1000
0100
0010
0001
1000
0100
1000
0001
0010
0100
,
1000
0001
1000
0010
0100
0010
1000
0001
1000
0010
0100
0001
4000
0000
3000
0000
,
0001
0010
0100
1000
0001
1000
0100
1000
0001
0010
0100
1000
0001
0100
0001
1000
,
0001
0100
0010
1000
0001
0100
0001
1000
0010
0100
0001
1000
0004
0000
0000
0000
,
1003
0010
1000
0001
0100
0010
0100
0001
1000
0001
1000
0100
1000
0001
0010
0100
,
1000
0001
0010
0001
1000
0100
0010
0001
1000
0001
0100
0001
1000
0010
0100
0010
,
1000
0001
1000
0100
1000
0001
0010
0001
1000
0100
1000
0001
0010
0100
1000
0001
,
1000
0001
0100
0010
0100
0001
1000
0100
1000
0001
0010
0100
4000
0000
0000
0000
,
3001
0100
0001
1000
0010
0100
0010
1000
0001
1000
0100
1000
0001
0010
0100
1000
,
0001
0010
0001
1000
0100
1000
0001
1000
0100
0010
0001
1000
0001
0100
0010
0100
,
0001
1000
0001
0100
0010
0100
0001
1000
0001
0100
0001
1000
0100
1000
0001
0010
,
0100
1000
0001
0010
0001
1000
0100
0010
0001
1000
0001
0100
0010
0100
0001
1000
,
0004
0003
0040
0030
0400
0300
4000
3000
,
0004
0003
0400
0300
0040
0030
4000
0000
,
3001
0100
0001
0010
0100
1000
0010
0100
,
0001
0000
1000
0000
0100
0000
1000
0000
0001
0000
0010
0000
0100
0000
1000
0100
,
1000
0001
0100
0010
0100
0001
1000
0100
,
0010
0000
0001
0000
1000
0000
0100
0000
1000
0000
0001
0000
1000
0001
0010
0100
,
1000
0010
0100
0010
1000
0001
0010
0100
,
0010
0000
0001
0000
1000
0000
0010
0000
0100
0000
0001
0000
1000
0100
1000
0001
,
0100
0010
0100
0001
0010
0100
1000
0001
,
1000
0100
1000
0001
0010
0100
1000
0010
0100
0001
1000
0010
0100
0001
0010
0100
,
2000
0000
0000
0000
,
0000
0000
0000
0000
,
0000
0000
0000
0000
,
0000
0000
0000
0000
,
3002
0000
0000
0000
,
0000
0000
0000
0000
,
0000
0000
0000
0000
,
0000
0000
0000
0000
,
2003
0000
0000
0000
,
0000
0000
0000
0000
,
0000
0000
0000
3000
;

//---------------dance-single - Afro a la Violence----------------
#NOTES:
     dance-single:
     Afro a la Violence:
     Edit:
     18:
     1.000,1.000,0.149,0.029,1.000,1601.000,26.000,5.000,0.000,0.000:
0000
0000
0000
0000
,
0000
0000
0000
0000
,
0000
0000
0000
0000
,
0000
0000
0000
0000
,
0000
0000
0000
0000
,
0000
0000
0000
0000
,
0000
0000
0000
0000
,
0000
0000
0000
0000
,
0001
1000
0010
1000
0001
0100
0010
1000
0001
1000
0001
0100
0010
0100
0001
1000
,
0001
0010
0001
1000
0100
0010
0001
1000
0100
1000
0001
0010
0001
0100
0010
0100
,
0001
1000
0010
0100
0010
1000
0001
0010
0100
1000
0001
0100
0001
1000
0100
0010
,
0001
1000
0001
0100
0010
0100
0001
1000
0001
0100
0010
1000
0100
0010
0100
1000
,
0001
0010
0001
1000
0100
0010
0001
1000
0001
1000
0010
0100
0010
1000
0001
1000
,
0010
0100
0001
1000
0001
0100
0010
0100
0001
1000
0001
0010
0100
1000
0010
0100
,
0001
1000
0100
1000
0001
1000
0100
0010
0001
1000
0001
0100
0001
1000
0010
0100
,
0010
1000
0001
1000
0010
0100
0001
1000
0100
1000
0100
1000
0100
1000
0100
1000
,
0001
1000
0001
1000
0100
0010
0001
1000
0001
0100
0010
1000
0001
1000
0100
1000
,
0001
0010
0100
1000
0001
0010
0001
1000
0010
1000
0001
0100
0010
0100
0001
1000
,
0100
0010
0001
1000
0100
1000
0001
1000
0010
0100
0010
1000
0001
1000
0100
1000
,
0001
0100
0010
1000
0001
0010
0100
1000
0010
0100
0010
0100
0001
1000
0001
1000
,
0001
0100
0010
0100
0001
1000
0010
1000
0001
1000
0100
0010
0001
1000
0001
0010
,
0001
1000
0010
1000
0001
0100
0001
1000
0001
1000
0100
0010
0001
1000
0100
1000
,
0001
0010
0100
1000
0001
1000
0010
0100
0010
1000
0001
0100
0010
1000
0001
1000
,
0001
0100
0001
0100
0001
0100
0001
0100
0001
0100
0001
0100
0010
1000
0100
0010
,
0001
1000
0001
1000
0010
1000
0001
0010
0100
1000
0001
1000
0100
0010
0001
1000
,
0010
1000
0001
0100
0010
0100
0001
1000
0001
0010
0001
0100
0010
0100
0010
1000
,
0001
1000
0010
1000
0001
0100
0010
0100
0001
1000
0001
0100
0010
1000
0010
0100
,
0001
1000
0001
0010
0100
1000
0001
0010
0001
1000
0010
1000
0001
0100
0010
0100
,
0001
1000
0010
1000
0001
0100
0001
0010
0001
1000
0100
1000
0001
0010
0100
1000
,
0001
1000
0010
0100
0001
1000
0010
1000
0001
0100
0010
0100
0001
0010
0001
0010
,
0100
0010
0001
1000
0010
1000
0001
1000
0100
0010
0001
1000
0001
0010
0001
1000
,
0010
0100
0001
0000
0010
0100
1000
0000
0010
0100
0001
0000
0010
0100
1000
0000
,
0001
1000
0001
0100
0010
0100
0001
1000
0001
0010
0100
1000
0001
1000
0100
1000
,
0001
0100
0001
1000
0010
0100
0010
1000
0001
1000
0100
0010
0001
0100
0010
1000
,
0001
0100
0001
1000
0100
0010
0001
1000
0001
0100
0010
0100
0001
1000
0010
1000
,
0001
0100
0001
1000
0001
0010
0100
1000
0001
1000
0010
1000
0001
0010
0100
1000
,
0001
1000
0010
0100
0010
1000
0001
1000
0010
0100
0010
1000
0001
1000
0100
0010
,
0001
1000
0100
1000
0001
1000
0010
0100
0010
1000
0001
0100
0001
0010
0100
1000
,
0001
0100
0001
1000
0100
0010
0001
1000
0001
0100
0010
0100
0001
1000
0001
0010
,
0100
1000
0001
1000
0010
0100
0001
1000
0100
1000
0001
0100
0010
1000
0001
0100
,
0002
0000
0000
0000
,
0000
0000
0000
0000
,
0000
0000
0000
0000
,
0000
0000
0000
0000
,
2003
0000
0000
0000
,
0000
0000
0000
0000
,
0000
0000
0000
0000
,
0000
0000
0000
0000
0000
0000
0000
0000
0000
0000
0000
0000
0000
0000
0000
3000
,
0001
0001
0000
0000
1000
1000
0000
0000
,
0100
0100
0000
0000
1000
1000
0000
0000
,
0001
0001
0000
0000
0100
0100
0000
0000
,
0001
0001
0000
0000
1000
1000
0000
0000
,
0100
0100
0000
0000
1000
1000
0000
0000
,
0001
0001
0000
0000
0100
0100
0000
0000
,
0001
0001
0000
0000
1000
1000
0000
0000
,
0100
0100
0000
0000
1000
1000
0000
0000
,
0001
0001
0000
0000
0100
0100
0000
0000
,
0001
0001
0000
0000
1000
1000
0000
0000
,
0100
0100
0000
0000
1000
1000
0000
0000
,
0001
0001
0000
0000
0100
0100
0000
0000
,
0001
0001
0001
0001
,
1000
1000
0001
0000
,
0100
0100
0000
0000
0001
0001
0000
0000
,
1000
0000
0001
0000
0100
0000
0001
0000
1000
0010
1000
0010
0100
0001
1000
0100
,
1000
0010
0100
0001
1000
0001
0010
0100
1000
0001
0010
0001
1000
0100
1000
0001
,
1000
0010
0100
0001
0100
0001
1000
0001
0100
0010
1000
0001
1000
0100
1000
0001
,
0100
0010
0100
0001
1000
0001
0100
0010
0100
0001
1000
0001
0010
0100
1000
0010
,
0100
0001
0010
0001
0100
0010
1000
0100
0010
0100
1000
0010
0100
0001
0010
0100
,
1000
0001
0100
0001
1000
0001
0010
0100
1000
0001
1000
0010
0100
0010
1000
0001
,
1000
0100
0010
0001
1000
0001
0100
0001
1000
0010
0100
0010
1000
0001
1000
0100
,
1000
0001
0010
0100
1000
0001
0010
0001
1000
0001
0100
0010
1000
0001
0100
0001
,
0010
0100
1000
0001
0010
0100
0010
0001
0100
0010
1000
0010
0100
0001
0010
0001
,
1000
0100
1000
0001
0100
0001
1000
0100
0010
0001
1000
0001
0100
0010
0100
0001
,
1000
0001
0010
0100
1000
0001
0100
0001
1000
0010
0100
0010
1000
0001
1000
0100
,
0010
0001
1000
0001
0100
0001
1000
0010
0100
0010
1000
0001
1000
0100
0010
0001
,
0100
0010
1000
0010
0100
0001
0010
0001
0100
0010
1000
0100
0010
0100
1000
0010
,
0100
0001
1000
0001
0100
0001
1000
0100
0010
0001
1000
0001
0100
0010
0100
0001
,
1000
0001
0010
0100
1000
0001
1000
0010
0100
0010
1000
0001
0100
0001
1000
0100
,
0010
0001
1000
0001
0100
0001
1000
0010
0100
0010
1000
0001
0010
0100
1000
0001
,
4000
3000
0040
0030
0400
0300
0004
0003
0040
0030
0400
0300
4000
3000
0000
0000
,
0001
0100
0001
1000
0100
0010
0001
1000
,
0010
0100
0010
1000
0001
0100
0001
0010
,
0100
1000
0001
1000
0100
0010
0100
1000
,
0001
0100
0010
0100
0001
1000
0100
1000
,
0001
0010
0100
1000
0001
0100
0001
1000
,
0100
1000
0010
0100
0010
1000
0001
0100
,
0010
0100
0001
0010
0100
1000
0010
0100
,
0001
1000
0100
1000
0001
0010
0100
1000
,
0001
0100
0010
0100
0001
1000
0100
1000
,
0010
0100
0010
1000
0100
1000
0001
0100
,
0010
0100
0001
0010
0100
1000
0100
1000
,
0001
0100
0010
0100
0001
0010
0100
1000
,
0100
1000
0001
0100
0010
0100
0001
1000
,
0100
1000
0100
0010
0001
1000
0001
0010
,
0001
1000
0100
1000
0001
0100
0010
1000
,
0010
0100
0001
1000
0001
0000
0000
0000
,
1000
0010
1000
0001
0100
0001
1000
0010
0100
0001
1000
0001
0100
0001
1000
0100
,
1000
0001
0010
0001
1000
0100
1000
0001
0010
0100
0010
0001
0100
0010
1000
0100
,
0010
0001
1000
0001
0100
0010
0100
0001
1000
0001
0010
0001
1000
0100
0010
0001
,
1000
0100
1000
0001
1000
0010
0100
0010
1000
0001
1000
0010
0100
0001
1000
0100
,
0010
0001
1000
0001
0010
0001
1000
0100
0010
0001
1000
0010
1000
0001
0100
0010
,
0100
0001
1000
0010
1000
0001
0100
0010
1000
0000
0000
0000
0000
0000
0000
0000
,
0001
0010
0001
1000
0100
0010
0001
1000
0010
1000
0001
1000
0010
0100
0010
1000
,
0001
1000
0001
0010
0001
1000
0100
0010
0001
1000
0100
1000
0001
0100
0001
1000
,
0010
1000
0001
0100
0010
0100
0001
1000
0001
1000
0010
1000
0001
0010
0001
1000
,
0100
0010
0001
1000
0100
1000
0001
0010
0100
1000
0001
1000
0010
1000
0001
0100
,
0010
0100
0001
1000
0010
1000
0001
0100
0010
1000
0001
1000
0100
0010
0100
1000
,
0001
0010
0001
1000
0100
0010
0001
1000
0001
0100
0010
1000
0100
0010
0100
1000
,
0001
0100
0001
1000
0001
0100
0010
1000
0001
0100
0001
1000
0100
0010
0001
1000
,
0100
1000
0001
0010
0100
0010
0001
1000
0100
0010
0001
1000
0001
0100
0001
1000
,
0010
0100
0010
1000
0001
0100
0001
1000
0010
0100
0010
1000
0001
1000
0100
0010
,
0004
0043
0430
0340
0034
4003
3040
0430
,
0301
1000
0100
1000
0001
0010
0100
1000
,
0010
0000
0100
0000
0001
0000
1000
0000
0100
0000
1000
0000
0001
0010
0001
0010
,
0100
1000
0010
0100
0001
1000
0001
0100
,
0010
0000
0100
0000
0001
0000
1000
0000
0100
0000
1000
0010
1000
0000
0001
0000
,
1000
0100
1000
0000
0001
0000
0100
0000
0010
0000
0100
0000
0001
0000
0010
0000
,
0100
0000
1000
0000
0001
0000
1000
0000
0100
0000
1000
0000
0010
0000
0100
0001
,
1000
0100
0010
0001
0100
0010
1000
0001
,
0010
0000
0100
0000
1000
0000
0001
0000
1000
0100
0010
0001
0100
0010
1000
0000
,
1001
0000
1010
0000
,
0101
0000
1001
0000
,
1100
0000
0011
0000
,
0101
0000
1010
0000
,
0110
0000
0101
0000
,
1001
0000
1100
0000
,
0110
0000
0011
0000
,
1001
0000
1010
0000
,
0110
0000
1001
0000
,
0101
0000
0110
0000
,
1001
0000
1100
0000
,
0011
0000
1001
0000
,
1000
0100
1000
0001
,
0100
0001
0010
0100
,
1000
0001
0100
0010
,
0100
0000
0001
0000
1000
0000
0001
0000
0010
0000
0100
0000
1000
0001
1000
0001
,
0100
0010
1000
0001
0100
0001
1000
0010
0100
0010
1000
0001
1000
0100
1000
0001
,
0010
0100
1000
0001
0010
0100
0010
0001
1000
0001
0100
0001
1000
0010
0100
0001
,
1000
0100
1000
0001
0100
0001
1000
0100
0010
0001
1000
0100
1000
0001
0010
0100
,
1000
0001
1000
0010
0100
0010
1000
0001
1000
0010
0100
0001
0010
0100
1000
0010
,
1000
0001
0100
0001
1000
0001
0010
0001
1000
0100
0010
0001
1000
0010
1000
0001
,
1000
0010
0100
0001
1000
0010
1000
0001
0100
0010
1000
0100
0010
0001
0100
0001
,
1000
0010
1000
0001
0100
0010
0100
0001
1000
0001
1000
0100
1000
0001
0010
0100
,
1000
0001
0010
0001
1000
0100
0010
0001
1000
0001
0100
0001
1000
0010
0100
0010
,
1000
0001
1000
0100
1000
0001
0010
0001
1000
0100
1000
0001
0010
0100
1000
0001
,
1000
0001
0100
0010
0100
0001
1000
0100
1000
0001
0010
0100
1000
0010
0100
0010
,
1000
0010
1000
0001
0100
0010
0100
0001
1000
0001
0010
0001
1000
0100
0010
0001
,
1000
0100
1000
0001
0010
0001
1000
0001
0010
0100
1000
0001
1000
0010
0100
0010
,
1000
0001
1000
0010
0100
0010
1000
0001
1000
0010
1000
0001
0010
0001
1000
0100
,
0010
0001
1000
0100
1000
0001
0010
0100
1000
0001
1000
0010
0100
0010
1000
0001
,
4000
3000
0400
0300
0040
0030
0004
0003
,
4000
3000
0040
0030
0400
0300
0004
0000
,
1003
0010
1000
0100
0010
0001
0100
0010
,
1000
0000
0001
0000
0010
0000
0001
0000
1000
0000
0100
0000
0010
0000
0001
0010
,
0001
1000
0010
0100
0010
1000
0001
0010
,
0100
0000
1000
0000
0001
0000
0010
0000
0001
0000
1000
0000
0001
1000
0100
0010
,
0001
0100
0010
0100
0001
1000
0100
0010
,
0100
0000
1000
0000
0001
0000
0100
0000
0010
0000
1000
0000
0001
0010
0001
1000
,
0010
0100
0010
1000
0100
0010
0001
1000
,
0001
0010
0001
1000
0100
0010
0001
0100
0010
1000
0001
0100
0010
1000
0100
0010
,
0002
0000
0000
0000
,
0000
0000
0000
0000
,
0000
0000
0000
0000
,
0000
0000
0000
0000
,
2003
0000
0000
0000
,
0000
0000
0000
0000
,
0000
0000
0000
0000
,
0000
0000
0000
0000
,
3002
0000
0000
0000
,
0000
0000
0000
0000
,
0000
0000
0000
0003
;
