#TITLE:Ecstasy 2007;
#SUBTITLE:[ITG Mix];
#ARTIST:Trancesept;
#TITLETRANSLIT:;
#SUBTITLETRANSLIT:;
#ARTISTTRANSLIT:;
#CREDIT:;
#BANNER:../banner.png;
#BACKGROUND:../bg.png;
#LYRICSPATH:;
#CDTITLE:;
#MUSIC:Ecstasy 2007 [ITG Mix].ogg;
#OFFSET:-0.016;
#SAMPLESTART:21.480;
#SAMPLELENGTH:20.420;
#SELECTABLE:YES;
#BPMS:0.000=189.977;
#STOPS:;
#BGCHANGES:;
// cache tags:
#FIRSTBEAT:4.000;
#LASTBEAT:388.000;
#SONGFILENAME:Songs/Cirque du Lykan/Ecstasy 2007 [ITG Mix] - [Zaia]/Ecstasy 2007 [ITG Mix].sm;
#HASMUSIC:1;
#HASBANNER:1;
#MUSICLENGTH:159.137;
// end cache tags

//---------------dance-single - Zaia - 15(low)----------------
#NOTES:
     dance-single:
     Zaia - 15(low):
     Challenge:
     15:
     1.000,1.000,0.082,0.000,1.000,1178.000,13.000,0.000,0.000,0.000:
0000
0000
0000
0000
,
1010
0000
0000
0010
0000
0000
0100
0000
,
0101
0000
0000
0001
0000
0000
1000
1100
,
0000
0000
0000
0010
0000
0000
0001
0000
,
1001
0000
0000
1000
0000
0000
0010
0100
,
0001
0000
0000
1000
0000
0000
0100
0010
,
0001
0000
0000
1000
0010
0000
0100
0001
,
0000
0000
0000
0010
0000
0000
0100
1000
,
0001
0000
0000
0100
0000
0000
0001
1000
,
0001
0100
0001
0000
1000
0100
1000
0000
0001
0100
0001
0000
1000
0100
1000
0000
,
0001
0010
0001
0000
1000
0010
1000
0000
0010
0100
0010
0000
0100
0001
0100
0000
,
0001
1000
0001
0000
1000
0100
1000
0000
0001
0010
0001
0000
0010
0100
0010
0000
,
0100
1000
0100
0000
1000
0001
1000
0000
0001
0100
0001
0000
1000
0010
1000
0001
,
1000
0010
1000
0010
1000
0010
1000
0010
,
0110
0000
0100
0000
0001
0000
0100
0000
0001
0000
0100
0000
0001
0000
0100
0001
,
0100
0010
1000
0001
0100
0010
1000
0001
1000
0100
0010
0100
1000
0001
0010
0001
,
1000
0010
0100
0010
1000
0001
0010
0100
1000
0001
1000
0010
0100
0001
0100
0010
,
1000
0100
0010
0001
1000
0010
1000
0001
0010
0001
1000
0100
0010
0100
1000
0010
,
0100
0001
1000
0010
0100
0001
1000
0100
1000
0001
0010
0001
1000
0001
0100
0010
,
1000
0100
1000
0001
0100
0001
1000
0100
0010
0100
1000
0001
0100
0010
0100
0001
,
0010
0100
0010
0100
1000
0100
0010
0001
1000
0010
0100
0001
1000
0010
1000
0100
,
1000
0010
0100
0001
1000
0100
0010
0100
1000
0001
0010
0001
1000
0010
1000
0001
,
0100
0001
0010
0100
0010
0001
1000
0010
0100
0001
1000
0010
1000
0001
0100
0010
,
1000
0100
0010
0001
1000
0010
0100
0010
1000
0001
0010
0100
1000
0001
1000
0100
,
0010
0001
0100
0001
1000
0010
0100
0001
1000
0100
1000
0001
0010
0001
1000
0001
,
1000
0010
0100
0001
1000
0100
1000
0001
0100
0001
1000
0010
0100
0010
1000
0100
,
0010
0001
1000
0100
0010
0001
1000
0010
1000
0001
0100
0001
1000
0001
0010
0100
,
1000
0010
1000
0001
0010
0001
1000
0010
0100
0010
1000
0001
0010
0100
0010
0001
,
0100
0010
0100
0010
1000
0010
0100
0001
1000
0100
0010
0001
1000
0100
1000
0010
,
1000
0100
0010
0001
1000
0010
0100
0010
1000
0001
0100
0001
1000
0100
1000
0001
,
0010
0001
0100
0010
0100
0001
1000
0100
0010
0001
1000
0100
1000
0001
0010
0100
,
1000
0010
0100
0001
1000
0100
0010
0100
1000
0001
0100
0010
1000
0001
1000
0010
,
1000
0100
0010
0100
1000
0010
0100
0010
1000
0100
0010
0001
1000
0010
0100
0001
,
1000
0010
0100
0001
0000
0010
0100
1000
,
0100
0010
0001
1000
0000
0010
0100
0010
,
1000
0001
1000
0010
0000
0100
0001
1000
,
0100
0010
0100
0010
0000
0001
1000
0100
,
1100
1000
0010
0100
0101
0001
1000
0010
,
1010
1000
0001
0010
0011
0001
1000
0100
,
0110
0010
0001
1000
1010
0010
0100
0001
,
1001
1000
0001
0010
0011
0001
0010
0100
,
1000
0001
0010
0001
1000
0010
0100
0010
1000
0100
0010
0001
1000
0001
0010
0100
,
1000
0001
0100
0001
0100
0010
1000
0001
0010
0001
1000
0010
0100
0001
1000
0001
,
0100
0010
1000
0100
1000
0001
0010
0001
0100
0010
1000
0001
0010
0100
0010
0001
,
1000
0010
1000
0001
0100
0010
0100
0001
1000
0100
0010
0100
1000
0010
0100
0010
,
0100
0000
0001
0000
0100
0000
0001
0000
0100
0000
0001
0000
0100
0001
1000
0010
,
1000
0000
0010
0000
1000
0000
0010
0000
1000
0000
0010
0000
1000
0000
0100
1000
,
0010
0100
0001
0100
0010
1000
0001
0100
0001
1000
0001
0010
0100
0010
0001
1000
,
0100
1000
0010
1000
0001
0100
0010
1000
0001
0010
0100
1000
0001
0010
0100
1000
,
0001
0000
1000
0100
0000
0100
0010
0000
,
0001
0000
1000
0010
0000
0010
0100
0001
,
0000
0001
0000
1000
0000
0100
0010
0000
,
0001
0000
1000
0001
0000
1000
0010
1000
,
0100
0010
0001
1000
0000
0001
0100
0001
,
1000
0100
0010
0001
0000
0010
0001
1000
,
0010
0100
0001
1000
0000
0100
0010
0001
,
0000
0100
0010
1000
0000
0001
1000
0010
,
1000
0000
0001
0000
,
1000
0000
0000
0000
0001
0000
0000
1000
,
0010
0100
0010
0100
,
0010
0000
0000
0000
0100
0000
0000
0000
0010
0000
0000
0000
0100
0000
0000
0010
,
0100
0000
0000
0001
0000
0000
0100
0000
0000
0001
0000
0000
0100
0000
0000
0001
0000
0000
0100
0000
0000
0010
0000
1000
,
0001
0000
1000
0000
0001
0000
1000
0000
0001
0000
1000
0000
0001
0000
1000
0001
,
0010
0100
0010
0100
1000
0001
1000
0100
0010
0001
1000
0010
1000
0001
0100
0001
,
1000
0100
0010
0001
0010
0100
1000
0001
0100
0010
1000
0010
0100
0001
1000
0001
,
1000
0100
0010
0001
1000
0010
1000
0001
0010
0100
0010
0001
0100
0001
1000
0100
,
1000
0010
0100
0001
1000
0010
1000
0100
0010
0001
0010
0100
0010
0001
1000
0010
,
1000
0100
0010
0001
1000
0010
1000
0001
0100
0001
1000
0100
0010
0100
1000
0001
,
1000
0010
0100
0001
1000
0010
1000
0100
0010
0100
0010
0001
1000
0010
0100
0010
,
1000
0100
0010
0100
1000
0001
0010
0100
1000
0001
0100
0001
1000
0100
0010
0001
,
1000
0010
0100
0010
1000
0001
0010
0001
1000
0010
0100
0001
1000
0001
0010
0001
,
1000
0100
0010
0100
1000
0001
0100
0010
1000
0001
1000
0010
0100
0001
0010
0100
,
1000
0010
0100
0010
1000
0001
0010
0001
1000
0100
0010
0100
1000
0001
1000
0100
,
1000
0010
0100
0001
1000
0100
1000
0001
0100
0010
0100
0001
0010
0001
1000
0010
,
1000
0100
0010
0001
1000
0100
1000
0010
0100
0001
0100
0010
0100
0001
1000
0100
,
1000
0010
0100
0001
1000
0100
1000
0001
0010
0001
1000
0010
0100
0010
1000
0001
,
1000
0100
0010
0001
1000
0100
1000
0010
0100
0010
0100
0001
1000
0100
0010
0100
,
1000
0010
0100
0010
1000
0001
0100
0010
1000
0001
0010
0001
1000
0010
0100
0001
,
1000
0100
0010
0100
1000
0001
0100
0001
1000
0100
0010
0001
1000
0001
0100
0001
,
1000
0010
0100
0010
1000
0001
0010
0100
1000
0001
1000
0100
0010
0001
0100
0010
,
1000
0100
0010
0100
1000
0001
0100
0001
1000
0010
0100
0010
1000
0001
1000
0010
,
0100
0001
0100
0010
1000
0001
0010
0001
1000
0001
0100
0001
0010
0001
0010
0100
,
1000
0100
0010
0001
1000
0010
0100
0010
1000
0001
1000
0100
1000
0001
1000
0010
,
0100
0001
1000
0001
0010
0100
1000
0001
0100
0001
1000
0001
0100
0010
1000
0010
,
0100
0001
1000
0001
0010
0100
1000
0001
1000
0100
0010
0001
1000
0001
0100
0010
,
1000
0100
0010
0001
1000
0100
1000
0001
0100
0001
1000
0100
0010
0001
1000
0001
,
1000
0010
0100
0001
1000
0100
1000
0001
0100
0001
1000
0010
0100
0001
1000
0001
,
1000
0100
0010
0001
1000
0100
0010
0100
1000
0010
0100
0010
0100
0001
1000
0100
,
1000
0010
0100
0001
1000
0100
1000
0001
1000
0010
0100
0010
1000
0001
1000
0100
,
1000
0010
0100
0001
1000
0100
1000
0001
0100
0001
1000
0010
0100
0010
1000
0100
,
0010
0001
1000
0100
0010
0001
1000
0010
1000
0001
0100
0001
1000
0001
0010
0100
,
1000
0010
1000
0001
0010
0001
1000
0010
0100
0010
1000
0001
0010
0100
0010
0001
,
0100
0010
0100
0010
1000
0010
0100
0001
1000
0100
0010
0001
1000
0100
1000
0010
,
1000
0100
0010
0001
1000
0010
0100
0010
1000
0001
0100
0001
1000
0100
1000
0001
,
0010
0001
0100
0010
0100
0001
1000
0100
0010
0001
1000
0100
1000
0001
0010
0100
,
1000
0010
0100
0001
1000
0100
0010
0100
1000
0001
0100
0010
1000
0001
1000
0010
,
0100
0000
0001
0000
1000
0000
0010
0000
1000
0010
1000
0001
1000
0100
0010
0001
;

//---------------dance-single - Zaia - 13(mid-high)----------------
#NOTES:
     dance-single:
     Zaia - 13(mid-high):
     Hard:
     13:
     0.914,1.000,0.107,0.377,0.798,941.000,17.000,60.000,0.000,0.000:
0000
0000
0000
0000
,
1010
0000
0000
0010
0000
0000
0100
0000
,
0101
0000
0000
0001
0000
0000
1000
1100
,
0000
0000
0000
0010
0000
0000
0001
0000
,
1001
0000
0000
1000
0000
0000
0010
0100
,
0001
0000
0000
1000
0000
0000
0100
0010
,
0001
0000
0000
1000
0010
0000
0100
0001
,
0000
0000
0000
0010
0000
0000
0100
1000
,
0001
0000
0000
0100
0000
0000
0001
1000
,
0001
0100
0001
0000
1000
0100
1000
0000
0001
0100
0001
0000
1000
0100
1000
0000
,
0001
0010
0001
0000
1000
0010
1000
0000
0010
0100
0010
0000
0100
0001
0100
0000
,
0001
1000
0001
0000
1000
0100
1000
0000
0001
0010
0001
0000
0010
0100
0010
0000
,
0100
1000
0100
0000
1000
0001
1000
0000
0001
0100
0001
0000
1000
0010
1000
0001
,
1000
0010
1000
0010
1000
0010
1000
0010
,
0110
0000
0100
0000
0001
0000
0100
0000
0001
0000
0100
0000
0001
0000
0100
0001
,
0100
0010
1000
0001
0100
0010
1000
0001
1000
0100
0010
0100
1000
0001
0010
0001
,
1000
0000
0010
0000
0100
0000
0010
0000
1000
0001
1000
0010
0100
0001
0100
0010
,
1000
0100
0010
0001
1000
0010
1000
0001
0010
0001
1000
0100
0010
0100
1000
0010
,
0100
0001
1000
0010
0100
0001
1000
0100
1000
0001
0010
0001
1000
0001
0100
0010
,
1000
0100
1000
0001
0100
0001
1000
0100
0010
0100
1000
0001
0100
0010
0100
0001
,
0010
0100
0010
0100
1000
0100
0010
0001
1000
0010
0100
0001
1000
0010
1000
0100
,
1000
0010
0100
0001
1000
0100
0010
0100
1000
0001
0010
0001
1000
0010
1000
0001
,
0100
0001
0010
0100
0010
0001
1000
0010
0100
0001
1000
0010
1000
0001
0100
0010
,
1000
0100
0010
0001
1000
0010
0100
0010
1000
0001
0010
0100
1000
0001
1000
0100
,
0010
0001
0100
0001
1000
0010
0100
0001
1000
0100
1000
0001
0010
0001
1000
0001
,
1000
0010
0100
0001
1000
0100
1000
0001
0100
0001
1000
0010
0100
0010
1000
0100
,
0010
0001
1000
0100
0010
0001
1000
0010
1000
0001
0100
0001
1000
0001
0010
0100
,
1000
0010
1000
0001
0010
0001
1000
0010
0100
0010
1000
0001
0010
0100
0010
0001
,
0100
0010
0100
0010
1000
0010
0100
0001
1000
0100
0010
0001
1000
0100
1000
0010
,
1000
0100
0010
0001
1000
0010
0100
0010
1000
0001
0100
0001
1000
0100
1000
0001
,
0010
0001
0100
0010
0100
0001
1000
0100
0010
0001
1000
0100
1000
0001
0010
0100
,
1000
0010
0100
0001
1000
0100
0010
0100
1000
0001
0100
0010
1000
0001
1000
0010
,
1000
0100
0010
0100
1000
0010
0100
0010
1000
0100
0010
0001
1000
0010
0100
0001
,
1000
0010
0100
0001
0000
0010
0100
1000
,
0100
0010
0001
1000
0000
0010
0100
0010
,
1000
0001
1000
0010
0000
0100
0001
1000
,
0100
0010
0100
0010
0000
0001
1000
0100
,
1100
1000
0010
0100
0101
0001
1000
0010
,
1010
1000
0001
0010
0011
0001
1000
0100
,
0110
0010
0001
1000
1010
0010
0100
0001
,
1001
1000
0001
0010
0011
0001
0010
0100
,
1000
0100
0010
0001
0000
0100
0010
1000
,
0010
0100
0001
1000
0000
0100
0010
0100
,
1000
0001
1000
0100
0000
0010
0001
1000
,
0010
0100
0010
0100
0000
0001
1000
0010
,
1010
1000
0100
0010
0011
0001
1000
0100
,
1100
0000
1000
0000
0001
0000
0100
0000
0101
0000
0001
0000
1000
0000
0001
0100
,
0010
0100
0001
0100
0010
1000
0001
0100
0001
1000
0001
0010
0100
0010
0001
1000
,
0100
1000
0010
1000
0001
0100
0010
1000
0001
0010
0100
1000
0001
0010
0100
1000
,
0001
0000
1000
0100
0000
0100
0010
0000
,
0001
0000
1000
0010
0000
0010
0100
0001
,
0000
0001
0000
1000
0000
0100
0010
0000
,
0001
0000
1000
0001
0000
1000
0010
1000
,
0100
0010
0001
1000
0000
0001
0100
0001
,
1000
0100
0010
0001
0000
0010
0001
1000
,
0010
0100
0001
1000
0000
0100
0010
0001
,
0000
0100
0010
1000
0000
0001
1000
0010
,
1000
0000
0001
0000
,
1000
0000
0000
0000
0001
0000
0000
1000
,
0010
0100
0010
0100
,
0010
0000
0000
0000
0100
0000
0000
0000
0010
0000
0000
0000
0100
0000
0000
0010
,
0100
0000
0000
0001
0000
0000
0100
0000
0000
0001
0000
0000
0100
0000
0000
0001
0000
0000
0100
0000
0000
0010
0000
1000
,
0001
0000
1000
0000
0001
0000
1000
0000
0001
0000
1000
0000
0001
0000
1000
0001
,
0010
0100
0010
0100
1000
0001
1000
0100
0010
0001
1000
0010
1000
0001
0100
0001
,
1000
0100
0010
0001
0010
0100
1000
0001
0100
0010
1000
0010
0100
0001
1000
0001
,
1000
0100
0010
0200
2300
3200
0320
0031
,
0100
0010
0100
0002
0023
0032
0023
0130
,
1000
0001
0100
0002
2003
3020
2030
3010
,
0100
0001
1000
0200
0320
0230
2300
3010
,
0100
0001
0100
0020
0130
0001
0020
0230
,
1300
0010
0100
0020
1030
0100
0020
0230
,
1300
0001
0010
0200
1300
0001
2000
3020
,
0130
0001
1000
0200
1300
0001
0200
0302
,
1003
0010
0100
0020
2030
3020
0230
0301
,
0010
0100
0010
0002
0203
0302
0203
0310
,
1000
0001
0010
0002
2003
3200
2300
3100
,
0010
0001
1000
0020
0230
0320
2030
3100
,
0010
0001
0010
0200
0310
0001
0200
0320
,
1030
0100
0010
0200
1300
0010
0200
0320
,
1030
0001
0100
0020
1030
0001
2000
3200
,
0310
0001
1000
0020
1030
0001
0020
0032
,
1003
0010
0100
0002
0000
0013
0100
1000
,
0100
0010
0001
2000
0000
3010
0100
0010
,
1000
0001
1000
0020
0000
0130
0001
1000
,
0100
0010
0100
0020
0000
0031
1000
0100
,
1000
0010
0100
0001
0010
0001
1000
0100
,
1000
0010
1000
0001
0100
0001
0010
0001
,
1000
0010
0100
0001
1000
0100
0010
0001
,
0100
0001
0010
0100
1000
0010
0100
0001
,
1000
0010
0100
0001
1000
0100
1000
0001
0100
0001
1000
0010
0100
0010
1000
0100
,
0010
0001
1000
0100
0010
0001
1000
0010
1000
0001
0100
0001
1000
0001
0010
0100
,
1000
0010
1000
0001
0010
0001
1000
0010
0100
0010
1000
0001
0010
0100
0010
0001
,
0100
0010
0100
0010
1000
0010
0100
0001
1000
0100
0010
0001
1000
0100
1000
0010
,
1000
0100
0010
0001
1000
0010
0100
0010
1000
0001
0100
0001
1000
0100
1000
0001
,
0010
0001
0100
0010
0100
0001
1000
0100
0010
0001
1000
0100
1000
0001
0010
0100
,
1000
0010
0100
0001
1000
0100
0010
0100
1000
0001
0100
0010
1000
0001
1000
0010
,
0100
0000
0001
0000
1000
0000
0010
0000
1000
0010
1000
0001
1000
0100
0010
0001
,
1000
0000
0000
0000
;

//---------------dance-single - Zaia - 9(high)----------------
#NOTES:
     dance-single:
     Zaia - 9(high):
     Medium:
     9:
     0.736,0.884,0.107,0.635,0.060,701.000,17.000,101.000,0.000,0.000:
0000
0000
0000
0000
,
1010
0000
0000
0010
0000
0000
0100
0000
,
0101
0000
0000
0001
0000
0000
1000
1100
,
0000
0000
0000
0010
0000
0000
0001
0000
,
1001
0000
0000
1000
0000
0000
0010
0100
,
0001
0000
0000
1000
0000
0000
0100
0010
,
0001
0000
0000
1000
0010
0000
0100
0001
,
0000
0000
0000
0010
0000
0000
0100
1000
,
0001
0000
0000
0100
0000
0000
0001
1000
,
0001
0100
0001
0000
1000
0100
1000
0000
0001
0100
0001
0000
1000
0100
1000
0000
,
0001
0010
0001
0000
1000
0010
1000
0000
0010
0100
0010
0000
0100
0001
0100
0000
,
0001
1000
0001
0000
1000
0100
1000
0000
0001
0010
0001
0000
0010
0100
0010
0000
,
0100
1000
0100
0000
1000
0001
1000
0000
0001
0100
0001
0000
1000
0010
1000
0001
,
1000
0010
1000
0010
1000
0010
1000
0010
,
0110
0100
0001
0100
0001
0100
0001
0100
,
0010
1000
0001
0010
0100
0010
0001
0100
,
0001
0000
1000
0000
0010
0000
0100
0000
0004
0000
0000
0000
0000
0000
0000
0003
,
1000
0100
0010
0100
1000
0001
1000
0010
,
0100
0001
1000
0100
1000
0001
0100
0001
,
1000
0010
0100
0001
0010
0100
0010
0001
,
1000
0010
0100
0001
1000
0100
0010
0001
,
0100
0001
1000
0100
1000
0010
1000
0001
,
0010
0100
0010
0001
1000
0010
0100
0010
,
1000
0001
0010
0001
0100
0001
1000
0100
,
1000
0001
0010
0100
1000
0001
1000
0100
,
1000
0010
0100
0010
1000
0001
1000
0100
,
0010
0001
1000
0010
1000
0001
0010
0001
,
1000
0100
0010
0001
0100
0010
0100
0001
,
1000
0100
0010
0001
1000
0010
0100
0001
,
0010
0001
1000
0010
1000
0100
1000
0001
,
0100
0010
0100
0001
1000
0100
0010
0100
,
1000
0001
0100
0001
0010
0001
1000
0010
,
1000
0001
0100
0010
1000
0001
0100
0001
,
1000
0100
0010
0001
0000
0010
0100
1000
,
0100
0010
0001
1000
0000
0010
0100
0010
,
1000
0001
1000
0010
0000
0100
0001
1000
,
0100
0010
0100
0010
0000
0001
1000
0100
,
1100
1000
0010
0100
0101
0001
1000
0010
,
1010
1000
0001
0010
0011
0001
1000
0100
,
0110
0010
0001
1000
1010
0010
0100
0001
,
1001
1000
0001
0010
0011
0001
0010
0100
,
1000
0100
0010
0001
0000
0100
0010
1000
,
0010
0100
0001
1000
0000
0100
0010
0100
,
1000
0001
1000
0100
0000
0010
0001
1000
,
0010
0100
0010
0100
0000
0001
1000
0010
,
1010
1000
0100
0010
0011
0001
1000
0100
,
1100
1000
0001
0100
0101
0001
1000
0001
,
0100
0010
1000
0001
0010
0100
1000
0001
,
0100
0001
1000
0100
1000
0001
0010
0100
,
1000
0000
0001
0010
0000
0010
0100
0000
,
1000
0000
0001
0100
0000
0100
0010
1000
,
0000
1000
0000
0001
0000
0010
0100
0000
,
1000
0000
0001
1000
0000
0001
0100
0001
,
0010
0100
1000
0001
0000
1000
0010
1000
,
0001
0010
0100
1000
0000
0100
1000
0001
,
0100
0010
1000
0001
0000
0010
0100
1000
,
0000
0010
0100
0001
0000
1000
0001
0100
,
0001
0000
1000
0000
,
0001
0000
0000
0000
1000
0000
0000
0001
,
0100
0010
0100
0010
,
0100
0000
0000
0000
0010
0000
0000
0000
0100
0000
0000
0000
0010
0000
0000
0100
,
0010
1000
0010
1000
0010
1000
0010
0100
,
0001
1000
0001
1000
0001
1000
0001
1000
,
0010
0100
0001
0100
0010
1000
0100
0010
,
0001
0010
0100
1000
0001
0100
0001
1000
,
0001
0010
0100
0020
0032
0023
0230
1300
,
0010
0100
0010
2000
3200
2300
3200
0310
,
0001
1000
0010
2000
3002
0203
0302
0103
,
0010
1000
0001
0020
0230
0320
0032
0103
,
0010
1000
0010
0200
0310
1000
0200
0320
,
0031
0100
0010
0200
0301
0010
0200
0320
,
0031
1000
0100
0020
0031
1000
0002
0203
,
0310
1000
0001
0020
0031
1000
0020
2030
,
3001
0100
0010
0200
0302
0203
0320
1030
,
0100
0010
0100
2000
3020
2030
3020
0130
,
0001
1000
0100
2000
3002
0023
0032
0013
,
0100
1000
0001
0200
0320
0230
0302
0013
,
0100
1000
0100
0020
0130
1000
0020
0230
,
0301
0010
0100
0020
0031
0100
0020
0230
,
0301
1000
0010
0200
0301
1000
0002
0023
,
0130
1000
0001
0200
0301
1000
0200
2300
,
3001
0100
0010
2000
0000
3100
0010
0001
,
0010
0100
1000
0002
0000
0103
0010
0100
,
0001
1000
0001
0200
0000
0310
1000
0001
,
0010
0100
0010
0200
0000
1300
0001
0010
,
0001
0100
0010
1000
0100
1000
0001
0010
,
0001
0100
0001
1000
0010
1000
0100
1000
,
0001
0100
0010
1000
0001
0010
0100
1000
,
0010
1000
0100
0010
0001
0100
0010
1000
,
0001
0100
0010
0200
0301
0200
0320
1030
,
0100
0010
0100
2000
3010
2000
3020
0230
,
0301
2000
3100
2000
3001
0020
0032
0013
,
0200
1300
0002
0203
0310
0200
0302
0023
,
0130
2000
3200
0320
0130
2000
3020
0230
,
0301
0020
0230
0320
0031
0200
0320
0230
,
0301
2000
3020
0230
0301
2000
3002
0023
,
0130
2000
3002
0203
0301
2000
3200
2300
,
3001
0000
0000
0000
;
