#TITLE:Arithmetic Punishment;
#SUBTITLE:;
#ARTIST:Whourkr;
#TITLETRANSLIT:;
#SUBTITLETRANSLIT:;
#ARTISTTRANSLIT:;
#CREDIT:ChaosUnown;
#BANNER:arithmetic-bn.png;
#BACKGROUND:arithmetic.png;
#LYRICSPATH:;
#CDTITLE:chaosunownCD.png;
#MUSIC:arithmetic.ogg;
#OFFSET:0.016;
#SAMPLESTART:36.580;
#SAMPLELENGTH:12.000;
#SELECTABLE:YES;
#DISPLAYBPM:173.000;
#BPMS:0.000=173.000,84.000=346.000,87.000=173.000,227.000=346.000,233.000=173.000,326.062=999999.000,364.000=173.000;
#STOPS:84.000=0.022
,84.125=0.022
,84.250=0.021
,84.375=0.022
,84.500=0.022
,84.625=0.021
,84.750=0.022
,84.875=0.021
,85.000=0.022
,85.125=0.022
,85.250=0.021
,85.375=0.022
,85.500=0.022
,85.625=0.021
,85.750=0.022
,85.875=0.022
,86.000=0.021
,86.125=0.022
,86.250=0.022
,86.375=0.021
,86.500=0.022
,86.625=0.022
,86.750=0.021
,86.875=0.022
,227.000=0.043
,227.250=0.044
,227.500=0.043
,227.750=0.043
,228.000=0.043
,228.250=0.044
,228.500=0.043
,228.750=0.043
,229.000=0.043
,229.250=0.044
,229.500=0.044
,229.750=0.044
,230.000=0.022
,230.125=0.022
,230.250=0.022
,230.375=0.021
,230.500=0.021
,230.625=0.021
,230.750=0.022
,230.875=0.022
,231.000=0.021
,231.125=0.021
,231.250=0.021
,231.375=0.022
,231.500=0.022
,231.625=0.022
,231.750=0.022
,231.875=0.022
,232.000=0.022
,232.125=0.021
,232.250=0.022
,232.375=0.022
,232.500=0.021
,232.625=0.022
,232.750=0.021
,232.875=0.022
,358.000=2.057
;
#BGCHANGES:;
// cache tags:
#FIRSTBEAT:8.000;
#LASTBEAT:364.000;
#SONGFILENAME:Songs/Omnifarious/(ChaosUnown) Arithmetic Punishment/arithmetic.sm;
#HASMUSIC:1;
#HASBANNER:1;
#MUSICLENGTH:116.110;
// end cache tags

//---------------dance-single - P. Mason----------------
#NOTES:
     dance-single:
     P. Mason:
     Challenge:
     12:
     1.000,1.000,0.586,0.637,1.000,666.000,68.000,74.000,283.000,0.000:

0000
0000
0000
0000
,
0000
0000
0000
0000
,
M002
0103
0110
0020
1030
1100
0004
0000
,
0013
0110
0100
1000
1010
0004
0000
1003
,
1100
0100
0010
0011
4000
0000
3010
0110
,
0100
0000
0001
0000
1000
0100
1000
0000
00M1
00M0
00M1
00M0
01M0
00M0
00M1
10M0
,
00M1
10M0
0400
0000
0000
0000
0000
0000
2300
0000
3001
0000
0101
0000
4000
0000
,
0000
0000
3100
0000
0110
0000
0001
0000
1000
0000
1010
0000
0004
0003
0004
0003
,
0004
0003
1000
0000
1100
0000
0100
0000
0010
0000
0011
0000
4000
3000
4000
3000
,
4000
3000
4000
3000
0010
0000
0110
0000
0100
0000
0001
0000
1000
0100
1000
0100
,
0020
0000
0031
0010
0M01
0M00
0M01
0M00
1M00
0M00
0M10
1M00
0M10
1M00
0M01
0M00
,
1M00
0M01
1M00
0M01
0M10
0M00
0M10
0M00
0M01
0M00
0M01
0M00
1M00
0M01
1M00
0M01
,
0M10
0M00
0M01
1M00
0M10
0000
0000
0000
0000
0000
0010
0000
0000
0000
0000
0000
,
0010
0000
0000
0010
0000
0000
0000
0000
0000
0000
0000
0000
0010
0000
0000
0000
0000
0000
0000
0000
0010
0000
0000
0000
,
0010
0000
0000
0101
0000
0000
1001
1100
,
0000
0000
0000
0000
0110
0000
0000
0000
0001
1000
0001
1000
0M10
0000
0010
0000
,
0110
0000
0000
0000
0000
0000
0100
0000
0000
0001
0000
0000
0100
0000
0000
0001
0000
0000
1000
0000
0000
0000
0000
0000
0100
0000
0000
0000
0000
0000
0100
0000
0000
0000
0000
0000
1000
0000
0001
0000
1000
0000
0001
0000
0000
0000
0000
0000
,
1000
0000
0010
0000
0110
0000
1000
0000
1000
0000
0001
0000
0011
0000
0010
0100
,
0010
0100
1000
0000
0001
0000
0001
0000
0101
0000
0100
0010
0100
0010
0100
0010
,
0100
0010
0100
0000
10M1
0000
4000
0000
3100
0000
0010
0000
0002
0000
0103
0000
,
0002
0000
0000
0000
0000
0000
0103
0000
0000
0000
0000
0000
0020
0000
0000
0000
0000
0000
2030
0000
0000
0000
0000
0000
3001
0000
0000
0000
0000
0000
0010
0000
0000
0100
0000
0000
1000
0000
0000
0000
0000
0000
0001
0000
1000
0000
0001
0000
,
0400
0000
0310
1000
0004
0000
0043
0000
0430
0000
0340
0000
0031
0000
2000
0000
,
0000
0000
0000
0000
0000
0000
0000
0000
0000
0000
0000
0000
0000
0000
0000
0000
0000
0000
0000
3000
1002
0000
0000
0000
0003
0000
0000
0000
M1M1
0000
0000
0000
,
0100
0000
0000
0000
0000
0000
0010
0000
0000
0000
0000
0000
1000
0000
0000
0001
0000
0000
1000
0000
0000
0001
0000
0000
0010
0000
0000
0000
0000
0000
0400
0000
0000
0000
0000
0000
4300
0000
0000
0000
0000
0000
3001
0000
0100
0000
0001
0000
,
0100
0000
0040
0000
4030
0000
3001
0000
0010
0000
0010
0000
0100
0000
0010
0100
,
0010
0000
0000
0100
0000
0000
2000
0000
0000
0000
0000
0000
3001
0000
0000
0000
0000
0000
0100
0000
0001
0000
0100
0000
0001
0000
0000
1000
0000
0000
0100
0000
0000
0010
0000
0000
0100
0000
0000
0010
0000
0000
0001
0000
0000
1000
0000
0000
,
0010
0000
0000
0000
1000
0000
0001
0000
1000
0000
0001
0000
0M20
0000
0000
0000
0430
0000
0000
0300
1100
0000
0000
0000
1000
0000
0000
0000
0002
0000
0000
0000
,
0103
0002
1003
0200
0320
0031
2000
3040
,
0430
0000
0301
0000
0001
1000
0200
0000
0310
0000
0010
0000
0011
0000
1000
0000
,
1000
0001
1000
0001
1000
0001
1000
0001
0200
0000
0000
0000
0000
0310
0100
0010
,
1000
0001
1000
0001
0010
0000
0100
1000
0100
1000
0001
0000
0100
0010
0100
0010
,
1000
0001
0010
0000
0001
0100
0001
0100
0010
0000
1000
0001
1000
0001
0010
0100
,
0010
0000
0001
1000
0001
1000
0010
0000
0100
0001
10M0
00M0
01M0
10M0
01M0
10M0
,
00M1
00M0
01M0
00M1
01M0
00M1
10M0
00M0
01M0
10M0
0001
0100
0001
0100
0010
0000
,
1000
0100
1000
0100
0010
0000
0001
1000
0001
1000
0010
0100
0001
0000
1000
0100
,
1000
0100
0010
0000
0001
0100
0001
0100
0010
1000
0001
0000
0010
0100
0010
0100
,
1000
0000
0001
0100
M040
M000
M430
M000
M304
M000
M043
M000
M430
M000
M340
M000
,
M034
M000
M403
M000
0320
0000
0000
0000
0000
0000
0000
0000
0030
0000
0000
0000
,
1000
0000
0000
0000
0100
0000
0000
0000
0010
0000
0000
0004
1003
0000
0000
0000
,
1000
0010
0100
0001
,
0010
0000
0000
0400
0320
0000
0000
0000
0000
0000
0030
0000
0000
0000
0000
0000
,
0001
0000
0000
4000
3100
0000
0000
0000
0010
0000
0000
0004
2003
0000
0000
0000
,
0000
0000
3100
0000
0010
0000
0001
0000
1000
0000
0010
0000
0200
0000
0301
1000
,
0200
0000
0310
0001
2MM0
0000
3001
0200
0000
0301
2000
0000
3001
0200
0000
0301
,
1000
0000
1000
0000
0100
0000
0100
0000
0010
0000
0010
0000
0001
1000
0001
1000
,
0100
0000
0000
1000
0000
0000
0100
0000
0000
1000
0000
0000
0001
0000
0000
0100
0000
0000
0001
0000
0000
0100
0000
0000
0001
0000
1000
0000
0001
0000
1000
0000
0001
0000
1000
0000
0001
0000
1000
0000
0001
0000
4000
0000
0004
0000
0000
0000
,
0000
0000
0000
0003
3020
0000
0130
0002
0000
0103
0020
0000
0130
0002
0000
0103
,
0020
2030
3020
2030
3020
2030
3001
0001
,
0011
0000
0000
0000
0000
0000
0000
0000
0010
0000
0000
0000
0000
0000
0000
0000
0100
0000
0000
0000
0000
0000
0000
0000
1000
0000
0000
0000
0000
0000
0000
0000
1001
0000
0000
0000
0000
0000
0000
0000
0000
0000
0101
0000
0000
0000
0000
0000
0000
0000
0000
0110
0000
0000
0000
0000
0000
0000
0000
0000
1010
0000
0000
0000
,
0000
0000
0000
1001
0000
0000
0000
0000
00M1
0000
0000
0000
1000
0000
0100
0000
0000
0000
1000
0000
0001
0000
0000
0000
1000
0000
0100
0000
0000
0000
1000
0000
,
0001
0000
0001
0000
1000
0000
1000
0000
0010
0000
0010
0000
0100
0001
0100
0001
,
1000
0000
0000
0001
0000
0000
1000
0000
0000
0001
0000
0000
0010
0000
0000
0100
0000
0000
0010
0000
0000
0100
0000
0000
1000
0000
0100
0000
1000
0000
0100
0000
1000
0000
0100
0000
1000
0000
0100
0000
1000
0000
0400
0000
4000
0000
0000
0000
,
0000
0000
0000
3000
0310
0000
0001
0010
0000
0100
0010
0000
0000
0010
0001
0000
,
1000
0000
0000
0010
0000
0000
0000
0000
0000
0000
0000
0000
1000
0000
0000
0000
0100
0000
0000
0000
1000
0000
0000
0000
0001
0000
0000
0000
0100
0000
0000
0000
0001
0000
0000
0000
2000
0000
0000
0000
0000
0000
0000
0000
0000
3000
0000
0000
,
2000
0000
0000
0000
0000
0000
0000
0000
0000
3000
0000
0000
2000
0000
0000
0000
0000
0000
0000
0000
0000
0000
0000
0000
3001
0000
0000
0000
0000
0000
0000
0000
0001
0000
0000
0000
0000
0000
0000
0000
0001
0000
0000
0000
0000
0000
0000
0000
,
0001
0000
0001
0000
1MM1
0000
0000
1000
0000
0000
1000
0000
0000
1000
0000
0000
,
0102
0000
0000
0000
0100
0000
0100
0000
1000
0000
1000
0000
1003
0100
0010
0100
,
1000
0001
0100
0010
1000
0001
0010
0100
0040
0000
0000
0000
0034
0000
4003
0000
,
3040
0430
0304
4003
3200
0000
0300
0200
0000
0300
0200
0000
0300
0200
0000
0300
,
0220
0000
0000
0330
0020
0000
0000
0030
0020
0000
0000
0000
0032
0000
0000
0003
,
0002
0000
0000
0000
0000
0000
0000
0000
0000
0000
0000
0000
0003
0000
0000
0000
0002
0000
0000
0000
0000
0000
0000
0000
0000
0000
0000
0000
0003
0000
0000
0000
2001
0000
0000
0000
0000
0000
0000
0000
0000
0000
3010
0000
0000
0000
0000
0000
0000
0000
0000
2000
0000
0000
0000
0000
0000
0000
0000
0000
3010
0000
0000
0000
,
0000
0000
0000
0000
0000
2000
0000
0000
0000
0000
0000
0000
0000
0000
0000
3000
0110
0000
0000
0000
0000
0000
0000
0000
0000
0000
0000
0000
0110
0000
0000
0000
0000
0000
0000
0000
0000
0000
0000
0000
0110
0000
0000
0000
0000
0000
0000
0000
0000
0000
0000
0000
0110
0000
0000
0000
0000
0000
0000
0000
0000
0000
0000
0000
,
0001
0000
0001
0000
1000
0000
1000
0000
0100
0000
0100
0000
0010
0001
0010
0001
,
1000
0000
0000
0001
0000
0000
1000
0000
0000
0001
0000
0000
1000
0000
0000
0010
0000
0000
1000
0000
0000
0010
0000
0000
0400
0000
0004
0000
0000
0000
0000
0000
0000
0000
0000
0000
0000
0000
0000
0000
0000
0000
0000
0000
0000
0000
0000
0000
,
0000
0000
0000
0003
0320
0000
0000
2030
0000
0000
3002
0000
0000
0023
0000
0000
,
0M32
2003
3020
0230
,
0302
0000
0000
0000
0000
0000
0000
0000
0000
0000
0000
0000
0000
0000
0000
0000
0023
0000
0000
0000
0000
0000
0000
0000
0000
0000
0000
0000
0000
0000
0000
0030
1100
0000
0000
0000
0000
0000
0000
0000
0000
1001
0000
0000
0000
0000
0000
0000
0000
0000
0101
0000
0000
0000
0000
0000
0000
0000
0000
0000
0110
0000
0000
0000
,
0000
0000
0000
1020
0000
0000
0000
0000
0000
0000
0000
0000
0000
0000
000M
0000
000M
0000
000M
0000
0000
0000
0000
M000
M000
0000
M000
0000
0000
0000
0000
0000
,
0M00
0000
0000
0000
0000
0000
0000
0000
0000
0000
0000
0000
0000
0000
0000
0000
0000
0000
0M00
0000
0000
0000
0000
0000
0000
0000
0000
0000
0000
0000
0000
0000
0000
0000
0000
0000
0000
0000
0000
0000
0000
0000
0000
0000
0000
0000
0000
0000
0000
0000
0000
0000
0000
0000
0M00
0000
0000
0000
0000
0000
0000
0000
0000
0000
0000
0000
0000
0000
0000
0000
0000
0000
0000
0000
0000
0000
0000
0000
0000
0000
0000
0000
0000
0000
0000
0000
0000
0000
0000
0000
0000
0000
0000
0000
0000
0000
0000
0000
0000
0000
0000
0000
0000
0000
0000
0000
0000
0000
0000
0000
0000
0000
0000
0000
0000
0000
0000
0000
0000
0000
0000
0000
0000
0000
0000
0000
0000
0000
0000
0000
0000
0000
0000
0000
0000
0000
0000
0000
0000
0000
0000
0000
0000
0000
0000
0000
0000
0000
0000
0000
0000
0000
0000
0000
0000
0000
0000
0000
0000
0000
0000
0000
0000
0000
0000
0000
0000
0000
0130
0000
0000
0000
0000
0000
0000
0000
0001
0000
0000
0000
0000
0000
0000
0000
0100
0000
0000
0000
0000
0000
0000
0000
,
M0M1
0000
0000
M000
0100
0000
M000
0000
0001
M000
0000
0000
M100
0000
0000
M000
0001
0000
M000
0000
0100
M000
0000
0000
M001
0000
0000
M000
0100
0000
M000
0000
0001
M000
0000
0000
M100
0000
0000
M000
0001
0000
M000
0000
0100
M000
0000
0000
,
M010
0000
0000
M000
0100
0000
M000
0000
0001
M000
0000
0000
M100
0000
0000
M000
0001
0000
M000
0000
0100
M000
0000
0000
M001
0000
0000
M000
0100
0000
M000
0000
0001
M000
0000
0000
M100
0000
0000
M000
0001
0000
M000
0000
0100
M000
0000
0000
,
0010
0000
0000
0M00
1000
0000
0M00
0000
0001
0M00
0000
0000
1M00
0000
0000
0M00
0001
0000
0M00
0000
1000
0M00
0000
0000
0M01
0000
0000
0M00
1000
0000
0M00
0000
0001
0M00
0000
0000
1M00
0000
0000
0M00
0001
0000
0M00
0000
1000
0M00
0000
0000
,
0M10
0000
0000
0M00
1000
0000
0M00
0000
0001
0M00
0000
0000
1M00
0000
0000
0M00
0001
0000
0M00
0000
1000
0M00
0000
0000
0M01
0000
0000
0M00
1000
0000
0M00
0000
0001
0M00
0000
0000
1M00
0000
0000
0M00
0001
0000
0M00
0000
1000
0M00
0000
0000
,
0001
0000
0000
M000
0010
0000
M000
0000
0100
M000
0000
0000
M010
0000
0000
M000
0100
0000
M000
0000
0010
M000
0000
0000
M100
0000
0000
M000
0010
0000
M000
0000
0100
M000
0000
0000
M010
0000
0000
M000
0100
0000
M000
0000
0010
M000
0000
0000
,
M001
0000
0000
M000
0010
0000
M000
0000
0100
M000
0000
0000
M010
0000
0000
M000
0100
0000
M000
0000
0010
M000
0000
0000
M100
0000
0000
M000
0010
0000
M000
0000
0100
M000
0000
0000
M010
0000
0000
M000
0100
0000
M000
0000
0010
M000
0000
0000
,
0001
0000
0000
00M0
1000
0000
00M0
0000
0100
00M0
0000
0000
10M0
0000
0000
00M0
0100
0000
00M0
0000
1000
00M0
0000
0000
01M0
0000
0000
00M0
1000
0000
00M0
0000
0100
00M0
0000
0000
10M0
0000
0000
00M0
0100
0000
00M0
0000
1000
00M0
0000
0000
,
00M1
0000
0000
00M0
1000
0000
00M0
0000
0100
00M0
0000
0000
10M0
0000
0000
00M0
0100
0000
00M0
0000
1000
00M0
0000
0000
01M0
0000
0000
00M0
1000
0000
00M0
0000
0100
00M0
0000
0000
10M0
0000
0000
00M0
0100
0000
00M0
0000
1000
00M0
0000
0000
,
0200
0000
0000
0000
0000
0000
0310
0000
0011
0000
0001
1000
0001
1000
0010
0000
,
M11M
0000
0100
0000
0001
1000
0001
1000
0010
0000
0100
0000
0002
0000
0013
0000
,
M110
0000
0100
0000
1000
0000
0001
0000
0100
0010
0100
0001
1000
0010
1000
0001
,
0M20
0000
0130
0000
1000
0001
1000
0001
0010
0000
0100
0000
0020
0000
0031
0000
,
2M00
3010
0200
0301
0020
0000
0000
0000
,
0000
0000
0000
0000
,
0000
0000
0000
0000
,
0000
0000
0000
0000
,
0000
0000
0000
0000
,
0000
0000
0000
0000
,
0000
0000
0000
0000
,
0000
0000
0000
0000
,
0000
0000
0000
0000
0000
0000
0000
0000
0000
0000
0000
0000
0000
0000
0000
0000
0000
0000
0000
0000
0000
0000
0000
0000
0000
0000
0000
0000
0000
0000
0000
0000
M00M
0M00
M000
0M0M
000M
M00M
M000
0M00
MM0M
0000
0000
0M0M
M00M
000M
M000
0M00
0M0M
0000
M000
0M00
0M0M
M00M
0M00
M00M
M00M
0000
0000
0M00
MM00
M000
0000
0000
,
MM0M
0000
000M
000M
0M00
M00M
0000
0M00
MM0M
0000
000M
0000
0M00
000M
0000
M000
0M0M
0000
0000
0000
0000
0000
0000
0000
0000
0000
0000
0000
0000
0000
0000
0000
0000
0000
0000
0000
0000
0000
0000
0000
0000
0000
0000
0000
0000
0000
0000
0000
0000
0000
0000
0000
0000
0000
0000
0000
0000
0000
0000
0000
0000
0000
0000
0000
,
0030
0000
0000
0000
;
