#TITLE:Hello, Happy Kingdom;
#SUBTITLE:Super Mario RPG;
#ARTIST:Nintendo;
#TITLETRANSLIT:;
#SUBTITLETRANSLIT:;
#ARTISTTRANSLIT:;
#CREDIT:;
#BANNER:Banner.jpg;
#BACKGROUND:BG.jpg;
#LYRICSPATH:;
#CDTITLE:pa.png;
#MUSIC:1-12_-_hello_happy_kingdom.mp3;
#OFFSET:0.000;
#SAMPLESTART:99.960;
#SAMPLELENGTH:12.000;
#SELECTABLE:YES;
#BPMS:0.000=96.600;
#STOPS:;
#BGCHANGES:;
// cache tags:
#FIRSTBEAT:1.000;
#LASTBEAT:240.125;
#SONGFILENAME:Songs/toune/1-12_-_hello_happy_kingdom/1-12_-_hello_happy_kingdom.sm;
#HASMUSIC:1;
#HASBANNER:1;
#MUSICLENGTH:153.064;
// end cache tags

//---------------dance-single - ----------------
#NOTES:
     dance-single:
     :
     Hard:
     10:
     0.686,0.745,0.764,0.157,0.931,594.000,117.000,24.000,0.000,3.000:
0000
0000
1000
0001
1000
0001
1000
0001
,
1000
0000
0001
0000
1000
0000
0100
0000
1000
0000
0100
0000
1000
0000
0100
0010
,
0001
0000
1000
0000
0100
0000
0100
1000
0100
0000
0010
0000
0001
0000
0100
0000
,
1001
0000
0000
0000
1000
0000
0100
0000
1000
0000
0100
0000
1000
0000
0100
0010
,
0100
0000
0000
0000
1000
0000
0000
0000
0100
0000
0000
0000
1000
0000
0100
0000
0010
0000
0000
0000
0001
0000
0000
0000
1000
0000
0000
0000
0100
1000
0100
1000
,
0100
0000
0000
0000
1001
0000
0100
1000
0100
0000
1000
0000
1001
0000
0001
0010
,
0001
0000
0010
0000
1001
0000
1000
0100
0010
0000
0001
0000
1001
0000
0100
1000
,
1001
0100
1000
0100
1001
0000
0001
0010
0100
0000
0100
0000
1001
0000
0001
0010
,
0100
0000
0100
0000
1001
0000
0010
0100
0010
0000
0100
0000
1001
0000
1000
0100
,
1001
1000
0100
1000
1001
0000
1000
0000
1100
0000
0100
0000
1100
0000
0100
0000
,
0110
0010
0011
0010
0110
0100
1100
0100
,
0001
0010
0001
0010
0100
0010
0001
0000
0011
0000
0000
0000
0010
0000
0000
0000
0110
0000
0000
0000
0100
0000
0000
0000
1100
0000
0000
0000
1000
0000
0000
0000
,
1100
0000
0000
0000
0100
0000
0000
0000
0110
0000
0000
0000
0010
0000
0000
0000
0011
0000
0000
0000
0001
0000
0000
0000
0011
0000
0000
0000
0100
1000
0100
1000
,
0100
1000
0000
0000
0001
0000
0010
0000
0100
0000
0000
0000
1000
0000
0000
0000
0100
0000
0000
0000
0010
0000
0000
0000
0001
0000
0000
0000
1000
0000
0100
0000
,
1000
0000
0100
0000
0010
0000
0001
0010
0001
0000
0010
0000
1000
0000
0100
0000
,
1000
0000
0100
0000
0010
0000
0001
0000
0010
0000
0001
0000
1000
0000
0100
1000
,
0100
0000
0000
0000
1000
0000
0000
0000
0100
0000
0000
0000
1000
0000
0100
0000
0010
0000
0000
0000
0001
0000
0000
0000
1000
0100
0010
0100
1000
0010
0100
0001
,
0010
0100
1000
0001
0010
0100
0000
0000
1000
0000
0000
0000
0100
0000
0010
0000
0001
0000
0000
0000
0010
0000
0000
0000
0200
0000
2300
0000
3200
0000
2300
0000
,
3200
2300
3200
0300
1001
0000
0100
0010
0101
0000
1000
0000
1001
0000
0100
0000
,
0101
0000
1000
0000
1010
0000
0001
0010
0110
0000
1000
0000
1010
0000
0001
0000
,
0101
0000
0000
0000
1100
0000
0001
0010
0101
0000
1000
0000
1010
0000
1000
0000
,
0110
1000
0101
0100
0101
0010
2002
0000
,
0000
0000
0000
3003
1010
0000
1000
0100
0110
0000
0001
0000
0101
0000
0100
0000
,
1010
0000
1000
0000
0011
0000
0001
0100
1010
0000
0100
0000
0011
0000
0100
0000
,
1010
0000
0100
0000
1100
0000
1000
0100
0011
0000
0100
0000
1010
0000
0010
0000
,
0101
1000
1010
0010
1010
0100
1010
0100
,
1010
0000
0000
0000
1000
0000
0100
0000
0010
0000
0100
0000
1000
0000
0100
1000
,
0100
0000
0100
0000
0001
0000
0010
0010
0001
0000
1000
0000
0100
0000
1000
0000
,
0100
1000
0100
1000
0100
0000
1000
0000
0100
0000
0010
0000
0001
0000
1000
0100
,
1000
0000
0000
0000
0010
0000
0000
0000
0010
0000
0000
0000
1000
0000
0100
0000
1000
0000
0000
0000
0100
0000
0000
0000
1000
0000
0000
0000
1000
0100
0010
0001
,
0010
0000
0000
0000
0000
0000
0000
0000
0000
1001
0000
0000
0000
1000
0000
0100
0000
0010
0000
0000
0000
0001
0000
0000
0000
1010
0000
0000
0000
0100
0000
0010
,
0000
0100
0000
0000
0000
0010
0000
0000
0000
0110
0000
0000
0000
1000
0000
0100
0000
0010
0000
0000
0000
0100
0000
0000
0000
0101
0000
0000
0000
0100
0000
1000
,
0000
1010
0000
0100
0000
0100
0000
0001
0000
0101
0000
0000
0000
1000
0000
0100
0000
0010
0000
0000
0000
1000
0000
0000
0000
0101
0000
0000
0000
1000
0000
0100
,
0000
0010
0000
0000
0000
0001
0000
0000
0000
1000
0000
0000
0000
0100
0000
1000
0000
1000
0000
0000
0000
0100
0000
0000
0000
0101
0000
0000
0000
0100
0000
0010
,
0000
0001
0000
0010
0000
0100
0000
0000
0000
1001
0000
0000
0000
0100
0000
0000
0000
1010
0000
0000
0000
0100
0000
0000
0000
1010
0000
0000
0000
0010
0000
0000
,
0000
0101
0000
0000
0000
0100
0000
0000
0000
1010
0000
0000
0000
0100
0000
0000
0000
0101
0000
0000
0000
0100
0000
0000
0000
1010
0000
0000
0000
0100
0000
0000
,
0001
0010
0001
0100
0010
0001
0010
0100
0001
0000
0000
0000
0000
0100
0000
0000
0000
1000
0000
0000
0000
0100
0000
0000
0000
1000
0000
0000
0000
0100
0000
1000
,
0000
0100
0000
0000
0000
1000
0000
0000
0000
0100
0000
0000
0000
1000
0000
0100
0000
1000
0000
0000
0000
0100
0000
0000
0000
1000
0000
0000
1000
0100
0010
0001
,
0010
0100
0000
0000
1000
0000
0000
0000
0002
0000
0000
0000
0100
0000
0000
0000
1000
0000
0000
0000
0100
0000
0000
0000
0010
0000
0000
0000
0100
0000
1000
0000
,
0100
0000
0010
0000
2103
0000
0010
0010
0001
0000
0010
0000
0100
0000
0010
0000
,
0001
0000
0010
0000
3012
0000
0100
0000
1000
0000
0100
0000
0010
0000
1000
0100
,
0010
0000
0000
0000
0100
0000
0000
0000
2013
0000
0000
0000
0100
0000
0010
0000
0001
0000
0000
0000
0010
0000
0000
3000
0001
0010
0100
1000
0100
1000
0100
0010
,
0001
0010
0100
1000
0100
0010
0001
0100
1000
0000
1000
0000
0000
0000
0100
0000
0010
0000
0001
0000
0000
0000
0010
0000
0000
0000
0200
0000
2300
0000
3200
0000
,
2300
3200
2300
3200
0300
1001
0000
0100
0010
0101
0000
1000
0000
1001
0000
0100
,
0000
0101
0000
1000
0000
1010
0000
0001
0010
0110
0000
1000
0000
1010
0000
0001
,
0000
0101
0000
0000
0000
1100
0000
0001
0010
0101
0000
1000
0000
1010
0000
0010
,
0000
0000
1001
0000
0000
0000
0000
0000
0000
0101
0000
0000
0000
0100
0000
0000
0000
1010
0000
0000
0000
0100
0000
0000
0000
0022
0000
0000
0000
0000
0000
0000
,
0000
0000
0000
0000
0000
0000
0000
0000
0033
1100
0000
0000
0000
0100
0000
0010
0000
0101
0000
0000
0000
0100
0000
0000
0000
0101
0000
0000
0000
0100
0000
0000
,
0000
1010
0000
0000
0000
0100
0000
0000
0000
0101
0000
0000
0000
1000
0000
0100
0000
0101
0000
0000
0000
1000
0000
0000
0000
0101
0000
0000
0000
1000
0000
0000
,
0000
1010
0000
0000
0000
1000
0000
0000
0000
0101
0000
0000
0000
0001
0000
0100
0000
1001
0000
0000
0000
0100
0000
0000
0000
1001
0000
0000
0000
0100
0000
0000
,
0000
1001
0000
0000
0000
0001
0000
0000
0000
1010
0000
0000
0000
0100
0000
0000
0000
0101
0000
0000
0000
1000
0000
0000
0000
2020
0000
0000
0000
0000
0000
0000
,
0000
0000
0000
3030
1000
0000
0100
0000
1000
0000
0100
0000
1000
0000
0100
1000
,
0100
0000
1000
0000
0100
0000
1000
0100
1000
0000
0100
0000
0010
0000
0001
0000
,
0100
1000
0100
1000
0100
0000
1000
0000
0001
0000
0010
0000
0001
0000
0001
0010
,
0100
0000
0000
0000
1000
0000
0000
0000
0100
0000
0000
0000
0010
0000
0001
0000
0010
0000
0000
0000
0001
0000
0000
0000
0010
0000
0000
0000
0001
0010
0100
1000
,
0100
0010
0000
0000
0000
0000
0000
0000
0000
1001
0000
0000
0000
0100
0000
0010
0000
0100
0000
0000
0000
0010
0000
0000
0000
1010
0000
0000
0000
1000
0000
0100
,
0000
0010
0000
0000
0000
1000
0000
0000
0000
0101
0000
0000
0000
1000
0000
0100
0000
0010
0000
0000
0000
0100
0000
0000
0000
1001
0000
0000
0000
1000
0000
0100
,
0000
0011
0000
1000
0000
0100
0000
0010
0000
1001
0000
0000
0000
1000
0000
0100
0000
0010
0000
0000
0000
0100
0000
0000
0000
1001
0000
0000
0000
1000
0000
0100
,
0000
1000
0000
0000
0000
0100
0000
0000
0000
1010
0000
0000
0000
1000
0000
0100
0000
1000
0000
0000
0000
0100
0000
0000
0000
1010
0000
0000
0000
1000
0000
0100
,
0000
1000
0000
0000
0000
0100
0000
0000
0000
1001
0000
0000
0000
0100
0000
0000
0000
1001
0000
0000
0000
0100
0000
0000
0000
1100
0000
0000
0000
0100
0000
0000
,
0000
1010
0000
0000
0000
0000
0000
0000
0000
0000
0000
0000
0000
0000
0000
0000
0000
0000
0000
0000
0000
0000
0000
0000
0000
0000
0000
0000
0000
0000
0000
0000
;
