#TITLE:stone tower temple;
#SUBTITLE:;
#ARTIST:近藤浩治;
#TITLETRANSLIT:;
#SUBTITLETRANSLIT:;
#ARTISTTRANSLIT:koji kondo;
#CREDIT:;
#BANNER:majoras_mask_mmside[1].png;
#BACKGROUND:twinmold[1].gif;
#LYRICSPATH:;
#CDTITLE:IS.png;
#MUSIC:243_-_stone_tower_temple.mp3;
#OFFSET:0.040;
#SAMPLESTART:100.000;
#SAMPLELENGTH:12.000;
#SELECTABLE:YES;
#BPMS:0.000=99.920;
#STOPS:;
#BGCHANGES:;
// cache tags:
#FIRSTBEAT:8.500;
#LASTBEAT:191.500;
#SONGFILENAME:Songs/newbie/zelda - stone tower temple/stone tower.sm;
#HASMUSIC:1;
#HASBANNER:1;
#MUSICLENGTH:119.928;
// end cache tags

//---------------dance-single - ----------------
#NOTES:
     dance-single:
     :
     Easy:
     5:
     0.299,0.339,0.175,0.000,0.000,230.000,21.000,0.000,0.000,0.000:
0000
0000
0000
0000
,
0000
0000
0000
0000
,
0000
1000
0000
1000
0000
0000
0001
0010
,
0000
0100
0000
0100
0001
0000
0100
0010
,
0000
1000
0000
1000
0001
0000
0100
0010
,
0000
1000
0000
1000
0001
0000
0100
0010
,
0000
1000
0000
1000
0001
0000
0100
0010
,
0000
1000
0000
1000
0001
0000
0100
0010
,
0000
1000
0001
1000
0001
1000
0001
0100
,
0000
0010
0100
0010
0100
0010
0100
1001
,
0000
1000
0000
0001
0000
0100
0000
0000
,
0010
1000
0001
0100
0010
1000
0000
0001
,
0000
0100
0000
0010
0000
1000
0000
0000
,
0001
0100
0010
1000
0001
0100
0000
0010
,
0000
1000
0000
0001
0000
1000
0000
0000
,
0001
0010
0100
1000
0100
0010
0000
0001
,
0000
0010
0000
0100
0000
1000
0000
0000
,
0001
0010
0100
1000
0100
0010
0000
0001
,
0000
0010
0000
0010
0100
0000
0001
1000
,
0000
0010
0000
0010
0100
0000
0001
1000
,
0000
0010
0000
0010
0100
0000
0001
1000
,
0000
0010
0000
0010
0100
0000
0001
1000
,
0000
0100
0000
0100
0000
0010
0000
0000
,
1000
0001
0000
0100
0010
0001
0000
0000
,
0000
0001
0000
0001
0000
0010
0000
0000
,
0010
0100
0000
0100
0000
1000
0000
0000
,
0000
0110
0000
0110
0000
1001
0000
0000
,
0000
0110
0000
1001
0001
0010
0000
0000
,
0000
0100
0010
1000
0001
0100
0000
0110
,
0000
0110
0001
1000
0001
1000
0001
0110
,
0000
0001
0000
0010
0100
1000
0000
0000
,
0100
0010
0001
0010
0100
1000
0000
0000
,
0000
0001
0000
0100
0010
1000
0000
0000
,
1000
0100
0010
0001
1000
0110
0000
0000
,
0000
1000
0000
1000
0000
0000
0001
0100
,
0000
1000
0000
1000
0010
0000
0100
0001
,
0000
1000
0000
1000
0001
0000
1000
0010
,
0000
0100
0000
0100
0001
0000
1000
0010
,
0000
0100
0000
0100
0001
0000
1000
0010
,
0000
0100
0000
1000
0001
0000
0100
0010
,
0000
1001
0010
0100
0001
1000
0100
0110
,
0000
0001
1000
0010
0100
0001
1000
0110
,
0000
1001
0000
0110
0000
1001
0000
0000
,
0100
0010
0001
0010
0100
1000
0000
1001
,
0000
0110
0000
1001
0000
0110
0000
0000
,
0001
0010
0100
1000
0100
0110
0000
0000
,
0000
0001
0000
1000
0000
0100
0000
0000
,
0010
0001
1000
0010
0100
1000
0000
0001
;

//---------------dance-single - ----------------
#NOTES:
     dance-single:
     :
     Medium:
     7:
     0.405,0.559,0.892,0.000,0.000,233.000,107.000,0.000,0.000,0.000:
0000
0000
0000
0000
,
0000
0000
0000
0000
,
0000
1001
0000
1001
0000
0000
0010
0100
,
0000
1001
0000
1001
0110
0000
1000
0100
,
0000
0010
0000
0010
0100
0000
1001
0110
,
0000
0001
0000
0001
0010
0000
0100
1000
,
0000
0110
0000
0110
0001
0000
0100
0010
,
0000
1000
0000
0100
0010
0000
0001
1010
,
0000
0110
1001
0110
1001
0110
1001
0110
,
0000
0011
1100
0011
1100
0011
1100
0011
,
0000
1000
0000
0010
0000
0100
0000
0000
,
1000
0100
0010
0001
0010
0100
0000
1000
,
0000
0110
0000
1001
0000
0110
0000
0000
,
0011
1100
0011
1100
0011
0110
0000
1001
,
0000
0110
0000
1000
0000
0100
0000
0000
,
1001
0110
0001
1000
0010
0100
0000
1001
,
0000
0110
0000
1001
0000
0010
0000
0000
,
0100
0001
0010
0100
1000
0100
0000
0110
,
0000
0001
0000
0001
0100
0000
1010
0101
,
0000
0010
0000
0010
0100
0000
1001
0010
,
0000
0101
0000
0101
0010
0000
1000
0100
,
0000
0100
0000
0100
0010
0000
1001
0110
,
0000
0001
0000
0110
0000
1000
0000
0000
,
0110
0001
0000
0010
0100
1000
0000
0000
,
0000
0110
0000
1001
0000
0110
0000
0000
,
1000
0100
0000
0110
0000
0001
0000
0000
,
0000
1001
0000
0110
0000
1001
0000
0000
,
0000
0110
0000
0001
0010
0100
0000
1000
,
0000
0110
0001
1010
0001
0110
0000
1010
,
0000
0110
0001
0010
0100
1000
0100
0110
,
0000
0001
0000
0110
0001
1000
0000
0000
,
0100
0010
0001
0010
0100
1000
0000
0000
,
0000
1001
0000
0110
0001
0010
0000
0000
,
0100
0010
1000
0001
0100
1010
0000
0000
,
0000
0101
0000
1010
0000
0000
0100
0010
,
0000
1001
0000
1001
0110
0000
0001
0010
,
0000
0100
0000
1000
0001
0000
0110
0001
,
0000
1010
0000
1010
0101
0000
0010
0100
,
0000
1001
0000
0001
0010
0000
0100
1000
,
0000
0101
0000
1000
0010
0000
0100
0001
,
0000
1010
0101
1010
0101
1010
0001
0010
,
0000
0100
0010
0100
0010
1001
0010
0101
,
0000
0001
0000
1001
0000
0010
0000
0000
,
1100
0011
1100
0011
1100
0011
0000
0110
,
0000
1001
0000
0110
0000
1001
0000
0000
,
1100
0011
1100
0011
0100
0010
1001
0110
,
0000
0001
0000
0100
0000
1010
0000
0000
,
0101
0010
1000
0001
0100
1010
0000
0101
;

//---------------dance-single - ----------------
#NOTES:
     dance-single:
     :
     Hard:
     8:
     0.522,0.477,1.000,0.000,0.000,277.000,150.000,0.000,0.000,9.000:
0000
0000
0000
0000
,
0000
0000
0000
0000
,
0000
0000
0000
0000
0000
0000
0110
1001
,
0000
0110
0000
0110
1001
0000
0100
0010
,
0000
1010
0000
0101
1010
0000
0101
0010
,
0000
0101
0000
1010
0101
0000
0010
0101
,
0000
1001
0000
0110
0001
0000
1010
0101
,
0000
0110
0000
1001
0110
0000
1001
0110
,
0000
1001
0110
0001
0010
0101
0010
1111
,
0000
0001
0010
0100
0011
1110
0001
0001
,
0000
0110
0001
1010
0001
0110
1001
0010
,
0000
0011
0100
0001
0010
1010
0001
0110
,
0000
1001
0010
0101
0001
1010
0001
0110
,
0001
1010
0010
0101
0010
0101
0010
1001
,
0000
1110
0001
0001
0001
0110
0001
0010
,
1000
0110
0001
1000
0100
0111
0100
1001
,
0011
0110
0100
1001
0001
0100
0010
1000
,
0101
0010
1001
0001
0110
0001
1010
0101
,
0000
1010
0000
0101
0010
0000
1001
0010
,
0000
0100
0000
1000
1100
0000
1100
0011
,
0000
0100
0000
1010
0001
0000
0100
0001
,
0000
0101
0000
1010
0101
0000
0010
0100
,
0000
1001
0000
1001
0000
0110
0001
1010
,
0001
0110
0001
1011
0001
0110
0001
1001
,
0000
0110
0001
1010
0001
0110
0001
1000
,
0100
1010
0001
1010
0001
0110
0001
0110
,
0000
1001
0000
1010
0000
0110
0001
0110
,
0000
1001
0010
0101
0010
1001
0001
0110
,
0000
1010
0100
0010
1001
0001
0110
0001
,
1010
0001
0110
0001
1010
0001
0110
1001
,
0000
0101
0000
1010
0001
0110
0000
0000
,
1000
0100
0010
0001
0010
0100
0000
1001
,
0000
0110
0000
1001
0110
0001
0000
0000
,
0110
0001
0010
0100
1000
0101
0000
0000
,
0000
1010
0000
0110
0000
0000
0001
0110
,
0000
1001
0000
0110
0001
0000
0110
1001
,
0000
0110
0000
0110
0001
0000
1010
0001
,
0000
0110
0000
1001
0110
0000
0001
0010
,
0000
0101
0000
1010
0110
0000
0001
1010
,
0000
0101
0000
0001
0010
0000
1111
0001
,
0000
0100
0010
1000
0001
1110
0001
0001
,
0000
0110
0001
0010
1000
0001
0110
1001
,
0000
0110
0000
0111
0000
1010
0000
0000
,
0110
0001
0010
0101
0010
1011
0001
0110
,
0000
1010
0001
0110
0001
1010
0001
1010
,
0000
0110
0010
0110
0001
1010
0001
1001
,
0000
0110
1010
0100
1010
0101
0001
0010
,
0000
0101
0010
0101
0010
0001
0000
0000
;
