#TITLE:Xepher;
#SUBTITLE:;
#ARTIST:Tatsh;
#TITLETRANSLIT:;
#SUBTITLETRANSLIT:;
#ARTISTTRANSLIT:;
#CREDIT:;
#BANNER:xepher-bn.png;
#BACKGROUND:xepher-bg.png;
#LYRICSPATH:;
#CDTITLE:!ExigeTitle.png;
#MUSIC:Tr.36 - Xepher.mp3;
#OFFSET:0.160;
#SAMPLESTART:53.467;
#SAMPLELENGTH:26.900;
#SELECTABLE:YES;
#BPMS:0.000=170.000;
#STOPS:;
#BGCHANGES:;
// cache tags:
#FIRSTBEAT:2.000;
#LASTBEAT:340.000;
#SONGFILENAME:Songs/Keyboard Collaboration II/Exige - Xepher/Xepher.sm;
#HASMUSIC:1;
#HASBANNER:1;
#MUSICLENGTH:121.808;
// end cache tags

//---------------dance-single - ----------------
#NOTES:
     dance-single:
     :
     Hard:
     12:
     1.000,1.000,1.000,0.493,1.000,992.000,170.000,60.000,0.000,1.000:  // measure 1
0000
0000
0000
0000
2002
0000
0000
3003
,  // measure 2
1001
0010
1000
0100
1000
0010
0101
1000
0001
0010
1000
1000
,  // measure 3
0101
0010
0001
0001
0010
1000
0101
0010
0100
0010
0010
0100
,  // measure 4
1001
0010
1000
0010
1000
1000
0110
1000
0100
1000
0100
0010
,  // measure 5
1100
0010
0001
0010
1000
0010
1001
0100
0100
0001
0010
0001
,  // measure 6
1010
0100
0100
0001
0010
0010
1001
0100
0010
0100
1000
0010
,  // measure 7
1100
0010
1000
0001
0010
0100
0011
1000
0010
0001
0100
1000
,  // measure 8
0110
0001
1000
1000
0100
0001
0110
1000
0100
0100
1000
0100
,  // measure 9
1001
0100
0010
1000
0010
1000
1000
0100
0010
0010
1000
1000
,  // measure 10
0011
0000
0000
0000
0100
0000
0000
0000
0001
0000
0000
0000
0001
0000
0000
0000
0100
0000
0000
0000
0001
0000
0000
0000
0110
0000
0000
0000
0001
0000
0000
0000
1000
0000
0000
0000
0100
0000
0000
0000
1000
0000
0100
0000
0000
0010
0000
0000
,  // measure 11
0101
0010
1000
0010
1000
0010
1100
0001
1000
0001
0010
0100
,  // measure 12
1010
0001
1000
0100
0100
1000
0011
1000
1000
0010
0100
1000
,  // measure 13
0110
0001
0100
1000
0010
0100
1010
0001
1000
0001
0100
0010
,  // measure 14
1100
0001
0010
0001
0100
0010
1001
0100
0010
0100
0001
1000
,  // measure 15
0110
0001
0001
0010
1000
0100
1000
0010
0010
0100
1000
0100
,  // measure 16
1010
0100
0001
0010
1000
0100
0001
0010
0001
0100
0001
1000
,  // measure 17
0101
0010
0100
0001
1000
0010
0001
0100
1000
0010
0001
0010
,  // measure 18
1100
0010
1000
0001
0010
0100
1010
0001
0100
1000
0001
0100
,  // measure 19
2002
0000
0000
0000
,  // measure 20
0000
0000
3003
0000
,  // measure 21
1100
0010
0001
0100
1000
0100
0010
0001
0100
0010
0100
0010
1001
0000
0000
0000
,  // measure 22
1000
0100
0010
0001
0100
0010
1000
0100
0010
0001
1000
0100
0011
0000
0101
0000
,  // measure 23
1000
0100
0010
0001
1000
0100
0010
0100
1000
0001
0010
0100
1001
0010
0100
0000
,  // measure 24
1000
0100
0010
0001
0010
0100
1000
0001
0010
0100
1000
0100
0010
0001
0100
0010
,  // measure 25
1001
0010
0100
0010
0001
1000
0100
0010
0001
1000
0001
0010
0101
0000
0000
0000
,  // measure 26
1000
0001
1000
0100
0010
0001
0010
0100
1000
0100
0010
0001
1010
0000
1001
0000
,  // measure 27
0010
0100
0010
1000
0100
1000
0001
0010
0001
0100
1000
0100
1001
0000
0000
0000
,  // measure 28
1010
0000
1000
0000
1100
0001
0010
0000
0001
1000
0010
0100
0010
1000
0001
0100
,  // measure 29
1010
0000
0001
0000
1100
0000
1000
0000
1010
0000
0100
0001
0000
0001
0010
0000
,  // measure 30
1010
0000
0010
0000
0101
0000
0001
0000
1100
0000
0100
0001
0010
0000
1000
0000
,  // measure 31
0101
0000
1000
0000
0110
0000
0001
0000
1001
0000
0001
1000
0000
1000
0010
0000
,  // measure 32
1001
0000
0010
0000
1010
0000
1000
0000
1010
0001
0100
1000
0001
0010
0100
0000
,  // measure 33
1001
0000
0100
0000
1010
0000
0010
0000
0011
0000
0001
0010
0000
0010
0100
0000
,  // measure 34
1001
0000
0010
0000
0101
0000
0001
0000
1001
0000
0001
0010
0000
0100
0010
0000
,  // measure 35
1001
0000
1000
0000
1100
0000
0001
0010
0000
0010
0001
0000
0101
0000
0010
0000
,  // measure 36
0101
0000
0011
0000
0001
0000
0101
0000
1002
0000
0000
0003
2010
0000
0000
3000
,  // measure 37
0101
0001
0110
0100
1010
0010
0110
0100
,  // measure 38
0101
0000
1000
0100
0010
0001
0010
0100
1000
0001
0010
0100
1000
0100
0010
0100
,  // measure 39
1002
0000
0000
0000
0200
0000
0320
0033
,  // measure 40
2001
3010
0001
0010
1000
0100
0010
1000
0200
0301
0010
1000
0010
0001
0100
0010
,  // measure 41
2000
3001
0010
1000
0010
0100
1000
0001
0020
1030
0001
1000
0020
0030
0001
0010
,  // measure 42
0002
0103
1000
0010
0201
1300
0001
0010
0200
0301
1000
0001
1200
0310
0001
0010
,  // measure 43
0200
0310
0001
0010
0100
1000
0001
0100
2000
3010
0001
0100
0020
1030
0001
0010
,  // measure 44
0002
0103
1000
0010
0001
0100
1000
0010
0200
0301
0010
0001
2000
3010
0001
1000
,  // measure 45
0020
0130
0001
0100
1000
0001
1000
0001
2000
3100
0001
0100
1000
0010
0100
0010
,  // measure 46
2000
3010
0001
0010
1000
0100
0001
1000
0200
0301
0010
1000
0100
0010
0100
0001
,  // measure 47
2000
3100
0001
0100
1000
0010
1000
0010
0001
0010
0001
1000
0010
0100
0010
0100
,  // measure 48
0001
1000
0010
0001
0200
0310
0001
1000
0200
0310
1000
0001
0020
0031
1000
0010
,  // measure 49
0200
0301
0010
1000
0021
1030
0001
0010
0200
1300
0010
0001
2010
3000
0100
0010
,  // measure 50
1001
0010
0001
0010
0100
0010
0001
1000
0100
1000
0001
0010
1100
0000
0000
0000
,  // measure 51
0011
1000
0100
0001
1000
0010
0100
1000
0100
0001
0010
1000
0011
0000
1010
0000
,  // measure 52
1001
0010
0100
1000
0001
0100
1000
0001
0100
1000
0010
0001
1010
0100
0010
0000
,  // measure 53
1001
0010
0100
0001
0010
0001
1000
0100
0001
1000
0001
0010
0100
1000
0001
1000
,  // measure 54
0110
0001
1000
0010
0100
1000
0001
0100
0010
1000
0100
0001
1010
0000
0000
0000
,  // measure 55
1010
0100
0001
0010
1000
0010
0001
0010
0100
0001
1000
0001
1100
0000
1001
0000
,  // measure 56
1000
0001
1000
0100
0010
0001
1000
0001
0010
0100
0010
0001
1010
0000
0000
0000
,  // measure 57
1001
0000
0001
0000
0101
0000
0010
0000
1001
0100
0010
0100
0010
0001
0100
1000
,  // measure 58
0101
0010
0110
1000
1001
0100
1010
1000
,  // measure 59
0101
0010
0110
1000
1001
0100
1010
1000
,  // measure 60
0101
0010
0110
1000
1001
0100
1010
1000
,  // measure 61
1001
0000
0001
0000
0010
0100
0000
0001
0000
0001
0000
0100
0010
0000
0010
0000
,  // measure 62
1001
0010
1001
0100
1010
0001
0011
0100
,  // measure 63
1001
0010
1001
0100
1010
0001
0011
0100
,  // measure 64
1001
0010
1001
0100
1010
0001
0011
0100
,  // measure 65
1001
0010
1001
0100
1010
0001
0011
0100
,  // measure 66
0011
0110
1100
0101
0011
0110
1010
0101
,  // measure 67
1001
0100
0010
0001
0100
0001
0010
0001
0200
0301
0010
0100
2000
3001
0010
0001
,  // measure 68
2000
3010
0001
0100
0010
0001
1000
0001
0020
0031
0100
0001
0010
0001
0100
1000
,  // measure 69
0002
0103
0010
0001
1000
0001
0100
0010
2000
3001
0010
1000
0002
0103
1000
0001
,  // measure 70
0020
1030
0100
0001
0120
0031
1000
0010
0002
0103
1000
0010
1200
0310
1000
0001
,  // measure 71
0200
1300
0010
0100
0001
0010
0001
0010
0200
0310
1000
0010
2000
3010
0001
0010
,  // measure 72
0200
0301
1000
0010
0001
0100
1000
0001
0020
1030
0001
0100
0020
1030
0001
0100
,  // measure 73
0002
1003
0010
0001
1000
0010
0100
0010
0200
1300
0010
1000
0001
0010
1000
0100
,  // measure 74
0002
0103
0010
1000
0001
0010
1000
0010
0002
0103
1000
0010
0001
1000
0001
1000
,  // measure 75
0020
0031
0100
0010
0101
1000
0100
0001
0010
0001
1000
0001
1100
0010
0100
0001
,  // measure 76
1000
0100
0010
1000
0001
0100
0010
0001
0100
1000
0010
0001
0100
0001
1000
0100
,  // measure 77
1001
0000
1001
0011
,  // measure 78
1010
0001
1000
0100
0011
0000
1010
0001
0000
0010
1100
0000
0101
0000
1001
0000
,  // measure 79
0011
1000
0010
0001
1100
0000
0110
1000
0000
0001
1100
0000
1010
0000
1001
0000
,  // measure 80
1100
0010
0100
0010
0101
0000
1100
0001
0000
0010
1100
0000
0011
0000
0101
0000
,  // measure 81
1010
0001
1000
0100
0011
0000
1010
0001
0000
0010
1100
0000
0101
0000
1001
0000
,  // measure 82
0010
0001
1000
0100
0010
0000
0010
0100
1000
0100
0001
0000
0001
0000
1001
0000
,  // measure 83
0000
0000
0000
0000
,  // measure 84
1001
0010
1000
0001
0100
0001
0010
1000
0100
0001
0010
1000
0001
0010
0100
0010
,  // measure 85
2002
0000
0000
0000
,  // measure 86
3003
0000
0000
0000
;
