#TITLE:Plantman Stage;
#SUBTITLE:Megaman 6;
#ARTIST:Capcom;
#TITLETRANSLIT:;
#SUBTITLETRANSLIT:;
#ARTISTTRANSLIT:;
#CREDIT:SulferDragon;
#BANNER:Plantman-banner.png;
#BACKGROUND:Plantman-bg.png;
#LYRICSPATH:;
#CDTITLE:!SulferDragon.png;
#MUSIC:Plantman Stage.mp3;
#OFFSET:-1.839;
#SAMPLESTART:45.130;
#SAMPLELENGTH:12.500;
#SELECTABLE:YES;
#BPMS:0.000=138.520;
#STOPS:;
#BGCHANGES:;
// cache tags:
#FIRSTBEAT:4.000;
#LASTBEAT:196.000;
#SONGFILENAME:Songs/toune 3/Plantman Stage v.2/Plantman Stage.sm;
#HASMUSIC:1;
#HASBANNER:1;
#MUSICLENGTH:91.115;
// end cache tags

//---------------dance-single - ----------------
#NOTES:
     dance-single:
     :
     Challenge:
     11:
     0.992,0.995,0.790,0.198,1.000,543.000,72.000,18.000,0.000,4.000:
0000
0000
0000
0000
,
0001
0010
0001
1000
0100
0000
0100
0010
0000
0010
0001
0000
0100
0000
0010
0000
,
1000
0010
1000
0001
0100
0000
0100
0010
0000
0010
1000
0000
0001
0000
0010
0000
,
0100
0000
1000
0020
0000
0100
1000
0001
1030
0000
0001
0000
0010
0000
0100
0000
,
1000
0001
1000
0001
0100
0001
0100
0010
1000
0010
1000
0001
0100
0010
1000
0000
,
0100
1000
0100
0010
0001
0000
0001
1000
0000
1000
0010
0000
0100
0000
0001
0000
,
0100
0010
0100
0001
0010
0000
0010
0100
0000
0100
1000
0000
0010
0000
0100
0000
,
0001
0000
1000
0020
0000
0100
0001
1000
0031
0000
0100
0000
0010
0000
1000
0000
,
0001
0010
0001
1000
0100
1000
0010
0100
0010
1000
0001
1000
0100
0010
0001
1000
,
0001
0100
0010
1000
0001
0100
0010
1000
0100
0010
0001
1000
0100
0010
0001
0100
,
0010
1000
0010
0100
0010
1000
0100
0010
0001
0100
0001
1000
0001
0100
0010
1000
,
0001
0010
0100
1000
0001
0010
0100
1000
0010
0100
0001
1000
0010
0100
0001
1000
,
0010
0100
0010
0001
0010
1000
0001
0010
0100
1000
0100
0001
0100
0010
0001
1000
,
0110
0011
0000
1100
0001
0010
0001
0100
1010
1001
0000
0110
1000
0001
0000
0100
,
0011
1010
0000
0101
1000
0100
1000
0000
0010
0100
0000
0001
0010
0100
1000
0100
,
1002
0010
0000
0010
0100
0000
0100
0000
0013
1000
0000
1000
0110
0000
1001
0000
,
0010
0000
0000
0000
1100
0000
0000
0000
0001
0000
0110
0000
0000
0000
0000
0000
0011
0000
0000
0000
0000
0000
0000
0000
1000
0100
0010
0001
1000
0100
0010
0001
,
1000
0010
0000
0100
0000
0000
0000
0000
0000
0010
0100
0000
0001
1100
0011
0000
,
1010
0100
0000
0001
0000
0000
0000
0000
0000
1000
0010
0000
0100
0011
1100
0000
,
0101
0010
0000
1000
0000
0000
0000
0000
0000
0010
0100
0000
0001
1100
1010
0000
,
0120
0000
2030
0000
3100
0210
0000
0010
,
1301
0010
0000
1000
0000
0000
0000
0000
0000
0010
0100
0000
0010
0101
1010
0000
,
0011
0100
0000
0010
0000
0000
0000
0000
0000
0001
0010
0000
0100
1010
0101
0000
,
1100
0001
0000
0010
0000
0000
0000
0000
0000
0001
1000
0000
0010
0101
0011
0000
,
2001
0000
0000
0000
0000
0000
0000
0000
3000
0000
0000
0000
0220
0000
0000
0000
0000
0000
0000
0000
0000
0000
0000
0000
1330
0010
0100
0001
1000
0010
0100
0001
,
1000
0010
1000
0001
0010
0000
0010
0100
0000
0100
1000
0000
0010
0000
0100
0000
,
0001
0100
0001
1000
0010
0000
0010
0100
0000
0100
0001
0000
1000
0000
0100
0000
,
0010
0000
0001
0200
0000
0010
0001
1000
0301
0000
1000
0000
0100
0000
0010
0000
,
0001
1000
0001
1000
0010
1000
0010
0100
0001
0100
0001
1000
0010
0100
0001
0000
,
0010
0001
0010
0100
1000
0000
1000
0001
0000
0001
0100
0000
0010
0000
1000
0000
,
0010
0100
0010
1000
0100
0000
0100
0010
0000
0010
0001
0000
0100
0000
0010
0000
,
1000
0000
0001
0200
0000
0010
1000
0001
1300
0000
0010
0000
0100
0000
0001
0000
,
1000
0100
1000
0001
0010
0001
0100
0010
0100
0001
1000
0001
0010
0100
1000
0001
,
1000
0010
0100
0001
1000
0010
0100
0001
0010
0100
1000
0001
0010
0100
1000
0010
,
0100
0001
0100
0010
0100
0001
0010
0100
1000
0010
1000
0001
1000
0010
0100
0001
,
1000
0100
0010
0001
1000
0100
0010
0001
0100
0010
1000
0001
0100
0010
1000
0001
,
0100
0010
0100
1000
0100
0001
1000
0100
0010
0001
0010
1000
0010
0100
1000
0001
,
0110
1100
0000
0011
1000
0100
1000
0010
0101
1001
0000
0110
0001
1000
0000
0010
,
1100
0101
0000
1010
0001
0010
0001
0000
0100
0010
0000
1000
0100
0010
0001
0010
,
2001
0100
0000
0100
0010
0000
0010
0000
3100
0001
0000
0001
0110
0000
1001
0000
,
0100
0000
0000
0000
0011
0000
0000
0000
1000
0000
0110
0000
0000
0000
0000
0000
1100
0000
0000
0000
0000
0000
0000
0000
0001
0010
0100
1000
0001
0010
0100
1000
,
0001
0100
0000
0010
0000
0000
0000
0000
0000
0100
0010
0000
1000
0011
1100
0000
,
0101
0010
0000
1000
0000
0000
0000
0000
0000
0001
0100
0000
0010
1100
0011
0000
,
1010
0100
0000
0001
0000
0000
0000
0000
0000
0100
0010
0000
1000
0011
0101
0000
,
0210
0000
0302
0000
0013
0120
0000
0100
,
1031
0100
0000
0001
0000
0000
0000
0000
0000
0100
0010
0000
0100
1010
0101
0000
,
1100
0010
0000
0100
0000
0000
0000
0000
0000
1000
0100
0000
0010
0101
1010
0000
,
0011
1000
0000
0100
0000
0000
0000
0000
0000
1000
0001
0000
0100
1010
1100
0000
,
1002
0000
0000
0000
0000
0000
0000
0000
0003
0000
0000
0000
0220
0000
0000
0000
0000
0000
0000
0000
0000
0000
0000
0000
1330
0001
0100
0010
1000
0001
0100
0010
,
1000
0000
0000
0000
;

//---------------dance-single - ----------------
#NOTES:
     dance-single:
     :
     Hard:
     10:
     0.724,0.887,0.241,0.307,0.845,412.000,22.000,28.000,0.000,0.000:
0000
0000
0000
0000
,
0001
1000
0001
0010
0100
0000
0010
0100
0000
0100
0010
0000
1000
0000
0001
0000
,
0100
0010
0100
0001
1000
0000
0001
1000
0000
1000
0001
0000
0100
0000
0010
0000
,
1000
0000
0001
0200
0000
0000
0000
0000
0300
0000
0010
0000
1000
0000
0001
0000
,
2001
0000
0000
3200
0000
1300
0010
0001
,
0010
1000
0010
0100
0001
0000
0100
0001
0000
0001
0100
0000
0010
0000
1000
0000
,
0001
0010
0001
1000
0100
0000
1000
0100
0000
0100
1000
0000
0010
0000
0100
0000
,
0001
0000
1000
0020
0000
0000
0000
0000
0030
0000
0100
0000
0001
0000
1000
0000
,
1020
0000
0000
0230
0000
0301
1000
1000
,
0001
0100
0010
1000
0001
0100
0010
1000
0100
0010
0001
1000
0100
0010
0001
0100
,
0010
1000
0010
0100
0010
1000
0100
0010
0001
0100
0001
1000
0001
0100
0010
1000
,
0001
0010
0100
1000
0001
0010
0100
1000
0010
0100
0001
1000
0010
0100
0001
1000
,
0010
0100
0010
0001
0010
1000
0001
0010
0100
1000
0100
0001
0100
0010
0001
1000
,
0010
0100
0000
0100
0000
0000
0010
0000
1000
0001
0000
0001
0000
0000
0100
0000
,
0010
1000
0000
1000
0000
0000
0001
0000
0010
0000
1000
0000
0010
0000
0001
0000
,
0202
0000
0000
0000
0303
0010
1000
1100
,
0000
0000
0011
0000
0000
0110
0000
0000
1100
0000
0000
0000
0001
1000
0001
1000
,
0001
0010
0000
0001
0000
0000
0000
0000
0000
0100
0010
0000
1000
0000
0010
0000
,
0100
0001
0000
0100
0000
0000
0000
0000
0000
0001
0100
0000
0010
0000
1000
0000
,
0001
0010
0000
0001
0000
0000
0000
0000
0000
1000
0001
0000
0010
0000
0100
0000
,
1200
0000
0320
0000
1030
0102
0000
0013
,
0100
1000
0000
0100
0000
0000
0000
0000
0000
0100
0010
0000
1000
0000
0001
0000
,
0010
0100
0000
0010
0000
0000
0000
0000
0000
0001
1000
0000
0010
0000
0100
0000
,
0001
1000
0000
0001
0000
0000
0000
0000
0000
0100
1000
0000
0010
0000
0100
0000
,
0102
0000
0003
2002
0000
0000
0000
3003
,
0010
0100
0010
1000
0001
0000
0100
0010
0000
1000
0010
0000
0100
0000
0001
0000
,
1000
0010
1000
0100
0010
0000
0001
0100
0000
0001
1000
0000
0010
0000
0100
0000
,
0001
0000
1000
0020
0000
0000
0000
0000
0030
0000
0100
0000
0001
0000
1000
0000
,
1020
0000
0000
0230
0000
0301
1000
0010
,
0100
0001
0100
0010
1000
0000
0010
0100
0000
0001
0100
0000
0010
0000
1000
0000
,
0001
0100
0001
0010
0100
0000
1000
0001
0000
1000
0010
0000
0100
0000
0001
0000
,
1000
0000
0010
0200
0000
0000
0000
0000
0300
0000
0001
0000
1000
0000
0010
0000
,
0210
0000
0000
0302
0000
1003
0010
0010
,
0100
0001
0010
0100
1000
0100
0010
0001
0100
0010
1000
0001
0100
0010
1000
0001
,
0100
0010
0100
0001
0100
0010
1000
0001
0010
0100
0010
0001
0010
0100
1000
0010
,
0100
0001
0010
0100
1000
0100
0010
0001
0100
0010
1000
0001
0100
0010
1000
0001
,
0100
0010
0100
1000
0100
0001
1000
0100
0010
0001
0010
1000
0010
0100
1000
0001
,
0100
0010
0000
0010
0000
0000
1000
0000
0001
0100
0000
0100
0000
0000
0010
0000
,
1000
0001
0000
0001
0000
0000
0010
0000
0100
0000
1000
0000
0100
0000
0010
0000
,
0022
0000
0000
0000
0033
1000
0001
0101
,
0000
0000
1010
0000
0000
1001
0000
0000
0101
0000
0000
0000
1000
0001
1000
0001
,
1000
0010
0000
0100
0000
0000
0000
0000
0000
0001
0100
0000
0100
0000
0010
0000
,
1000
0001
0000
0100
0000
0000
0000
0000
0000
0010
1000
0000
0001
0000
0001
0000
,
0100
0010
0000
1000
0000
0000
0000
0000
0000
0100
0010
0000
0001
0000
1000
0000
,
1200
0000
0320
0000
0031
2010
0000
3001
,
0100
0010
0000
1000
0000
0000
0000
0000
0000
0010
0100
0000
0001
0000
0001
0000
,
1000
0010
0000
0100
0000
0000
0000
0000
0000
0001
0100
0000
0010
0000
0010
0000
,
1000
0001
0000
0100
0000
0000
0000
0000
0000
0010
1000
0000
0001
0000
0100
0000
,
0210
0000
0300
0220
0000
0000
0000
0000
,
0330
0000
0000
0000
;

//---------------dance-single - ----------------
#NOTES:
     dance-single:
     :
     Medium:
     6:
     0.439,0.403,0.044,0.439,0.220,236.000,4.000,40.000,0.000,0.000:
0000
0000
0000
0000
,
0001
0000
1000
0000
0010
0000
0000
0010
0000
0000
0010
0000
0000
0000
0100
0000
,
0001
0000
1000
0000
0010
0000
0000
0010
0000
0000
0010
0000
0000
0000
0100
0000
,
0001
1000
0001
0000
0000
0100
0010
2000
,
0000
0000
0000
3200
0000
1300
0001
0000
,
0100
0000
0010
0000
1000
0000
0000
1000
0000
0000
1000
0000
0000
0000
0100
0000
,
0010
0000
0001
0000
0100
0000
0000
0100
0000
0000
0100
0000
0000
0000
0010
0000
,
1000
0002
0000
0000
0000
1003
0010
0000
,
0200
0000
0000
0302
0000
1003
0010
0100
,
0002
0000
0000
0000
0000
1003
0100
0010
,
0002
0000
1003
0020
0000
0130
0001
1000
,
0200
0000
0000
0000
0000
1300
0010
0100
,
0002
0000
1003
0200
0000
0310
0001
1000
,
0100
0000
0000
0100
0000
0000
0010
0000
0001
0000
0000
0001
0000
0000
0100
0000
,
0010
0000
0000
0010
0000
0000
1000
0000
0001
0000
1000
0000
0000
0000
0010
0000
,
0200
0000
0000
0000
0300
0001
1000
0001
,
0000
0000
0100
0000
0000
0010
0000
0000
2002
0000
0000
0000
3003
0000
0000
0000
,
1000
0000
0000
1000
0000
0000
0000
0000
0000
0100
0000
0000
0100
0000
0010
0000
,
0100
0000
0000
0100
0000
0000
0000
0000
0000
0001
0000
0000
0001
0000
1000
0000
,
0001
0000
0000
0001
0000
0000
0000
0000
0000
0100
0000
0000
0100
0000
0001
0000
,
2000
0000
3020
0000
0130
0002
0000
1003
,
0010
0000
0000
0010
0000
0000
0000
0000
0000
0100
0000
0000
0100
0000
0001
0000
,
0100
0000
0000
0100
0000
0000
0000
0000
0000
0001
0000
0000
0001
0000
1000
0000
,
0001
0000
0000
0001
0000
0000
0000
0000
0000
1000
0000
0000
1000
0000
0010
0000
,
0200
0000
0300
2002
0000
0000
0000
3003
,
0100
0000
0001
0000
1000
0000
0000
0010
0000
0000
1000
0000
0000
0000
0010
0000
,
0100
0000
0001
0000
0010
0000
0000
0100
0000
0000
0010
0000
0000
0000
0001
0000
,
1000
0100
1000
0000
0000
0010
0100
0002
,
0000
0000
0000
0023
0000
0031
0100
0000
,
0010
0000
1000
0000
0001
0000
0000
0010
0000
0000
0001
0000
0000
0000
0010
0000
,
0100
0000
1000
0000
0010
0000
0000
0100
0000
0000
0010
0000
0000
0000
0100
0000
,
0001
0020
0000
0000
0000
0031
1000
0000
,
0200
0000
0000
0320
0000
0031
0100
0010
,
2000
0000
0000
0000
0000
3001
0010
0100
,
2000
0000
3001
0200
0000
0310
1000
0001
,
0020
0000
0000
0000
0000
0031
1000
0100
,
0020
0000
0031
0200
0000
0310
1000
0001
,
0100
0000
0000
0010
0000
0000
1000
0000
0001
0000
0000
0001
0000
0000
0100
0000
,
0010
0000
0000
1000
0000
0000
0001
0000
0100
0000
0001
0000
0000
0000
1000
0000
,
0020
0000
0000
0000
0030
0100
0001
1000
,
0000
0000
0010
0000
0000
0100
0000
0000
2002
0000
0000
0000
3003
0000
0000
0000
,
0010
0000
0000
0010
0000
0000
0000
0000
0000
1000
0000
0000
1000
0000
0100
0000
,
1000
0000
0000
1000
0000
0000
0000
0000
0000
0001
0000
0000
0001
0000
0100
0000
,
0001
0000
0000
0001
0000
0000
0000
0000
0000
0010
0000
0000
0010
0000
0100
0000
,
2000
0000
3002
0000
0013
0200
0000
1300
,
0001
0000
0000
0001
0000
0000
0000
0000
0000
1000
0000
0000
1000
0000
0010
0000
,
1000
0000
0000
1000
0000
0000
0000
0000
0000
0100
0000
0000
0100
0000
0010
0000
,
0100
0000
0000
0100
0000
0000
0000
0000
0000
0010
0000
0000
0010
0000
0001
0000
,
2000
0000
3000
0220
0000
0000
0000
0000
,
0330
0000
0000
0000
;

//---------------dance-single - ----------------
#NOTES:
     dance-single:
     :
     Easy:
     4:
     0.276,0.269,0.176,0.044,0.000,156.000,16.000,4.000,0.000,0.000:
0000
0000
0000
0000
,
0001
1000
0001
0100
,
0010
1000
0010
0100
,
0001
1001
0000
0100
,
0010
1000
0100
0001
,
0100
1000
0010
1000
,
0001
0010
0001
1000
,
0100
0010
0100
1000
,
1001
0000
0100
0000
,
0010
1000
0100
0001
,
0010
1000
0001
0010
,
0100
1000
0010
0001
,
0100
0010
1000
0100
,
1001
0000
0110
0000
,
1001
0000
0110
0000
,
1001
0010
0100
0001
,
0000
0100
0000
0000
0010
0000
0000
0000
,
1000
0100
1000
0000
,
0010
0000
1000
0100
,
1000
0000
0010
0100
,
0001
0000
1000
0000
0000
0010
0000
0000
,
0100
0001
0100
0000
,
0010
0000
0100
0001
,
0100
0000
0010
1000
,
0001
0000
0000
2002
0000
0000
3003
0000
,
0100
0010
0100
0001
,
1000
0010
1000
0100
,
0010
1001
0000
0100
,
0001
0010
1000
0010
,
0001
0100
0001
0010
,
0100
1000
0100
0010
,
0001
0100
0001
1000
,
0110
0000
0001
0000
,
0100
1000
0010
0100
,
0001
1000
0100
0010
,
0001
0100
1000
0010
,
0001
0100
0010
1000
,
0110
0000
1001
0000
,
0110
0000
1001
0000
,
0110
1000
0010
0100
,
0000
0001
0000
0000
1000
0000
0000
0000
,
0010
0100
0010
0000
,
0001
0000
0100
0010
,
0100
0000
1000
0100
,
0010
0000
0001
0000
0000
0001
0000
0000
,
0001
1000
0100
0000
,
1000
0000
0010
0100
,
0001
0000
0010
0100
,
0010
0000
0000
2002
0000
0000
0000
0000
,
3003
0000
0000
0000
;

//---------------dance-single - ----------------
#NOTES:
     dance-single:
     :
     Beginner:
     2:
     0.169,0.188,0.055,0.000,0.000,103.000,5.000,0.000,0.000,0.000:
0000
0000
0000
0000
,
0001
0000
0000
0000
,
1000
0000
0000
0000
,
0010
0010
0000
0000
,
0100
0000
0010
0000
,
0100
0000
0000
0000
,
0001
0000
0000
0000
,
1000
1000
0000
0000
,
0001
0000
0010
0000
,
0001
0000
0100
0000
,
0010
0000
1000
0000
,
0100
0000
0010
0000
,
0010
0000
0100
0000
,
1000
0000
0001
0000
,
1000
0000
0001
0000
,
1000
1000
0001
0001
,
0000
0000
1001
0000
,
0100
0100
0000
0000
,
0010
0010
0000
0000
,
0100
0100
0000
0001
,
1000
0100
1000
0000
,
0010
0010
0000
0000
,
0100
0100
0000
0000
,
0010
0010
0000
1000
,
1001
0000
0000
0000
,
1000
1000
1000
0000
,
0001
0001
0001
0000
,
0100
0010
0000
0000
,
1000
0000
0100
0000
,
0010
0010
0010
0000
,
0100
0100
0100
0000
,
1000
0010
0000
0000
,
0100
0000
0001
0000
,
0010
0000
0100
0000
,
0100
0000
0010
0000
,
0010
0000
0001
0000
,
0001
0000
1000
0000
,
1000
0000
0010
0000
,
0100
0000
0001
0000
,
0010
0010
0100
0100
,
0000
0000
1001
0000
,
0100
0010
0000
0000
,
1000
0001
0000
0000
,
0100
0010
0000
1000
,
0100
0010
0001
0000
,
1000
0100
0000
0000
,
0010
0001
0000
0000
,
0100
0010
0000
0001
,
1001
0000
0000
0000
,
0110
0000
0000
0000
;
