#TITLE:Princess Blood;
#SUBTITLE:;
#ARTIST:rita;
#TITLETRANSLIT:;
#SUBTITLETRANSLIT:;
#ARTISTTRANSLIT:;
#CREDIT:;
#BANNER:banner.png;
#BACKGROUND:bg.png;
#LYRICSPATH:;
#CDTITLE:cdtitle.png;
#MUSIC:Princess Blood.mp3;
#OFFSET:-0.740;
#SAMPLESTART:73.000;
#SAMPLELENGTH:13.500;
#SELECTABLE:YES;
#DISPLAYBPM:192.000;
#BPMS:0.000=73.000,8.000=192.000;
#STOPS:;
#BGCHANGES:16.000=-random-=1.000=0=0=1,
32.000=-random-=1.000=0=0=1,
48.000=-random-=1.000=0=0=1,
64.000=-random-=1.000=0=0=1,
80.000=-random-=1.000=0=0=1,
84.000=-random-=1.000=0=0=1,
100.000=-random-=1.000=0=0=1,
116.000=-random-=1.000=0=0=1,
132.000=-random-=1.000=0=0=1,
148.000=-random-=1.000=0=0=1,
164.000=-random-=1.000=0=0=1,
180.000=-random-=1.000=0=0=1,
196.000=-random-=1.000=0=0=1,
212.000=-random-=1.000=0=0=1,
220.000=-random-=1.000=0=0=1,
236.000=-random-=1.000=0=0=1,
252.000=-random-=1.000=0=0=1,
268.000=-random-=1.000=0=0=1,
276.000=-random-=1.000=0=0=1,
292.000=-random-=1.000=0=0=1,
308.000=-random-=1.000=0=0=1,
324.000=-random-=1.000=0=0=1,
340.000=bg.png=1.000=0=0=1,
99999=-nosongbg-=1.000=0=0=0 // don't automatically add -songbackground-
;
// cache tags:
#FIRSTBEAT:8.000;
#LASTBEAT:347.021;
#SONGFILENAME:Songs/toune/PrincessBlood/PrincessBlood.sm;
#HASMUSIC:1;
#HASBANNER:1;
#MUSICLENGTH:117.602;
// end cache tags

//---------------dance-single - ----------------
#NOTES:
     dance-single:
     :
     Easy:
     5:
     0.464,0.553,0.272,0.204,0.000,326.000,32.000,24.000,0.000,0.000:
0000
0000
0000
0000
,
0000
0000
0000
0000
,
2002
0000
0000
0000
,
0000
0000
0000
3003
,
0001
0000
0000
1000
0000
0000
0010
0000
,
1000
0000
0000
0100
0000
0000
0001
0000
,
0001
0000
0000
0010
0000
0000
0100
0000
,
0100
0001
1000
0010
,
0010
0000
0000
0100
0000
0000
1000
0000
,
0100
0000
0000
0001
0000
0000
0010
0000
,
0010
0000
0000
1000
0000
0000
0001
0000
,
0001
0010
0100
1000
,
0010
0000
0000
0100
0000
0000
0001
0000
,
1000
0000
0000
0001
0000
0000
0100
0000
,
1000
0000
0000
0010
0000
0000
0001
0000
,
0010
1000
0001
0100
,
0001
0000
0000
1000
0000
0000
0100
0000
,
0010
0000
0000
0100
0000
0000
1000
0000
,
0010
0000
0000
0001
0000
0000
0100
0000
,
0001
0010
0100
1000
,
2002
0000
0000
3003
,
0010
1000
0100
0000
0010
0000
0100
0000
,
0010
0001
0100
0000
0010
0000
0100
0000
,
1000
0001
0100
0000
0010
0000
0100
0000
,
0001
1000
0100
0000
0010
0000
0100
0000
,
0100
0001
0010
0000
0100
0000
0010
0000
,
0100
1000
0010
0000
0100
0000
0010
0000
,
0001
1000
0010
0000
0100
0000
0010
0000
,
1000
0001
0010
0000
0100
0000
0010
0000
,
1000
0100
0001
0000
1000
0000
0001
0000
,
1000
0010
0001
0000
1000
0000
0001
0000
,
0100
0010
0001
0000
1000
0000
0001
0000
,
0010
0100
0001
0000
1000
0000
0001
0000
,
1000
0000
0001
0010
0100
0000
1000
0000
,
0001
0000
1000
0100
0010
0000
0001
0000
,
2002
0000
0000
3003
,
0001
0010
0100
1000
0000
0000
0110
0000
,
0020
1000
0100
1030
,
0200
0001
0010
0301
,
2000
0010
0001
3100
,
0002
0100
1000
0013
,
0020
0001
0100
0031
,
0200
1000
0010
1300
,
2000
0100
0001
3010
,
0002
0010
1000
0103
,
0200
0001
0010
0301
,
0020
1000
0100
1030
,
0020
0031
0200
1300
,
2000
3010
0002
0103
,
1000
0001
0010
0000
1100
0000
0101
0000
,
0001
1000
0010
0000
1100
0000
0011
0000
,
0100
0010
1000
0000
0101
0000
0011
0000
,
0010
0100
1000
0000
0101
0000
1010
0000
,
0001
1000
0000
1001
0000
0110
0000
1001
,
0000
0000
0000
0110
,
1000
0000
0001
1000
0000
0100
0010
0000
,
0001
0000
1000
0100
0000
0001
0010
0000
,
0001
0000
1000
0010
0000
0100
0001
0000
,
1000
0000
0100
0010
0000
1000
0001
0000
,
0010
1000
0100
0000
0101
0000
1100
0000
,
1000
0100
0001
0000
1100
0000
0101
0000
,
1000
0001
0100
0000
0001
1000
0100
0000
,
1000
0100
0010
0000
1001
0000
0110
0000
,
0001
0010
0100
0000
1100
0000
0011
0000
,
1000
0010
0100
0000
0101
0000
1010
0000
,
1000
0001
0100
0000
0001
1000
0010
0000
,
1010
0101
0011
1100
,
0001
0000
1000
0000
0010
1000
0100
0000
,
0010
0001
0000
0000
2002
0000
3003
0000
,
0001
0000
0000
1000
0000
0000
0010
0000
,
1000
0000
0000
0100
0000
0000
0001
0000
,
0001
0000
0000
0010
0000
0000
0100
0000
,
0100
0001
1000
0010
,
0010
0000
0000
0100
0000
0000
1000
0000
,
0100
0000
0000
0001
0000
0000
0010
0000
,
0010
0000
0000
1000
0000
0000
0001
0000
,
0001
0010
0100
1000
,
0010
0000
0000
0100
0000
0000
0001
0000
,
1000
0000
0000
0001
0000
0000
0100
0000
,
1000
0000
0000
0010
0000
0000
0001
0000
,
0010
1000
0001
0100
,
0001
0000
0000
1000
0000
0000
0100
0000
,
0010
0000
0000
0100
0000
0000
1000
0000
,
0010
0000
0000
0001
0000
0000
0100
0000
,
0001
0010
0100
1000
,
2002
0000
0000
0000
,
0000
0000
0000
3003
;

//---------------dance-single - ----------------
#NOTES:
     dance-single:
     :
     Medium:
     7:
     0.527,0.590,0.561,0.145,0.000,351.000,66.000,17.000,0.000,0.000:
0000
0000
0000
0000
,
0000
0000
0000
0000
,
0020
0000
0000
0000
,
0000
0000
0000
0000
0000
0030
0000
0000
,
1000
0000
0000
0001
0000
0000
0110
0000
,
0001
0000
0000
1000
0000
0000
0110
0000
,
1000
0000
0000
0001
0000
0000
0110
0000
,
0001
0010
0100
1000
,
0001
0000
0000
1000
0000
0000
0110
0000
,
1000
0000
0000
0001
0000
0000
0110
0000
,
0001
0000
0000
1000
0000
0000
0110
0000
,
1000
0010
0100
0001
,
1000
0000
0000
0001
0000
0000
0110
0000
,
0001
0000
0000
1000
0000
0000
0110
0000
,
1000
0000
0000
0001
0000
0000
0110
0000
,
0001
0100
0010
1000
,
0001
0000
0000
1000
0000
0000
0110
0000
,
1000
0000
0000
0001
0000
0000
0110
0000
,
0001
0000
0000
1000
0000
0000
0110
0000
,
1000
0100
0010
0001
,
0110
0000
1100
0000
0001
1000
0110
0000
,
0010
0000
0100
0000
1000
0100
0010
0001
,
0010
0100
0000
0101
0000
1000
0100
0010
,
0000
0001
0100
0000
1000
0020
0000
0000
,
0100
1000
0100
0031
,
0100
0000
1000
0000
0100
0001
1000
0010
,
0100
0001
0000
1001
0000
0000
0010
1000
,
1100
0000
0000
0101
0000
0000
0110
0000
,
1001
0000
0000
0110
0000
0000
1100
0000
,
0110
0000
0001
0000
0010
1000
0100
0010
,
0100
0001
0000
0101
0000
0000
1000
0100
,
0010
0000
0001
0100
0000
0010
2000
0000
,
0010
0000
3001
0000
0000
1000
0100
0020
,
0000
0031
0100
0020
0000
1030
0100
0020
,
0000
0031
0100
0010
0000
1000
0001
0200
,
0001
1000
0001
1300
,
1000
0001
1000
0001
0000
0000
0110
0000
,
0010
1100
0010
0101
,
0010
1000
0100
0011
,
0100
0011
0100
1010
,
0100
0001
0010
1100
,
1000
0101
1000
0011
,
1000
0100
0001
1010
,
1001
0000
0000
0000
0110
0000
0000
1001
,
0000
0000
1100
0001
,
0020
0000
0000
2030
0000
0000
3100
0000
,
0020
0000
0000
0032
0000
0000
0103
0000
,
0010
0000
0000
1100
0000
0000
0001
0100
,
0000
1010
0000
0000
0001
1000
0100
0010
,
0000
1000
0100
0000
0010
0000
0001
0000
,
0100
0010
0000
0001
0000
1000
0100
0020
,
0000
1000
0100
1000
,
0100
0001
0100
0031
,
1000
0001
0000
0010
0000
0000
0100
0000
,
1001
0000
1100
0000
0101
0000
1000
0001
,
1000
0100
0010
0001
0000
0100
0010
1000
,
0100
1100
0000
0101
0000
0001
0101
0000
,
1000
0100
0010
0001
0000
0100
0010
1000
,
0100
1100
0000
0101
0000
0001
1001
0000
,
0010
1000
0100
0010
0000
0001
0011
0000
,
1000
0100
0010
0001
0000
1000
1100
0000
,
1000
0100
0010
0002
0000
0103
0010
2000
,
0000
3001
0100
0010
1000
0100
0010
0001
,
1000
0100
1000
0100
1000
0100
1000
0001
,
0100
0001
0100
0001
0100
0001
1000
0010
,
0100
0000
0001
1000
0000
0100
0010
0002
,
0000
1003
0100
0010
0001
0100
0001
0100
,
0010
0000
1000
0100
0000
0010
0001
0100
,
0010
1010
0000
1000
0000
0001
0100
0010
,
1000
0000
0000
0001
0000
0000
0110
0000
,
0001
0000
0000
1000
0000
0000
0110
0000
,
1000
0000
0000
0001
0000
0000
0110
0000
,
0001
0010
0100
1000
,
0001
0000
0000
1000
0000
0000
0110
0000
,
1000
0000
0000
0001
0000
0000
0110
0000
,
0001
0000
0000
1000
0000
0000
0110
0000
,
1000
0010
0100
0001
,
1000
0000
0000
0001
0000
0000
0110
0000
,
0001
0000
0000
1000
0000
0000
0110
0000
,
1000
0000
0000
0001
0000
0000
0110
0000
,
0001
0100
0010
1000
,
0001
0000
0000
1000
0000
0000
0110
0000
,
1000
0000
0000
0001
0000
0000
0110
0000
,
0001
0000
0000
1000
0000
0000
0110
0000
,
1000
0100
0010
0001
,
2002
0000
0000
0000
,
0000
0000
0000
0000
0000
0000
0000
0000
0000
0000
0000
0000
0000
0000
0000
0000
0000
0000
0000
0000
0000
0000
0000
0000
0000
0000
0000
0000
0000
0000
0000
0000
0000
0000
0000
0000
0000
0000
0000
0000
0000
0000
0000
0000
0000
0000
0000
0000
0000
0000
0000
0000
0000
0000
0000
0000
0000
0000
0000
0000
0000
0000
0000
0000
0000
0000
0000
0000
0000
0000
0000
0000
0000
0000
0000
0000
0000
0000
0000
0000
0000
0000
0000
0000
0000
0000
0000
0000
0000
0000
0000
0000
0000
0000
0000
0000
0000
0000
0000
0000
0000
0000
0000
0000
0000
0000
0000
0000
0000
0000
0000
0000
0000
0000
0000
0000
0000
0000
0000
0000
0000
0000
0000
0000
0000
0000
0000
0000
0000
0000
0000
0000
0000
0000
0000
0000
0000
0000
0000
0000
0000
0000
0000
0000
0000
3003
0000
0000
0000
0000
0000
0000
0000
0000
0000
0000
0000
0000
0000
0000
0000
0000
0000
0000
0000
0000
0000
0000
0000
0000
0000
0000
0000
0000
0000
0000
0000
0000
0000
0000
0000
0000
0000
0000
0000
0000
0000
0000
0000
0000
0000
0000
;

//---------------dance-single - ----------------
#NOTES:
     dance-single:
     :
     Beginner:
     2:
     0.146,0.221,0.026,0.111,0.000,104.000,3.000,13.000,0.000,0.000:
0000
0000
0000
0000
,
0000
0000
0000
0000
,
0000
0000
0000
0000
,
0000
0000
0000
0000
,
0010
0000
0000
0000
,
0010
0000
0000
0000
,
0100
0000
0000
0000
,
0100
0000
0000
0000
,
1000
0000
0000
0000
,
1000
0000
0000
0000
,
0001
0000
0000
0000
,
0001
0000
0000
0000
,
0010
0000
0000
0000
,
0010
0000
0000
0000
,
0100
0000
0000
0000
,
0100
0000
0000
0000
,
1000
0000
0000
0000
,
0001
0000
0000
0000
,
1000
0000
0000
0000
,
0001
0000
0000
0000
,
2002
0000
3003
0000
,
0010
0000
0000
0000
,
0010
0000
0000
0000
,
0100
0000
0000
0000
,
0100
0000
0000
0000
,
0010
0000
0000
0000
,
0010
0000
0000
0000
,
0100
0000
0000
0000
,
0100
0000
0000
0000
,
1000
0000
0000
0000
,
1000
0000
0000
0000
,
0001
0000
0000
0000
,
0001
0000
0000
0000
,
0010
0000
0100
0000
,
1000
0000
0001
0000
,
0020
0000
0000
0000
,
0000
0000
0030
0000
,
0200
0000
0000
0000
,
0000
0000
0300
0000
,
0020
0000
0000
0000
,
0000
0000
0030
0000
,
2000
0000
0000
0000
,
0000
0000
3000
0000
,
0002
0000
0000
0000
,
0000
0000
0003
0000
,
0010
0000
0010
0000
,
0100
0000
0100
0000
,
1000
0000
0001
0000
,
2002
0000
3003
0000
,
0010
0000
0000
0000
,
0010
0000
0000
0000
,
0100
0000
0000
0000
,
0100
0000
0000
0000
,
0010
0000
0010
0000
,
0020
0000
0030
0000
,
1000
0000
1000
0000
,
0001
0000
0001
0000
,
0010
0000
0010
0000
,
0100
0000
0100
0000
,
1000
0000
1000
0000
,
0001
0000
0001
0000
,
0100
0000
0100
0000
,
0010
0000
0010
0000
,
0010
0000
0010
0000
,
0100
0000
0100
0000
,
1000
0000
0001
0000
,
1000
0000
0001
0000
,
0100
0000
0100
0000
,
0020
0000
0030
0000
,
1000
0000
0000
0000
,
1000
0000
0000
0000
,
0001
0000
0000
0000
,
0001
0000
0000
0000
,
0010
0000
0000
0000
,
0010
0000
0000
0000
,
0100
0000
0000
0000
,
0100
0000
0000
0000
,
0010
0000
0010
0000
,
0100
0000
0100
0000
,
1000
0000
0001
0000
,
1000
0000
0001
0000
,
0100
0000
0100
0000
,
0010
0000
0010
0000
,
0001
0000
1000
0000
,
0001
0000
1000
0000
,
2002
0000
0000
0000
,
0000
0000
0000
0000
0000
0000
0000
0000
0000
0000
0000
0000
0000
0000
0000
0000
0000
0000
0000
0000
0000
0000
0000
0000
0000
0000
0000
0000
0000
0000
0000
0000
0000
0000
0000
0000
0000
0000
0000
0000
0000
0000
0000
0000
0000
0000
0000
0000
0000
0000
0000
0000
0000
0000
0000
0000
0000
0000
0000
0000
0000
0000
0000
0000
0000
0000
0000
0000
0000
0000
0000
0000
0000
0000
0000
0000
0000
0000
0000
0000
0000
0000
0000
0000
0000
0000
0000
0000
0000
0000
0000
0000
0000
0000
0000
0000
0000
0000
0000
0000
0000
0000
0000
0000
0000
0000
0000
0000
0000
0000
0000
0000
0000
0000
0000
0000
0000
0000
0000
0000
0000
0000
0000
0000
0000
0000
0000
0000
0000
0000
0000
0000
0000
0000
0000
0000
0000
0000
0000
0000
0000
0000
0000
0000
0000
3003
0000
0000
0000
0000
0000
0000
0000
0000
0000
0000
0000
0000
0000
0000
0000
0000
0000
0000
0000
0000
0000
0000
0000
0000
0000
0000
0000
0000
0000
0000
0000
0000
0000
0000
0000
0000
0000
0000
0000
0000
0000
0000
0000
0000
0000
0000
;

//---------------dance-single - ----------------
#NOTES:
     dance-single:
     :
     Hard:
     10:
     0.765,0.664,0.697,0.230,0.000,521.000,82.000,27.000,0.000,0.000:
0000
0000
0000
0000
,
0000
0000
0000
0000
,
0020
0000
0000
0000
,
0000
0000
0000
0030
,
0001
0010
0001
0100
0001
0100
0110
0000
,
1000
0010
1000
0100
1000
0100
0110
0000
,
1000
0001
1000
0010
1000
0010
0110
0000
,
1000
0010
0100
0001
0010
0100
1001
0000
,
1000
0010
1000
0100
1000
0100
0110
0000
,
0001
0010
0001
0100
0001
0100
0110
0000
,
0001
1000
0001
0010
0001
0010
0110
0000
,
0001
0010
0100
1000
0010
0100
1001
0000
,
0001
0100
0001
0010
0001
0010
0110
0000
,
1000
0100
1000
0010
1000
0010
0110
0000
,
1000
0001
1000
0100
1000
0100
0110
0000
,
1000
0100
0010
0001
0100
0010
1001
0000
,
1000
0100
1000
0010
1000
0010
0110
0000
,
0001
0100
0001
0010
0001
0010
0110
0000
,
0001
1000
0001
0100
0001
0100
0110
0000
,
0001
0100
0010
1000
0100
0010
1001
0000
,
1000
0100
0010
0001
0100
0010
1001
0000
,
0001
1000
0001
0010
0001
1000
0001
0100
,
0001
0010
0100
1000
0010
1000
0100
0010
,
1000
0001
1000
0010
1000
0001
1000
0100
,
1000
0010
0100
0001
0010
0001
1000
0000
,
1000
0001
1000
0010
1000
0001
1000
0100
,
1000
0010
0100
0001
0010
0001
0100
0010
,
2000
0001
0001
3001
0000
1000
0010
0100
,
0002
1000
1000
1003
0000
0110
1001
0000
,
0001
1000
0001
0010
0001
1000
0001
0100
,
0001
0010
0100
1000
0010
1000
0100
0010
,
1000
0001
1000
0010
1000
0001
1000
0100
,
1000
0010
0100
1001
0000
0001
1000
1100
,
0000
1000
0001
0101
0000
0001
1000
1010
,
0000
1000
0001
0011
0000
0001
0010
0200
,
1000
0001
1000
0301
,
1000
0010
0100
1001
0000
0010
1001
0000
,
2000
3200
0320
0032
,
0103
0000
1010
0000
0110
0000
0010
1000
,
0002
0203
0320
2030
,
3100
0000
0011
0000
0110
0000
0010
0001
,
2000
3020
0230
0302
,
0013
0000
1100
0000
0110
0000
0010
1000
,
0102
0013
2200
3300
,
0022
0033
1001
1100
,
0010
0000
0000
1100
0000
0000
0101
0000
,
0010
0000
0000
0101
0000
0000
1100
0000
,
0010
0000
0000
1000
0100
0000
1000
0010
,
0000
1010
0000
0000
1000
0100
0010
0001
,
0000
0001
0101
0000
0010
0000
1010
0000
,
1100
1010
0000
0101
0000
0001
0100
0102
,
0000
1000
0010
2003
,
0010
0001
0100
3001
,
0001
0010
0000
0011
0000
1100
0000
0000
,
1000
0100
0010
0001
1001
0000
0010
1000
,
0001
0100
0010
1010
0000
1000
0001
0101
,
1000
1010
0000
0101
0000
0001
0100
0010
,
1000
0100
0010
0011
0000
1100
0010
0001
,
0100
0101
0000
1100
0000
0010
1001
0000
,
1000
0100
1000
1100
0000
1000
0010
0100
,
0001
0010
0001
0011
0000
0001
0010
0100
,
1000
0100
1000
0020
0000
0130
0001
0010
,
0000
1000
0100
0010
0001
0010
0100
0001
,
1000
0001
1000
0010
1000
0001
1000
0100
,
0001
1000
0001
0010
0001
1000
0001
0100
,
0010
1000
0100
1100
0010
0100
0001
0101
,
0000
1000
0100
0010
0001
0100
0010
1000
,
0001
0100
0010
2000
0000
3010
0100
0001
,
0010
0011
0000
1000
0001
0010
0001
0010
,
1000
0100
1000
0010
1000
0010
0110
0000
,
0001
0100
0001
0010
0001
0010
0110
0000
,
0001
1000
0001
0100
0001
0100
0110
0000
,
0001
0100
0010
1000
0100
0010
1001
0000
,
0001
0100
0001
0010
0001
0010
0110
0000
,
1000
0100
1000
0010
1000
0010
0110
0000
,
1000
0001
1000
0100
1000
0100
0110
0000
,
1000
0100
0010
0001
0100
0010
1001
0000
,
1000
0010
1000
0100
1000
0100
0110
0000
,
0001
0010
0001
0100
0001
0100
0110
0000
,
0001
1000
0001
0010
0001
0010
0110
0000
,
0001
0010
0100
1000
0010
0100
1001
0000
,
0001
0010
0001
0100
0001
0100
0110
0000
,
1000
0010
1000
0100
1000
0100
0110
0000
,
1000
0001
1000
0010
1000
0010
0110
0000
,
1000
0010
0100
0001
0010
0100
1001
0000
,
2002
0000
0000
0000
,
0000
0000
0000
3003
;
