#TITLE:Call of the Hound;
#SUBTITLE:Oh Henry!;
#ARTIST:CCIVORY;
#TITLETRANSLIT:;
#SUBTITLETRANSLIT:;
#ARTISTTRANSLIT:;
#CREDIT:;
#BANNER:../Fallback-Ban.png;
#BACKGROUND:../Fallback-BG.png;
#LYRICSPATH:;
#CDTITLE:../~CDTitle-@@.png;
#MUSIC:CCIVORY - Call of the Hound.ogg;
#OFFSET:-0.494;
#SAMPLESTART:192.584;
#SAMPLELENGTH:30.000;
#SELECTABLE:YES;
#BPMS:0.000=219.897;
#STOPS:;
#BGCHANGES:;
// cache tags:
#FIRSTBEAT:32.000;
#LASTBEAT:1534.000;
#SONGFILENAME:Songs/Oh Henry! Mad Stamina/Call of the Hound (20+)/Call of the Hound.sm;
#HASMUSIC:1;
#HASBANNER:1;
#MUSICLENGTH:422.034;
// end cache tags

//---------------dance-single - @@----------------
#NOTES:
     dance-single:
     @@:
     Challenge:
     20:
     1.000,1.000,0.019,0.059,1.000,5047.000,8.000,25.000,0.000,0.000:
0000
0000
0000
0000
,
0000
0000
0000
0000
,
0000
0000
0000
0000
,
0000
0000
0000
0000
,
0000
0000
0000
0000
,
0000
0000
0000
0000
,
0000
0000
0000
0000
,
0000
0000
0000
0000
,
1000
0010
1000
0100
,
0100
0010
0001
0100
,
0001
0010
0001
0100
,
0100
0001
0010
0100
,
1000
0001
1000
0010
,
0010
0100
0001
0010
,
0001
1000
0001
0100
,
0100
0010
1000
0100
,
2000
0001
0010
0001
,
0001
3000
1000
0000
0100
0000
0010
0000
,
0001
0100
0001
0010
,
0002
0000
0100
0000
1000
0000
0010
0003
,
0002
1000
0100
1000
,
1000
0003
0001
0000
0100
0000
0010
0000
,
1000
0100
1000
0010
,
2000
0000
0100
0000
0001
0000
0010
3000
,
2000
0001
0100
0001
,
0001
3000
1000
0000
0100
0000
0010
0000
,
0002
1000
0100
1000
,
1000
0003
0001
0000
0010
0000
0100
0000
,
2000
0001
0100
0001
,
0001
3000
1000
0000
0010
0000
0100
0000
,
0001
0010
0100
1000
,
1000
0010
0100
0001
,
1000
0100
0010
0100
1000
0001
0010
0100
1000
0001
1000
0100
0010
0001
1000
0100
,
1000
0001
0010
0001
1000
0100
0010
0001
1000
0100
0010
0100
1000
0001
0010
0100
,
1000
0001
0100
0001
1000
0010
0100
0010
1000
0001
0100
0001
1000
0010
0100
0010
,
1000
0100
0010
0001
1000
0001
0010
0100
1000
0001
0010
0001
1000
0100
0010
0100
,
1000
0010
0100
0001
0100
0010
1000
0001
0100
0001
1000
0010
0100
0010
1000
0001
,
1000
0010
0100
0001
1000
0001
0100
0010
1000
0001
0100
0001
1000
0010
0100
0001
,
1000
0100
1000
0001
0010
0001
1000
0100
0010
0001
1000
0100
1000
0001
0010
0100
,
1000
0010
0100
0001
1000
0001
0100
0010
1000
0001
0100
0001
1000
0010
0100
0010
,
1000
0100
0010
0001
1000
0001
0010
0100
0010
0001
1000
0100
0010
0001
1000
0100
,
1000
0001
0010
0100
1000
0001
0010
0001
1000
0100
0010
0001
1000
0100
0010
0100
,
1000
0010
0100
0001
1000
0001
0100
0010
1000
0001
0100
0001
1000
0010
0100
0010
,
1000
0001
0100
0001
1000
0010
0100
0001
1000
0010
1000
0001
0100
0001
1000
0010
,
1000
0100
0010
0001
1000
0001
0010
0100
1000
0001
0010
0001
1000
0100
0010
0001
,
1000
0100
1000
0001
0010
0100
1000
0001
0010
0001
1000
0100
0010
0100
1000
0001
,
0100
0010
0100
0001
1000
0001
0100
0010
1000
0001
0100
0001
1000
0010
0100
0001
,
0100
0010
1000
0001
0100
0001
1000
0010
1000
0001
0100
0010
1000
0001
0100
0001
,
1000
0100
0010
0001
1000
0001
0010
0100
1000
0100
0010
0001
1000
0001
0100
0010
,
1000
0001
0100
0001
1000
0010
0100
0010
1000
0001
0010
0100
1000
0001
0010
0001
,
0100
0010
1000
0001
0100
0001
1000
0010
0100
0010
1000
0001
1000
0100
0010
0001
,
1000
0001
0010
0100
1000
0001
0010
0001
1000
0010
0100
0001
1000
0001
0100
0010
,
1000
0100
0010
0001
1000
0100
1000
0001
0010
0100
1000
0001
1000
0010
0100
0010
,
1000
0001
0100
0001
1000
0010
0100
0001
1000
0100
1000
0001
0010
0100
0010
0001
,
0100
0001
1000
0010
0100
0001
1000
0001
0100
0010
1000
0001
1000
0100
0010
0100
,
1000
0001
0010
0100
1000
0100
0010
0001
1000
0010
1000
0001
0100
0001
1000
0010
,
1000
0100
0010
0001
1000
0001
0010
0100
1000
0100
0010
0001
1000
0001
0100
0010
,
1000
0001
0100
0001
1000
0010
0100
0001
1000
0100
1000
0001
0010
0100
0010
0001
,
0100
0010
1000
0001
0100
0001
1000
0010
0100
0010
1000
0001
1000
0100
0010
0001
,
1000
0001
0010
0100
1000
0001
0010
0001
1000
0010
0100
0001
1000
0001
0100
0010
,
1000
0100
0010
0001
1000
0001
0010
0100
1000
0001
0010
0001
1000
0100
0010
0100
,
1000
0010
0100
0001
1000
0001
0100
0010
1000
0001
0100
0001
1000
0010
0100
0010
,
1000
0100
0010
0001
1000
0001
0010
0100
1000
0001
0010
0001
1000
0100
0010
0001
,
0100
0010
0100
0001
1000
0100
0010
0001
1000
0010
0100
0001
0010
0100
1000
0001
,
0100
0000
0010
0000
0100
0000
0001
0000
0010
0000
0000
0000
0100
1000
0001
0100
,
0001
0000
0000
0000
0010
0000
0100
0000
1000
0000
0010
0000
1000
0001
1000
0000
,
0001
0010
0100
0000
1000
0100
0010
0000
0001
0100
0010
1000
0001
0000
0001
0000
,
1000
0100
0010
0001
1000
0010
0100
0001
,
1000
0100
1000
0001
1000
0000
0000
0000
0000
0000
0010
0000
0100
0000
0001
0010
,
0100
1000
0001
0100
0001
1000
0100
0000
0000
0000
1000
0010
0100
0000
0000
0000
,
0001
0010
0100
0000
1000
0000
1000
0000
0001
0010
0100
0000
1000
0010
0100
0000
,
0001
0010
0100
0000
1000
0000
1000
0000
0010
0100
0001
0000
1000
0100
0010
0000
,
0001
0100
0010
1000
0100
0010
0001
1000
,
0001
0100
0010
0100
0001
1000
0001
1000
,
0100
0010
0100
1000
0010
0100
0001
1000
,
0001
0010
0100
1000
0010
0100
0010
1000
,
0001
0000
0000
0000
1000
0100
0010
0000
0001
0000
0000
0000
0100
0010
0100
0001
,
1000
0100
0010
0001
1000
0010
0100
0010
1000
0001
0010
0100
1000
0001
0100
0001
,
1000
0100
0010
0000
0001
0100
0010
0000
1000
0001
0010
0000
0001
0100
0010
0000
,
0100
0001
0010
0000
0100
0000
1000
0000
0010
0000
0100
0000
0010
0000
0100
0000
,
0001
0000
1000
0000
0001
0000
1000
0000
0100
0010
0001
1000
0100
1000
0010
0100
,
0001
0100
0010
1000
0100
0010
0001
1000
0001
0000
1000
0000
0010
0000
0010
0000
,
0100
0000
0001
0000
1000
0000
0100
0010
0001
0000
1000
0000
0010
0000
1000
0000
,
0200
0300
0020
0030
0002
0003
0200
0300
0020
0030
2000
3000
0100
0000
1000
0000
,
0010
0100
0001
1000
0001
0010
0100
1000
,
0001
0100
0010
1000
0001
0010
0100
1000
,
0010
1000
0001
0100
0001
1000
0010
0100
,
0001
0010
0001
0100
0010
1000
0001
0010
,
0001
1000
0010
1000
0001
1000
0010
1000
,
0001
0010
0001
1000
0001
0100
0010
0100
,
0001
1000
0100
1000
0001
1000
0100
1000
,
0001
0100
0001
1000
0001
0010
0100
0010
,
0001
1000
0010
1000
0001
1000
0100
0010
,
0001
1000
0001
0100
0001
1000
0010
0100
,
0001
0010
0100
0000
1000
0001
0100
0000
0001
1000
0100
0000
0010
0000
0001
0000
,
0100
0000
0010
0000
0100
0000
0001
0000
0010
0100
1000
0001
0100
0010
0100
0001
,
1000
0100
0010
0001
1000
0100
1000
0001
0100
0010
0100
0001
1000
0100
0010
0001
,
1000
0100
0010
0100
1000
0001
0100
0001
1000
0100
0010
0001
0100
0001
1000
0100
,
1000
0001
0100
0001
1000
0010
0100
0010
1000
0001
0010
0001
1000
0010
0100
0001
,
0100
0010
1000
0001
0010
0100
0010
0001
1000
0010
0100
0001
0010
0001
1000
0010
,
1000
0001
0010
0100
0010
0001
1000
0100
1000
0001
0100
0010
1000
0001
0010
0100
,
1000
0001
0010
0001
1000
0010
0100
0001
1000
0100
1000
0001
0100
0001
1000
0100
,
1000
0001
0100
0001
1000
0010
0100
0010
1000
0001
0010
0001
1000
0010
0100
0010
,
1000
0001
0100
0001
1000
0100
0010
0001
1000
0010
1000
0001
0010
0001
1000
0010
,
1000
0001
0010
0100
0010
0001
1000
0100
1000
0001
0100
0001
1000
0100
0010
0100
,
1000
0001
0010
0100
1000
0001
0100
0001
1000
0100
1000
0010
0100
0001
1000
0100
,
1000
0001
0100
0010
1000
0001
0100
0001
1000
0100
1000
0001
0100
0010
0100
0001
,
1000
0001
0100
0010
1000
0001
0010
0001
1000
0010
0100
0001
0010
0001
1000
0010
,
1000
0001
0010
0001
1000
0100
0010
0001
1000
0010
0100
0010
1000
0001
0010
0100
,
1000
0001
0010
0001
1000
0010
0100
0001
1000
0100
1000
0001
0100
0001
1000
0100
,
1000
0001
0100
0001
1000
0010
0100
0001
1000
0100
0010
0100
1000
0001
0100
0001
,
1000
0100
1000
0010
0100
0001
0010
0100
1000
0001
0100
0010
1000
0100
0010
0001
,
1000
0010
0100
0001
1000
0010
1000
0001
0010
0100
0010
0001
1000
0010
0100
0001
,
1000
0010
0100
0010
1000
0001
0010
0001
1000
0010
0100
0001
0010
0001
1000
0010
,
1000
0001
0010
0001
1000
0100
0010
0100
1000
0001
0100
0001
1000
0100
0010
0001
,
0010
0100
1000
0001
0100
0010
0100
0001
1000
0100
0010
0001
0100
0001
1000
0100
,
1000
0001
0100
0010
0100
0001
1000
0010
1000
0001
0010
0100
1000
0001
0100
0001
,
1000
0010
0100
0010
1000
0001
0010
0001
1000
0010
1000
0001
0010
0001
1000
0010
,
1000
0001
0010
0001
1000
0100
0010
0100
1000
0001
0100
0001
1000
0100
0010
0100
,
1000
0001
0010
0001
1000
0010
0100
0001
1000
0100
1000
0001
0100
0001
1000
0100
,
1000
0001
0100
0010
0100
0001
1000
0010
1000
0001
0010
0001
1000
0010
0100
0010
,
1000
0001
0100
0010
1000
0001
0010
0001
1000
0010
1000
0100
0010
0001
1000
0010
,
1000
0001
0010
0100
1000
0001
0010
0001
1000
0010
1000
0001
0010
0100
0010
0001
,
1000
0001
0010
0100
1000
0001
0100
0001
1000
0100
0010
0001
0100
0001
1000
0100
,
1000
0001
0100
0001
1000
0010
0100
0001
1000
0100
0010
0100
1000
0001
0100
0010
,
1000
0001
0100
0001
1000
0100
0010
0001
1000
0010
1000
0001
0010
0001
1000
0010
,
1000
0001
0010
0001
1000
0100
0010
0001
1000
0010
0100
0010
1000
0001
0010
0001
,
1000
0010
1000
0100
0010
0001
0100
0010
1000
0001
0010
0100
1000
0010
0100
0001
,
1000
0000
0000
0000
0000
0000
0000
0000
0001
0010
0100
1000
0001
0010
0100
1000
,
0001
0100
0010
1000
0001
0100
0010
1000
,
0001
0000
0000
0000
,
0001
0010
0100
1000
0001
0010
0100
1000
,
0001
0000
0000
0000
,
0001
0100
0010
1000
0001
0100
0010
1000
,
0001
0000
0000
0000
,
0001
0010
0100
1000
0001
0010
0100
1000
,
0001
0000
0000
0000
0000
0000
0000
0000
1000
0010
0100
0001
1000
0010
0100
0001
,
1000
0100
0010
0001
1000
0100
0010
0001
,
1000
0000
0000
0000
,
1000
0010
0100
0001
1000
0010
0100
0001
,
1000
0000
0000
0000
,
1000
0100
0010
0001
1000
0100
0010
0001
,
1000
0000
0000
0000
0001
0100
0010
1000
0001
0100
0001
1000
0010
0100
0010
1000
,
0001
0010
0100
1000
0001
0010
0001
1000
0100
0010
0001
1000
0100
0010
0100
1000
,
0001
0100
0010
1000
1001
0001
0010
0100
,
1000
0001
0100
0001
1000
1000
0001
0010
,
0001
1000
0100
1000
1001
0001
0100
0010
,
1000
0001
0010
0001
0100
0100
0001
1000
,
0010
0100
0010
1000
1001
0001
0010
0100
,
1000
0001
0100
0010
1000
0001
0010
0100
,
1000
0100
0010
0001
1001
1000
0010
0100
,
0001
1000
0100
1000
0010
0100
0010
0100
,
0001
0010
0100
1000
1001
0001
0100
0010
,
1000
0001
0010
0001
1000
1000
0001
0100
,
0001
1000
0010
1000
1001
0001
0010
0100
,
1000
0001
0100
0001
0010
0010
0001
1000
,
0100
0010
0100
1000
1001
0001
0100
0010
,
1000
0001
0010
0100
1000
0001
1000
0001
,
0100
0010
0100
0001
1001
1000
0100
0010
,
0001
1000
0010
1000
0100
0010
0100
0010
,
0001
0010
0100
1000
0001
0100
0010
0100
0001
0010
0001
1000
0010
0100
0010
1000
,
0100
0010
0100
1000
0001
0100
0010
1000
0100
0010
0001
1000
0001
0100
0010
0100
,
0001
0010
0100
1000
0001
1000
0010
0100
0001
0010
0100
0010
0001
1000
0010
1000
,
0100
0010
0001
1000
0010
0100
0010
1000
0100
0010
0001
1000
0001
0100
0010
0100
,
0001
0010
0100
0010
0001
1000
0010
1000
0100
0010
0001
1000
0010
0100
0010
1000
,
0100
0010
0100
1000
0001
0100
0010
1000
0100
1000
0001
0010
0001
1000
0010
0100
,
0001
0010
0001
1000
0010
1000
0001
0100
0001
0010
0100
1000
0001
1000
0010
0100
,
0001
0010
0100
1000
0001
0100
0010
0100
0001
0010
0001
0100
0010
1000
0001
0010
,
0001
0100
0010
1000
0001
0010
0100
0010
0001
0100
0001
1000
0100
0010
0100
1000
,
0010
0100
0010
1000
0001
0010
0100
1000
0010
0100
0001
1000
0001
0010
0100
0010
,
0001
0100
0010
1000
0001
1000
0100
0010
0001
0100
0010
0100
0001
1000
0100
1000
,
0010
0100
0001
1000
0100
0010
0100
1000
0010
0100
0001
1000
0001
0010
0100
0010
,
0001
0100
0010
0100
0001
1000
0100
1000
0010
0100
0001
1000
0100
0010
0100
1000
,
0010
0100
0010
1000
0001
0010
0100
1000
0010
1000
0001
0100
0001
1000
0100
0010
,
0001
0100
0001
1000
0100
1000
0001
0010
0001
0100
0010
1000
0001
1000
0100
0010
,
0001
0100
0010
1000
0001
0010
0100
0010
0001
0100
0001
1000
0100
1000
0001
0100
,
0001
0010
0100
1000
0001
0010
0100
0010
0001
1000
0100
0010
0001
0010
0100
1000
,
0001
1000
0010
0100
0010
1000
0001
0100
0001
1000
0010
0100
0010
1000
0001
0100
,
0001
1000
0100
0010
0100
1000
0001
0010
0100
1000
0001
0010
0001
1000
0100
0010
,
0001
0100
0010
1000
0001
0010
0100
1000
0001
0100
0010
0100
0001
1000
0100
0010
,
0001
0100
0010
1000
0001
0100
0001
1000
0010
0100
0001
1000
0001
0100
0010
1000
,
0001
1000
0100
0010
0100
1000
0001
0010
0001
1000
0100
0010
0100
1000
0010
0100
,
0001
0010
0100
1000
0001
0010
0001
1000
0100
0010
0100
1000
0001
0010
0100
1000
,
0001
1000
0010
0100
0010
1000
0001
0100
0001
1000
0010
0100
0010
1000
0001
0100
,
0001
0010
0100
1000
0001
0010
0001
1000
0100
0010
0001
1000
0100
0010
0100
1000
,
0001
1000
0010
0100
0010
1000
0001
0100
0001
1000
0010
0100
0001
0100
0010
1000
,
0100
0010
0001
1000
0100
0010
0100
1000
0001
0010
0100
1000
0001
0010
0100
0010
,
0001
0100
0010
1000
0001
0100
0001
1000
0010
0100
0001
1000
0001
0100
0010
1000
,
0100
0010
0001
0010
0100
1000
0001
0010
0001
1000
0100
0010
0001
1000
0001
0100
,
0010
1000
0001
0100
0001
1000
0010
0100
0001
1000
0100
0010
0001
0100
0010
1000
,
0100
1000
0001
0010
0100
1000
0001
0010
0001
1000
0100
0010
0001
1000
0010
1000
,
0001
0100
0010
0100
0001
1000
0010
1000
0001
0010
0001
1000
0100
0010
0100
1000
,
0010
1000
0001
0010
0001
1000
0010
0100
0001
0100
0010
1000
0001
0100
0010
1000
,
0001
1000
0100
0010
0100
1000
0001
0010
0001
1000
0100
0010
0100
1000
0001
0010
,
0001
1000
0010
0100
0010
1000
0001
0100
0010
1000
0001
0100
0001
1000
0010
0100
,
0001
0010
0100
1000
0001
0010
0100
0010
0001
0100
0010
0100
0001
1000
0010
0100
,
0001
0010
0100
1000
0001
0010
0001
1000
0100
0010
0001
1000
0001
0010
0100
1000
,
0001
1000
0010
0100
0010
1000
0001
0100
0001
1000
0010
0100
0010
1000
0001
0100
,
0001
1000
0100
1000
0001
0010
0001
1000
0100
0010
0100
1000
0001
0010
0100
1000
,
0010
0100
0001
0100
0010
1000
0001
0100
0001
0010
0100
1000
0100
0010
0001
1000
,
0001
0100
0010
1000
0001
0010
0001
1000
0100
0010
0001
1000
0100
0010
0100
1000
,
0001
1000
0010
0100
0010
1000
0001
0100
0001
1000
0010
0100
0001
0100
0010
1000
,
0001
0010
0001
1000
0100
0010
0001
1000
0100
0010
0100
1000
0001
0010
0100
0010
,
0001
0100
0010
0100
0001
1000
0010
1000
0100
0010
0001
1000
0001
0010
0100
1000
,
0010
0100
0001
1000
0100
1000
0001
0010
0001
1000
0100
0010
0001
1000
0100
1000
,
0001
0100
0010
0100
0001
1000
0010
1000
0001
0100
0010
0100
0001
1000
0010
1000
,
0100
0010
0001
1000
0100
1000
0001
0010
0001
1000
0100
0010
0001
1000
0100
1000
,
0010
0100
0010
1000
0001
0010
0100
1000
0001
0100
0010
1000
0100
0010
0001
1000
,
0001
0100
0010
1000
0001
0100
0001
1000
0100
0010
0100
1000
0001
0100
0010
1000
,
0001
0100
0010
0100
0001
1000
0100
1000
0001
0100
0010
1000
0100
1000
0001
0100
,
0001
1000
0100
1000
0001
0010
0100
0010
0001
1000
0010
1000
0001
0010
0100
1000
,
0100
0010
0001
1000
0010
0100
0010
1000
0001
0010
0100
1000
0010
1000
0001
0010
,
0001
1000
0010
0100
0010
1000
0001
0100
0001
1000
0100
0010
0001
1000
0010
0100
,
0001
1000
0010
1000
0001
0010
0100
1000
0001
0100
0001
1000
0100
1000
0001
0100
,
0001
1000
0100
1000
0001
0010
0100
0010
0001
1000
0010
1000
0001
0010
0100
0010
,
0001
1000
0100
1000
0001
0100
0010
1000
0001
0010
0001
1000
0010
1000
0001
0010
,
0001
1000
0010
0100
0010
1000
0001
0100
0001
1000
0100
1000
0001
0100
0010
0100
,
0001
1000
0010
0100
0001
1000
0100
1000
0001
0100
0001
0010
0100
1000
0001
0100
,
0001
1000
0100
0010
0001
1000
0100
1000
0001
0100
0001
1000
0100
0010
0100
1000
,
0001
1000
0100
0010
0001
1000
0010
1000
0001
0010
0100
1000
0010
1000
0001
0010
,
0001
1000
0010
1000
0001
0100
0010
1000
0001
0010
0100
0010
0001
1000
0010
0100
,
0001
1000
0010
1000
0001
0010
0100
1000
0001
0100
0001
1000
0100
1000
0001
0100
,
0001
1000
0100
1000
0001
0010
0100
1000
0001
0100
0010
0100
0001
1000
0100
1000
,
0001
0100
0001
0010
0100
1000
0010
0100
0001
1000
0100
0010
0001
0100
0010
1000
,
0001
0010
0100
1000
0001
0010
0001
1000
0010
0100
0010
1000
0001
0010
0100
1000
,
0001
0010
0100
0010
0001
1000
0010
1000
0001
0010
0100
1000
0010
1000
0001
0010
,
0001
1000
0010
1000
0001
0100
0010
0100
0001
1000
0100
1000
0001
0100
0010
1000
,
0010
0100
0001
1000
0100
0010
0100
1000
0001
0100
0010
1000
0100
1000
0001
0100
,
0001
1000
0100
0010
0100
1000
0001
0010
0001
1000
0010
0100
0001
1000
0100
1000
,
0001
0010
0100
0010
0001
1000
0010
1000
0001
0010
0001
1000
0010
1000
0001
0010
,
0001
1000
0010
1000
0001
0100
0010
0100
0001
1000
0100
1000
0001
0100
0010
0100
,
0001
1000
0010
1000
0001
0010
0100
1000
0001
0100
0001
1000
0100
1000
0001
0100
,
0001
1000
0100
0010
0100
1000
0001
0010
0001
1000
0010
1000
0001
0010
0100
0010
,
0001
1000
0100
0010
0001
1000
0010
1000
0001
0010
0001
0100
0010
1000
0001
0010
,
0001
1000
0010
0100
0001
1000
0010
1000
0001
0010
0001
1000
0010
0100
0010
1000
,
0001
1000
0010
0100
0001
1000
0100
1000
0001
0100
0010
1000
0100
1000
0001
0100
,
0001
1000
0100
1000
0001
0010
0100
1000
0001
0100
0010
0100
0001
1000
0100
0010
,
0001
1000
0100
1000
0001
0100
0010
1000
0001
0010
0001
1000
0010
1000
0001
0010
,
0001
1000
0010
1000
0001
0100
0010
1000
0001
0010
0100
0010
0001
1000
0010
1000
,
0001
0010
0001
0100
0010
1000
0100
0010
0001
1000
0010
0100
0001
0010
0100
1000
,
0001
0100
0010
0100
0001
1000
0100
1000
0001
0100
0010
0100
0001
1000
0010
1000
,
0100
0010
0001
0010
0100
1000
0001
1000
0010
0100
0010
1000
0001
0100
0010
0100
,
0001
0010
0100
1000
0001
0100
0010
0100
0001
1000
0100
0010
0001
1000
0010
1000
,
0100
0010
0001
1000
0010
0100
0010
1000
0100
0010
0001
0100
0001
1000
0010
1000
,
0001
0010
0100
0010
0001
1000
0010
1000
0001
0010
0100
0010
0001
1000
0100
1000
,
0010
0100
0001
0100
0010
1000
0001
1000
0100
0010
0100
1000
0001
0010
0100
0010
,
0001
0100
0010
1000
0001
0010
0100
0010
0001
1000
0010
0100
0001
1000
0100
1000
,
0010
0100
0001
1000
0100
0010
0100
1000
0001
0100
0010
1000
0001
1000
0100
0010
,
0001
0100
0010
0100
0001
1000
0100
0010
0001
1000
0010
0100
0001
0100
0010
1000
,
0100
0010
0001
1000
0001
0010
0100
0010
0001
1000
0010
0100
0001
0010
0100
1000
,
0001
0100
0010
0100
0001
1000
0010
1000
0001
0010
0100
1000
0001
0010
0100
0010
,
0001
1000
0010
0100
0010
1000
0100
0010
0001
1000
0001
0100
0010
1000
0010
0100
,
0001
0010
0100
1000
0001
0100
0010
0100
0001
0010
0100
1000
0001
0100
0010
0100
,
0001
0010
0100
1000
0001
0100
0010
0100
0001
0010
0100
1000
0001
0100
0010
0100
,
0001
1000
0100
0010
0001
1000
0010
1000
0001
0010
0100
1000
0001
0100
0010
0100
,
0001
0010
0100
1000
0010
0100
0001
1000
0001
0010
0100
1000
0010
0100
0001
1000
,
0001
0010
0100
0010
0001
1000
0100
1000
0001
0100
0010
0100
0001
1000
0100
0010
,
0001
1000
0100
1000
0001
0100
0010
0100
0001
1000
0100
0010
0100
1000
0010
0100
,
0001
1000
0010
1000
0001
0100
0010
0100
0001
1000
0100
0010
0001
1000
0010
0100
,
0001
0100
0010
1000
0001
0010
0100
1000
0001
0100
0010
0100
0001
0010
0100
1000
,
0001
0010
0001
1000
0100
0010
0001
1000
0001
0100
0010
0100
0001
1000
0100
0010
,
0001
1000
0100
1000
0001
0100
0010
0100
0001
1000
0100
0010
0001
1000
0010
0100
,
0001
1000
0010
1000
0001
0100
0010
0100
0001
1000
0100
0010
0001
1000
0010
1000
,
0001
0100
0010
0100
0001
1000
0100
0010
0001
1000
0001
0100
0010
1000
0001
0010
,
0001
1000
0100
1000
0001
0010
0100
1000
0001
0100
0010
1000
0001
1000
0100
0010
,
0001
0010
0100
1000
0001
0100
0010
1000
0001
1000
0100
0010
0100
1000
0010
0100
,
0001
1000
0001
0100
0010
0100
0001
1000
0001
0010
0100
0010
0001
1000
0010
1000
,
0001
0100
0010
1000
0001
0010
0100
1000
0001
0100
0010
0100
0001
0010
0100
0010
,
0001
1000
0001
0010
0100
0010
0001
1000
0001
0100
0010
1000
0001
1000
0100
0010
,
0001
0010
0100
1000
0001
0100
0010
0100
0001
1000
0100
0010
0001
1000
0010
0100
,
0010
1000
0001
0100
0001
1000
0010
0100
0001
1000
0100
1000
0001
0100
0001
1000
,
0010
0100
0001
1000
0001
0010
0100
0010
0001
1000
0001
0100
0010
1000
0001
0010
,
0001
0100
0010
1000
0010
0100
0001
1000
0001
0010
0100
0010
0001
1000
0100
1000
,
0001
0100
0010
0100
0001
1000
0010
0100
0001
1000
0100
0010
0100
1000
0001
0010
,
0001
0100
0010
1000
0001
1000
0010
0100
0001
1000
0100
0010
0100
1000
0001
0010
,
0001
1000
0010
1000
0001
0100
0010
1000
0001
0010
0100
0010
0001
1000
0100
0010
,
0001
0100
0010
1000
0001
0100
0001
1000
0100
0010
0001
1000
0100
0010
0100
1000
,
0001
0100
0010
1000
0001
0100
0001
1000
0100
0010
0100
1000
0001
0010
0100
1000
,
0010
0100
0010
1000
0001
1000
0010
0100
0001
1000
0100
1000
0001
0010
0100
1000
,
0001
0100
0001
1000
0010
0100
0010
1000
0001
0010
0100
1000
0001
1000
0100
0010
,
0001
0100
0010
0100
0001
1000
0010
1000
0001
0010
0100
1000
0001
0010
0001
1000
,
0010
0100
0010
1000
0001
1000
0010
0100
0001
1000
0100
0010
0001
0010
0100
1000
,
0010
1000
0001
0100
0001
1000
0010
1000
0001
0010
0100
1000
0001
0010
0001
1000
,
0010
0100
0001
0100
0010
1000
0001
1000
0100
0010
0100
1000
0001
1000
0100
0010
,
0001
0100
0010
1000
0001
1000
0010
0100
0001
1000
0100
0010
0001
1000
0100
1000
,
0010
0100
0010
1000
0001
0100
0010
0100
0001
1000
0100
1000
0001
0010
0100
1000
,
0010
0100
0001
0100
0010
1000
0001
1000
0100
0010
0100
1000
0001
0010
0100
1000
,
0001
0100
0010
0100
0001
1000
0010
1000
0001
0010
0100
1000
0001
1000
0100
0010
,
0001
0100
0010
1000
0001
0100
0010
0100
0001
1000
0100
1000
0001
0010
0100
1000
,
0001
0100
0010
1000
0001
1000
0010
0100
0001
1000
0100
0010
0001
1000
0100
1000
,
0010
0100
0010
1000
0001
0100
0010
0100
0001
1000
0100
0010
0100
1000
0001
0010
,
0001
1000
0010
0100
0001
0100
0010
1000
0001
0010
0100
1000
0001
1000
0100
0010
,
0001
0100
0010
0100
0001
1000
0010
1000
0001
0010
0001
1000
0100
0010
0001
1000
,
0001
0100
0010
1000
0010
0100
0001
1000
0100
0010
0001
1000
0001
0010
0100
1000
,
0010
0100
0001
0100
0010
1000
0001
0100
0001
1000
0100
1000
0001
0010
0100
1000
,
0001
0100
0001
1000
0010
0100
0010
1000
0001
0010
0001
1000
0100
1000
0001
0010
,
0001
0100
0010
0100
0001
1000
0010
0100
0001
1000
0100
1000
0001
0010
0001
1000
,
0010
1000
0001
0100
0010
0100
0001
1000
0001
0010
0100
1000
0001
1000
0100
0010
,
0001
0100
0010
0100
0001
1000
0010
1000
0001
0010
0100
1000
0100
0010
0001
1000
,
0010
0100
0001
1000
0001
0100
0010
1000
0001
0010
0100
1000
0001
1000
0100
0010
,
0001
0100
0001
1000
0010
0100
0001
1000
0001
0010
0100
0010
0001
1000
0100
1000
,
0010
0100
0010
1000
0001
1000
0010
0100
0001
1000
0100
1000
0001
0010
0100
1000
,
0010
0100
0001
0100
0010
1000
0001
1000
0100
0010
0100
1000
0001
0010
0001
1000
,
0010
0100
0001
1000
0001
0100
0010
1000
0001
0010
0100
1000
0001
1000
0100
0010
,
0001
0100
0010
0100
0001
1000
0010
0100
0001
1000
0001
0100
0010
1000
0001
0100
,
0001
1000
0010
1000
0001
0100
0010
1000
0001
0100
0010
0100
0001
1000
0010
0100
,
0001
1000
0100
1000
0001
0010
0100
0010
0001
1000
0100
1000
0001
0010
0100
0010
,
0001
0100
0010
1000
0001
1000
0010
0100
0001
1000
0010
1000
0001
0100
0010
0100
,
0001
0010
0100
1000
0100
0010
0001
1000
0100
1000
0001
0010
0100
0010
0001
1000
,
0001
0010
0100
1000
0001
1000
0100
0010
0001
1000
0100
1000
0001
0010
0100
1000
,
0001
0100
0001
1000
0010
1000
0001
0100
0010
1000
0001
0100
0001
1000
0010
0100
,
0001
0010
0100
1000
0001
1000
0100
0010
0001
1000
0100
1000
0001
0010
0100
0010
,
0001
0100
0010
1000
0001
1000
0010
0100
0010
1000
0001
0100
0010
1000
0001
0100
,
0001
1000
0010
0100
0001
1000
0010
1000
0001
0100
0010
1000
0001
0100
0010
0100
,
0001
0010
0100
1000
0001
1000
0100
0010
0001
1000
0100
1000
0001
0010
0100
0010
,
0001
1000
0100
1000
0001
0010
0100
1000
0001
0010
0001
1000
0100
1000
0001
0010
,
0001
0100
0010
1000
0001
1000
0010
0100
0001
1000
0010
1000
0001
0100
0010
1000
,
0001
0100
0001
1000
0010
0100
0001
1000
0010
1000
0001
0100
0010
0100
0001
1000
,
0100
0010
0100
1000
0001
1000
0100
0010
0001
1000
0010
1000
0001
0100
0010
1000
,
0001
0010
0001
1000
0100
1000
0001
0010
0001
1000
0010
1000
0001
0100
0010
0100
,
0001
0010
0100
0010
0001
1000
0100
0010
0001
1000
0001
0010
0100
1000
0001
0010
,
0001
1000
0100
1000
0001
0010
0100
1000
0001
0010
0100
0010
0001
1000
0100
0010
,
0001
1000
0010
1000
0001
0100
0010
0100
0001
1000
0010
1000
0001
0100
0010
0100
,
0001
0010
0100
1000
0001
1000
0100
0010
0001
1000
0100
1000
0001
0010
0100
0010
,
0001
0100
0010
1000
0010
0100
0001
1000
0010
1000
0001
0100
0010
0100
0001
1000
,
0001
0100
0010
1000
0001
1000
0010
0100
0001
1000
0010
1000
0001
0100
0010
1000
,
0001
0010
0001
1000
0100
1000
0001
0010
0100
1000
0001
0010
0001
1000
0100
0010
,
0001
0100
0010
1000
0001
1000
0010
0100
0001
1000
0010
1000
0001
0100
0010
0100
,
0001
0010
0100
1000
0001
1000
0100
0010
0100
1000
0001
0010
0100
1000
0001
0010
,
0001
1000
0100
0010
0001
1000
0100
1000
0001
0010
0100
1000
0001
0010
0100
0010
,
0001
0100
0010
1000
0001
1000
0010
0100
0001
1000
0010
1000
0001
0100
0010
0100
,
0001
1000
0010
1000
0001
0100
0010
1000
0001
0100
0001
1000
0010
1000
0001
0100
,
0001
0010
0100
1000
0001
1000
0100
0010
0001
1000
0100
1000
0001
0010
0100
1000
,
0001
0010
0001
1000
0100
0010
0001
1000
0100
1000
0001
0010
0100
0010
0001
1000
,
0010
0100
0010
1000
0001
1000
0010
0100
0001
1000
0100
1000
0001
0010
0100
1000
,
0001
0100
0001
1000
0010
1000
0001
0100
0001
1000
0100
0010
0001
1000
0100
1000
,
0010
0100
0001
1000
0100
0010
0001
1000
0001
0010
0100
1000
0001
1000
0100
0010
,
0001
1000
0100
0010
0100
1000
0001
0010
0001
1000
0100
0010
0001
0010
0100
1000
,
0001
0100
0010
1000
0001
1000
0010
0100
0010
1000
0001
1000
0010
0100
0010
1000
,
0100
0010
0001
1000
0001
0010
0100
1000
0010
0100
0001
0100
0010
1000
0001
0100
,
0001
0010
0100
1000
0001
1000
0100
0010
0001
1000
0001
0010
0100
1000
0001
0010
,
0001
1000
0100
0010
0100
1000
0001
0010
0001
1000
0100
0010
0001
0010
0100
1000
,
0001
0100
0010
0100
0001
1000
0001
0100
0010
1000
0001
0100
0001
1000
0010
1000
,
0100
0010
0001
1000
0100
1000
0001
0010
0001
0100
0010
0100
0001
1000
0010
1000
,
0100
0010
0001
1000
0001
0100
0010
1000
0001
0100
0001
1000
0010
0100
0001
0100
,
0010
1000
0001
0100
0001
1000
0010
0100
0010
1000
0001
0100
0001
1000
0010
1000
,
0001
0010
0100
1000
0001
0010
0001
1000
0100
0010
0001
1000
0001
0010
0100
1000
,
0010
0100
0010
1000
0001
1000
0010
0100
0001
0010
0100
0010
0001
1000
0100
1000
,
0010
0100
0001
1000
0100
0010
0001
1000
0001
0010
0100
0010
0001
1000
0100
1000
,
0010
0100
0001
1000
0001
0100
0010
1000
0001
0100
0001
1000
0010
0100
0010
1000
,
0100
0010
0001
1000
0100
0010
0100
1000
0001
0010
0001
1000
0100
0010
0100
1000
,
0010
0100
0001
1000
0001
0100
0010
1000
0001
1000
0010
0100
0010
1000
0001
0100
,
0001
1000
0100
1000
0001
0100
0010
1000
0001
1000
0010
0100
0001
1000
0001
0100
,
0010
1000
0001
0100
0001
1000
0010
0100
0001
1000
0010
0100
0001
0100
0010
1000
,
0001
0010
0100
1000
0001
1000
0100
0010
0100
1000
0001
1000
0100
0010
0100
1000
,
0010
0100
0001
1000
0001
0100
0010
1000
0100
0010
0001
0010
0100
1000
0001
0010
,
0001
0100
0010
1000
0001
1000
0010
0100
0001
1000
0001
0100
0010
1000
0001
0100
,
0001
1000
0010
0100
0010
1000
0001
0100
0001
1000
0010
0100
0001
0100
0010
1000
,
0001
0010
0100
0010
0001
1000
0001
0010
0100
1000
0001
0010
0001
1000
0100
1000
,
0010
0100
0001
1000
0010
1000
0001
0100
0001
0010
0100
0010
0001
1000
0100
1000
,
0010
0100
0001
1000
0001
0010
0100
1000
0001
0010
0001
1000
0100
0010
0001
0010
,
0100
1000
0001
0010
0001
1000
0100
0010
0100
1000
0001
0010
0001
1000
0100
1000
,
0001
0100
0010
1000
0001
0100
0001
1000
0010
0100
0001
1000
0001
0100
0010
1000
,
0100
0010
0100
1000
0001
1000
0100
0010
0001
0100
0010
0100
0001
1000
0010
1000
,
0100
0010
0001
1000
0010
0100
0001
1000
0001
0100
0010
0100
0001
1000
0010
1000
,
0100
0010
0001
1000
0001
0010
0100
1000
0001
0010
0001
1000
0100
0010
0100
1000
,
0010
0100
0001
1000
0010
0100
0010
1000
0001
0100
0001
1000
0010
0100
0010
1000
,
0100
0010
0001
1000
0001
0010
0100
1000
0001
1000
0100
0010
0100
1000
0001
0010
,
0002
1000
0100
1000
,
1000
0003
0001
0000
0010
0000
0100
0000
,
1000
0010
1000
0100
,
2000
3000
0020
0030
2000
3000
0200
0300
,
2000
0001
0010
0001
,
0001
3000
1000
0000
0010
0000
0100
0000
,
0002
0000
1000
0000
0100
0000
1000
0003
,
2000
0000
0010
0000
0001
3000
2000
3000
,
0002
1000
0010
1000
,
1000
0003
0001
0000
0100
0000
0010
0000
,
1000
0100
1000
0010
,
1000
0100
0010
0001
,
2000
0100
0001
0100
,
0100
3000
1000
0000
0010
0000
0100
0000
,
0002
1000
0100
1000
,
1000
0003
0001
0000
1000
0000
0000
0000
;
