#TITLE:Self vs. Self;
#SUBTITLE:;
#ARTIST:Pendulum ft. In Flames;
#TITLETRANSLIT:;
#SUBTITLETRANSLIT:;
#ARTISTTRANSLIT:;
#CREDIT:;
#BANNER:selfvsselfbn.png;
#BACKGROUND:selfvsselfbg.png;
#LYRICSPATH:;
#CDTITLE:;
#MUSIC:selfvsself.ogg;
#OFFSET:0.009;
#SAMPLESTART:116.550;
#SAMPLELENGTH:22.070;
#SELECTABLE:YES;
#BPMS:0.000=174.000;
#STOPS:;
#BGCHANGES:;
// cache tags:
#FIRSTBEAT:3.500;
#LASTBEAT:478.500;
#SONGFILENAME:Songs/Pendulum/Self vs. Self/selfvsself.sm;
#HASMUSIC:1;
#HASBANNER:1;
#MUSICLENGTH:168.000;
// end cache tags

//---------------dance-single - I. Pyles----------------
#NOTES:
     dance-single:
     I. Pyles:
     Beginner:
     1:
     0.026,0.035,0.000,0.000,0.000,30.000,0.000,0.000,0.000,0.000:

0000
0000
0000
0000
,
1000
0000
0000
0000
,
0000
0000
0000
0000
,
0000
0000
0000
0000
,
0000
0000
0000
0000
,
0010
0000
0000
0000
,
0000
0000
0000
0000
,
0000
0000
0000
0000
,
0000
0000
0000
0000
,
0010
0000
0000
0000
,
0000
0000
0000
0000
,
0000
0000
0000
0000
,
0000
0000
0000
0000
,
0100
0000
0000
0000
,
0000
0000
0000
0000
,
0000
0000
0000
0000
,
0000
0000
0000
0000
,
0010
0000
0000
0000
,
0000
0000
0000
0000
,
0000
0000
0000
0000
,
0000
0000
0000
0000
,
0100
0000
0000
0000
,
0000
0000
0000
0000
,
0000
0000
0000
0000
,
0000
0000
0000
0000
,
1000
0000
0000
0000
,
0000
0000
0000
0000
,
0000
0000
0000
0000
,
0000
0000
0000
0000
,
0010
0000
0000
0000
,
0000
0000
0000
0000
,
0000
0000
0000
0000
,
0000
0000
0000
0000
,
0010
0000
0000
0000
,
0000
0000
0000
0000
,
0000
0000
0000
0000
,
0000
0000
0000
0000
,
1000
0000
0000
0000
,
0000
0000
0000
0000
,
0000
0000
0000
0000
,
0000
0000
0000
0000
,
1000
0000
0000
0000
,
0000
0000
0000
0000
,
0000
0000
0000
0000
,
0000
0000
0000
0000
,
0001
0000
0000
0000
,
0000
0000
0000
0000
,
0000
0000
0000
0000
,
0000
0000
0000
0000
,
0001
0000
0000
0000
,
0000
0000
0000
0000
,
0000
0000
0000
0000
,
0000
0000
0000
0000
,
0001
0000
0000
0000
,
0000
0000
0000
0000
,
0000
0000
0000
0000
,
0000
0000
0000
0000
,
0010
0000
0000
0000
,
0000
0000
0000
0000
,
0000
0000
0000
0000
,
0000
0000
0000
0000
,
1000
0000
0000
0000
,
0000
0000
0000
0000
,
0000
0000
0000
0000
,
0000
0000
0000
0000
,
0001
0000
0000
0000
,
0000
0000
0000
0000
,
0000
0000
0000
0000
,
0000
0000
0000
0000
,
0100
0000
0000
0000
,
0000
0000
0000
0000
,
0000
0000
0000
0000
,
0000
0000
0000
0000
,
0001
0000
0000
0000
,
0000
0000
0000
0000
,
0000
0000
0000
0000
,
0000
0000
0000
0000
,
1000
0000
0000
0000
,
0000
0000
0000
0000
,
0000
0000
0000
0000
,
0000
0000
0000
0000
,
1000
0000
0000
0000
,
0000
0000
0000
0000
,
0000
0000
0000
0000
,
0000
0000
0000
0000
,
0001
0000
0000
0000
,
0000
0000
0000
0000
,
0000
0000
0000
0000
,
0000
0000
0000
0000
,
0010
0000
0000
0000
,
0000
0000
0000
0000
,
0000
0000
0000
0000
,
0000
0000
0000
0000
,
0010
0000
0000
0000
,
0000
0000
0000
0000
,
0000
0000
0000
0000
,
0000
0000
0000
0000
,
1000
0000
0000
0000
,
0000
0000
0000
0000
,
0000
0000
0000
0000
,
0000
0000
0000
0000
,
1000
0000
0000
0000
,
0000
0000
0000
0000
,
0000
0000
0000
0000
,
0000
0000
0000
0000
,
0010
0000
0000
0000
,
0000
0000
0000
0000
,
0000
0000
0000
0000
,
0000
0000
0000
0000
,
1000
0000
0000
0000
,
0000
0000
0000
0000
,
0000
0000
0000
0000
,
0000
0000
0000
0000
,
0010
0000
0000
0000
,
0000
0000
0000
0000
,
0000
0000
0000
0000
,
0000
0000
0000
0000
,
0010
0000
0000
0000
;

//---------------dance-single - I. Pyles----------------
#NOTES:
     dance-single:
     I. Pyles:
     Easy:
     10:
     0.906,0.890,0.101,1.000,0.292,847.000,17.000,200.000,45.000,0.000:







0000
0000
0000
0000
0000
0000
0000
0001
,
2000
0000
0000
3000
1100
0000
0100
0000
0020
0000
0032
0000
0203
0000
0320
0000
,
0000
0130
0001
0001
0020
0230
0320
0031
,
2000
0000
0000
3000
1010
0000
0010
0000
0200
0000
0302
0000
0023
0000
0230
0000
,
0000
0310
0001
0001
2000
3020
0000
0130
,
0002
0000
0000
0003
1001
0000
1000
0000
0020
0000
0230
0000
0302
0000
0023
0000
,
0000
0130
1000
1000
0002
0023
0032
1003
,
0002
0000
0000
0003
0101
0000
0100
0000
0020
0000
2030
0000
3002
0000
0023
0000
,
0000
0000
0130
0000
1000
0000
1000
0000
0010
1000
0001
1000
0001
1000
0001
1000
,
0002
0000
0000
0003
0011
0000
0010
0000
0200
0000
2300
0000
3020
0000
0230
0000
,
0000
0310
1000
1000
0200
0320
0230
1300
,
0002
0000
0000
0003
0101
0000
0100
0000
0020
0000
2030
0000
3200
0000
0320
0000
,
0000
0130
1000
1000
0002
0203
0000
0310
,
2000
0000
0000
3000
1001
0000
0001
0000
0200
0000
0320
0000
2030
0000
3200
0000
,
0000
0310
0001
0001
2000
3200
2300
3001
,
2000
0000
0000
3000
1010
0000
0010
0000
0200
0000
0302
0000
2003
0000
3200
0000
,
0310
0001
0010
0001
0010
0000
0100
0000
1000
0001
1000
0001
1000
0000
0001
1000
,
01M0
00M0
0000
0000
00M0
00M0
0000
0000
0000
0000
0000
0000
0000
0000
00M0
00M0
,
M000
M000
0000
0000
M000
M000
0000
0000
0000
0000
0001
0000
0000
0000
0101
0000
,
10M1
00M0
0000
0000
00M0
00M0
0000
0000
0000
0000
0000
0000
0000
0000
0M00
0M00
,
000M
000M
0000
0000
000M
000M
0000
0000
0000
0000
0000
0000
0000
0000
1000
0000
,
0001
0100
0001
0000
1000
0000
0001
0100
0001
0000
1000
0000
0001
0100
0001
0000
,
1000
0000
0001
0100
0001
0000
1000
0000
0001
0100
0001
0000
0010
0100
0010
0000
,
0001
0010
0001
0000
1000
0000
0001
0010
0001
0000
1000
0000
0001
0010
0001
0000
,
1000
0000
0001
0010
0001
0000
1000
0000
0001
0010
0001
0000
0000
0000
0010
0000
,
0020
0001
0031
2000
0001
3001
0020
0001
,
0031
2000
0001
3001
0100
0010
0000
0010
,
0020
1000
1030
0002
1000
1003
0020
1000
,
1030
0002
1000
1003
0100
0000
0100
0010
,
0020
0001
0031
2000
0001
3001
0020
0001
,
0031
2000
0001
3001
0100
0010
0000
0010
,
0010
0000
0000
0000
0010
0000
0100
0000
0100
0000
0004
4000
0000
0000
0000
0000
,
0000
0000
0000
0000
0000
0000
0000
3003
,
2000
0000
0000
0000
3001
0000
1000
0100
1000
0000
0000
0000
0100
0000
0010
0100
,
0010
0001
0000
1000
0100
0010
0100
1000
,
0000
0001
0100
0100
0010
1000
0001
0010
,
0000
0000
0001
0010
0001
0000
1000
0100
1000
0000
0001
0000
0010
0000
0200
0000
,
0000
0000
0300
0000
1000
0000
0001
0010
0001
0000
0000
0000
0010
0000
0100
0010
,
0100
1000
0000
0001
0010
0100
0010
0001
,
0100
0010
0010
1000
0001
0001
0100
0000
,
0010
1000
0010
1000
0010
0000
0100
0001
0100
0000
0010
1000
0010
1000
0001
0000
,
0020
0000
0000
0000
0031
0000
1000
0100
1000
0000
0000
0000
0100
0000
0010
0100
,
0010
0001
0000
1000
0100
0010
0100
1000
,
0000
0001
0100
0100
0010
1000
0001
0010
,
0000
0000
0001
0010
0001
0000
1000
0100
1000
0000
0001
0000
0010
0000
0200
0000
,
0000
0000
0300
0000
1000
0000
0001
0010
0001
0000
0000
0000
0010
0000
0100
0010
,
0100
1000
0000
0001
0010
0100
0010
0001
,
0100
0010
0010
1000
0001
0001
0100
0000
,
0010
1000
0010
1000
0010
0000
0100
0001
0100
0000
0001
1000
0001
1000
0001
1000
,
0100
0000
0020
0000
0100
0000
0130
0000
2000
0000
3001
0100
0001
0000
1000
0000
,
0000
0000
0020
0000
0100
0000
0130
0000
0020
0000
1000
0030
0002
0000
2003
0000
,
0000
3000
0200
0000
0010
0000
0310
0000
0002
0000
1003
0010
1000
0000
0001
0000
,
0000
0200
0320
0230
0302
2003
3200
0320
,
0030
0000
0020
0000
0100
0000
0130
0000
2000
0000
3001
0100
0001
0000
1000
0000
,
0000
0000
0020
0000
0100
0000
0130
0000
0020
0000
1000
0030
0002
0000
2003
0000
,
0000
3000
0200
0000
0010
0000
0310
0000
0002
0000
1003
0010
1000
0000
0001
0000
,
0000
0200
0320
0230
0302
2003
3200
0320
,
0000
0030
0020
0000
0100
0000
0130
0000
2000
0000
3001
0100
0001
0000
1000
0000
,
0000
0000
0020
0000
0100
0000
0130
0000
0020
0000
1000
0030
0002
0000
2003
0000
,
0000
3000
0200
0000
0010
0000
0310
0000
0002
0000
1003
0010
1000
0000
0001
0000
,
0000
0200
0320
0230
0302
2003
3200
0320
,
0000
0030
0020
0000
0100
0000
0130
0000
2000
0000
3001
0100
0001
0000
1000
0000
,
0000
0000
0020
0000
0100
0000
0130
0000
0020
0000
1000
0030
0002
0000
2003
0000
,
0000
3000
0200
0000
0010
0000
0310
0000
0002
0000
1003
0010
1000
0000
0001
0000
,
0000
0200
0320
0230
0302
2003
3200
2300
,
0000
3000
0002
0000
0100
0000
0103
0000
0010
0000
1000
0000
0001
0000
1000
0000
,
0020
0100
0130
0002
1000
1003
0200
0320
,
0000
0030
0002
0000
1000
0000
1003
0000
0100
0000
0010
0000
0001
0000
0010
0000
,
0100
2000
3002
0203
0320
2030
3200
0320
,
0000
0030
0200
0000
1000
0000
1300
0000
0001
0000
0100
0000
0001
0000
1000
0000
,
0200
0010
0310
0002
1000
1003
0020
0230
,
0000
0300
0002
0000
1000
0000
1003
0000
0010
0000
0100
0000
0001
0000
0100
0000
,
0010
2000
3002
0023
0230
2300
3020
0230
,
0300
0002
0010
0013
0100
1000
0001
1000
,
0200
0010
0310
0002
1000
1003
0020
0230
,
0000
0300
0002
0000
1000
0000
1003
0000
0010
0000
0100
0000
0001
0000
0100
0000
,
0010
2000
3002
0023
0230
2300
3020
0230
,
0000
0300
0020
0000
1000
0000
1030
0000
0001
0000
0010
0000
0001
0000
1000
0000
,
0020
0100
0130
0002
1000
1003
0200
0320
,
0000
0030
0002
0000
1000
0000
1003
0000
0010
0000
0100
0000
0001
0000
1000
0000
,
0001
0020
0230
0320
0032
2003
3020
0130
,
0220
0330
0000
0000
0220
0330
0000
0000
,
0220
0330
0000
0000
2002
3003
0000
0000
,
0220
0330
0000
0000
0220
0330
0000
0000
,
M001
0100
M001
0100
M001
0100
M001
0100
,
0010
0000
1000
0000
0010
0000
0100
0001
0100
0000
0010
0000
1000
0000
0001
0000
,
0000
0001
1000
0100
0010
0001
1000
0000
,
0010
0000
1000
0000
0000
0001
0100
0000
,
0000
0001
0100
0000
0010
0010
1000
0000
,
0010
0000
1000
0000
0010
0000
0100
0001
0100
0000
0010
0000
1000
0000
0001
0000
,
0000
0001
1000
0100
0010
0001
1000
0000
,
0010
0000
1000
0000
0000
0001
0100
0000
,
0010
1000
0010
1000
0010
0000
0100
0001
0100
0000
0001
1000
0001
1000
0001
0000
,
0100
0000
0001
0000
0100
0000
0010
1000
0010
0000
0100
0000
0001
0000
1000
0000
,
0000
1000
0001
0010
0100
1000
0001
0000
,
0100
0000
0001
0000
0000
1000
0010
0000
,
0000
1000
0010
0000
0100
0100
0001
0000
,
0100
0000
0001
0000
0100
0000
0010
1000
0010
0000
0100
0000
0001
0000
1000
0000
,
0000
1000
0001
0010
0100
1000
0001
0000
,
0100
0000
0001
0000
0000
1000
0010
0000
,
0100
0001
0100
0001
0100
0000
0010
1000
0010
0000
1000
0001
1000
0001
1000
0000
,
0002
0000
0000
0000
1003
0000
0001
0010
0001
0000
0000
0000
0010
0000
0100
0010
,
0100
1000
0000
0001
0010
0100
0010
0001
,
0000
1000
0010
0010
0100
0001
1000
0100
,
0000
0000
1000
0100
1000
0000
0001
0010
0001
0000
1000
0000
0100
0000
0020
0000
,
0000
0000
0030
0000
0001
0000
1000
0100
1000
0000
0000
0000
0100
0000
0010
0100
,
0010
0001
0000
1000
0100
0010
0100
1000
,
0010
0100
0100
0001
1000
1000
0010
0000
,
0100
0001
0100
0001
0100
0000
0010
1000
0010
0000
0100
0001
0100
0001
1000
0000
,
0200
0000
0000
0000
1300
0000
0001
0010
0001
0000
0000
0000
0010
0000
0100
0010
,
0100
1000
0000
0001
0010
0100
0010
0001
,
0000
1000
0010
0010
0100
0001
1000
0100
,
0000
0000
1000
0100
1000
0000
0001
0010
0001
0000
1000
0000
0100
0000
0020
0000
,
0000
0000
0030
0000
0001
0000
1000
0100
1000
0000
0000
0000
0100
0000
0010
0100
,
0010
0001
0000
1000
0100
0010
0100
1000
,
0010
0100
0100
0001
1000
1000
0010
0000
,
0100
0001
0100
0001
0100
0000
0010
1000
0010
0000
1000
0001
1000
0001
1000
0001
,
2000
000M
00M0
0M00
30M0
000M
00M0
0M00
,
00M0
000M
00M0
0M00
00M0
000M
00M0
0M00
,
000M
00M0
000M
00M0
0M00
M000
0000
0000
;

//---------------dance-single - I. Pyles----------------
#NOTES:
     dance-single:
     I. Pyles:
     Medium:
     11:
     1.000,1.000,0.339,1.000,0.619,1013.000,57.000,237.000,57.000,14.000:



0000
0000
0000
0000
0000
0000
0000
0001
,
1200
0000
0000
0300
1100
0000
0100
0000
0020
0000
0032
0000
0203
0000
0320
0000
,
0000
0130
0001
0001
0020
0230
0320
0031
,
1020
0000
0000
0030
1010
0000
0010
0000
0200
0000
0302
0000
0023
0000
0230
0000
,
0000
0310
0001
0001
2000
3020
0000
0130
,
1002
0000
0000
0003
1001
0000
1000
0000
0020
0000
0230
0000
0302
0000
0023
0000
,
0000
0130
1000
1000
0002
0023
0032
1003
,
0201
0000
0000
0300
0101
0000
0100
0000
0020
0000
2030
0000
3002
0000
0023
0000
,
0000
0000
0130
0000
1000
0000
1000
0000
0001
0010
0001
0100
0010
1000
0001
1000
,
0002
0000
0000
0003
0011
0000
0010
0000
0200
0000
2300
0000
3020
0000
0230
0000
,
0000
0310
1000
1000
0200
0320
0230
1300
,
0201
0000
0000
0300
0101
0000
0100
0000
0020
0000
2030
0000
3200
0000
0320
0000
,
0000
0130
1000
1000
0002
0203
0000
0310
,
2001
0000
0000
3000
1001
0000
0001
0000
0200
0000
0320
0000
2030
0000
3200
0000
,
0000
0310
0001
0001
2000
3200
2300
3001
,
1020
0000
0000
0030
1010
0000
0010
0000
0200
0000
0302
0000
2003
0000
3200
0000
,
0310
0001
0100
0010
1000
0001
1000
0001
0010
0001
0100
0001
1000
0000
1000
0001
,
01M0
00M0
0000
0000
00M0
00M0
0000
0000
0000
0000
0000
0000
0000
0000
00M0
00M0
,
M000
M000
0000
0000
M000
M000
0000
0000
0000
0000
0001
0000
0000
0000
0101
0000
,
10M1
00M0
0000
0000
00M0
00M0
0000
0000
0000
0000
0000
0000
0000
0000
0M00
0M00
,
000M
000M
0000
0000
000M
000M
0000
0000
0000
0000
0000
0000
0000
0000
1000
0000
,
0001
0100
0001
0000
1000
0000
0001
0100
0001
0000
1000
0000
0001
0100
0001
0000
,
1000
0000
0001
0100
0001
0000
1000
0000
0001
0100
0001
0000
0010
0100
0010
0000
,
0001
0010
0001
0000
1000
0000
0001
0010
0001
0000
1000
0000
0001
0010
0001
0000
,
1000
0000
0001
0010
0001
0000
1000
0000
0100
0010
0100
0000
0010
0000
0011
0000
,
0020
0001
0031
2000
0001
3001
0020
0001
,
0031
2000
0001
3001
0100
0110
0000
1010
,
0020
1000
1030
0002
1000
1003
0020
1000
,
1030
0000
0002
0000
1000
0000
1003
0000
0100
0010
0100
0000
0010
0000
0011
0000
,
0020
0001
0031
2000
0001
3001
0020
0001
,
0031
2000
0001
3001
0100
0110
0000
1010
,
0010
0000
0000
0000
0010
0000
0100
0000
0100
0000
0010
0100
0001
0010
0001
1000
,
0001
0100
0010
1000
0001
0100
0010
1000
0001
0100
0010
1000
0100
1000
0001
0010
,
0200
0000
0000
0000
0311
0000
0001
1000
0100
0000
0010
0000
0100
0000
1000
0001
,
0100
0000
0100
0000
0110
0000
0010
0100
0002
0000
0023
0000
0230
0000
2300
0000
,
3001
0000
0200
0000
0010
0300
0010
1000
0002
0000
0010
0003
0010
0001
1000
0001
,
MMM0
0000
1000
0001
0100
0000
0010
0100
0002
0000
0023
0000
0230
0000
0310
0001
,
2000
0000
0100
3000
1100
0000
1000
0001
0010
0000
0100
0000
0010
0000
0001
1000
,
0010
0000
0010
0000
0110
0000
0200
0310
2000
0000
3200
0000
0320
0000
0032
0000
,
1013
0000
0010
0100
0001
0000
0011
0000
0010
0100
1000
0000
1100
0000
1000
0000
,
0001
1000
0100
1000
0001
0000
1000
0001
0100
0000
0001
1000
0010
1000
0001
0000
,
0020
0000
0000
0000
1130
0000
1000
0001
0100
0000
0010
0000
0100
0000
0001
1000
,
0100
0000
0100
0000
0110
0000
0010
0100
2000
0000
3020
0000
0230
0000
0302
0000
,
1003
0000
0200
0000
0010
0300
0010
0001
2000
0000
0010
3000
0010
1000
0001
1000
,
0MMM
0000
0001
1000
0100
0000
0010
0100
2000
0000
3020
0000
0230
0000
0310
1000
,
0002
0000
0100
0003
0101
0000
0001
1000
0010
0000
0100
0000
0010
0000
1000
0001
,
0010
0000
0010
0000
0110
0000
0100
0010
0002
0000
0203
0000
0320
0000
2030
0000
,
3011
0000
0010
0100
1000
0000
1010
0000
0010
0100
0001
0000
0101
0000
0001
0000
,
0010
0001
0100
0010
1000
0001
0100
0010
1000
0001
0010
0001
1000
0000
1000
0010
,
0100
0000
0000
0002
0000
0000
0010
0000
0000
0013
0000
0000
0200
0000
0000
1300
0001
0100
0010
0000
0000
0100
0000
0000
,
0000
0000
0020
0000
0100
0000
0130
0000
0020
0000
1000
0030
0002
0000
2003
0000
,
0000
0000
0000
3000
0000
0000
0002
0000
0000
0000
0000
0000
0010
0000
0000
0000
0000
0000
0013
0000
0000
0000
0000
0000
0200
0000
0000
0000
0000
0000
1300
0000
0001
0000
0100
0000
0010
0000
0000
0000
0000
0000
0100
0000
0000
0000
0000
0000
,
0000
0020
0230
0320
2030
3002
0023
0230
,
0000
0000
0000
0300
0000
0000
2000
0000
0000
0000
0000
0000
0010
0000
0000
0000
0000
0000
3010
0000
0000
0000
0000
0000
0200
0000
0000
0000
0000
0000
0301
0000
1000
0000
0100
0000
0010
0000
0000
0000
0000
0000
0100
0000
0000
0000
0000
0000
,
0000
0000
0020
0000
0100
0000
0130
0000
0020
0000
0001
0030
2000
0000
3002
0000
,
0000
0000
0000
0003
0000
0000
2000
0000
0000
0000
0000
0000
0010
0000
0000
0000
0000
0000
3010
0000
0000
0000
0000
0000
0200
0000
0000
0000
0000
0000
0301
0000
1000
0000
0100
0000
0010
0000
0000
0000
0000
0000
0100
0000
0000
0000
0000
0000
,
0000
0000
0010
0000
0001
0100
0010
0100
0001
1000
0100
1000
0001
0000
0010
0000
,
0010
0000
0000
0000
0000
0000
0000
0000
0000
0000
0000
0000
0000
0000
0000
0000
0000
0000
0000
0000
0000
0000
0000
0000
0200
0000
0000
0000
0000
0000
0000
0000
0000
0000
0000
0000
0000
0000
0000
0000
0000
0000
0000
0000
0000
0000
0000
0000
1000
0000
0000
0000
0000
0000
0000
0000
0000
0000
0000
0000
0000
0000
0000
0000
0000
0000
0000
0000
0000
0000
0000
0000
1300
0000
0000
0000
0000
0000
0000
0000
0000
0000
0000
0000
0000
0000
0000
0000
0000
0000
0000
0000
0000
0000
0000
0000
0002
0000
0000
0000
0000
0000
0000
0000
0000
0000
0000
0000
0000
0000
0000
0000
0000
0000
0003
0000
0000
0000
0000
0000
0010
0000
0000
0000
0000
0000
0000
0000
0001
0000
0000
0000
0000
0000
0000
0000
1000
0000
0000
0000
0000
0000
0000
0000
0010
0000
0000
0000
0000
0000
0000
0000
0000
0000
0000
0000
0000
0000
0000
0000
0000
0000
0000
0000
0000
0000
0000
0000
0100
0000
0000
0000
0000
0000
0000
0000
0000
0000
0000
0000
0000
0000
0000
0000
0000
0000
0000
0000
0000
0000
0000
0000
,
0000
0000
0002
0000
0100
0003
0100
0001
0020
0000
0100
0030
2000
0000
3002
0000
,
0000
0000
0000
0000
0000
0000
0000
0000
0000
0000
0000
0000
0003
0000
0000
0000
0000
0000
0000
0000
0000
0000
0000
0000
0200
0000
0000
0000
0000
0000
0000
0000
0000
0000
0000
0000
0000
0000
0000
0000
0000
0000
0000
0000
0000
0000
0000
0000
0001
0000
0000
0000
0000
0000
0000
0000
0000
0000
0000
0000
0000
0000
0000
0000
0000
0000
0000
0000
0000
0000
0000
0000
0301
0000
0000
0000
0000
0000
0000
0000
0000
0000
0000
0000
0000
0000
0000
0000
0000
0000
0000
0000
0000
0000
0000
0000
2000
0000
0000
0000
0000
0000
0000
0000
0000
0000
0000
0000
0000
0000
0000
0000
0000
0000
3000
0000
0000
0000
0000
0000
0010
0000
0000
0000
0000
0000
0000
0000
1000
0000
0000
0000
0000
0000
0000
0000
0001
0000
0000
0000
0000
0000
0000
0000
0010
0000
0000
0000
0000
0000
0000
0000
0000
0000
0000
0000
0000
0000
0000
0000
0000
0000
0000
0000
0000
0000
0000
0000
0100
0000
0000
0000
0000
0000
0000
0000
0000
0000
0000
0000
0000
0000
0000
0000
0000
0000
0000
0000
0000
0000
0000
0000
,
0000
0020
0230
0320
0032
0203
0320
2030
,
0000
0000
0000
0000
0000
0000
0000
0000
0000
0000
0000
0000
3000
0000
0000
0000
0000
0000
0000
0000
0000
0000
0000
0000
0020
0000
0000
0000
0000
0000
0000
0000
0000
0000
0000
0000
0000
0000
0000
0000
0000
0000
0000
0000
0000
0000
0000
0000
1000
0000
0000
0000
0000
0000
0000
0000
0000
0000
0000
0000
0000
0000
0000
0000
0000
0000
0000
0000
0000
0000
0000
0000
1030
0000
0000
0000
0000
0000
0000
0000
0000
0000
0000
0000
0000
0000
0000
0000
0000
0000
0000
0000
0000
0000
0000
0000
0002
0000
0000
0000
0000
0000
0000
0000
0000
0000
0000
0000
0000
0000
0000
0000
0000
0000
0003
0000
0000
0000
0000
0000
0100
0000
0000
0000
0000
0000
0000
0000
0001
0000
0000
0000
0000
0000
0000
0000
1000
0000
0000
0000
0000
0000
0000
0000
0100
0000
0000
0000
0000
0000
0000
0000
0000
0000
0000
0000
0000
0000
0000
0000
0000
0000
0000
0000
0000
0000
0000
0000
0010
0000
0000
0000
0000
0000
0000
0000
0000
0000
0000
0000
0000
0000
0000
0000
0000
0000
0000
0000
0000
0000
0000
0000
,
0000
0000
0002
0000
0010
0000
0013
0000
0002
0000
1000
0003
0020
0000
0230
0000
,
0301
1000
0010
1000
0001
0100
0010
1000
0000
0000
0001
1000
0100
0010
0000
0000
,
0001
1000
0100
1000
0001
0010
0100
1000
0010
0100
0001
1000
0100
0000
0010
0001
,
1000
0002
0100
0103
0010
1000
0001
1000
,
0020
0100
0130
0002
1000
1003
0200
0320
,
0000
0030
0002
0000
1000
0000
1003
0000
0100
0000
0010
0000
0001
0000
0010
0000
,
0100
2000
3002
0203
0320
2030
3200
0320
,
0000
0030
0200
0000
1000
0000
1300
0000
0001
0000
0100
0000
0001
0000
1000
0000
,
0200
0010
0310
0002
1000
1003
0020
0230
,
0000
0300
0002
0000
1000
0000
1003
0000
0010
0000
0100
0000
0001
0000
0100
0000
,
0010
2000
3002
0023
0230
2300
3020
0230
,
0300
0002
0010
0013
0100
1000
0001
1000
,
0200
0010
0310
0002
1000
1003
0020
0230
,
0000
0300
0002
0000
1000
0000
1003
0000
0010
0000
0100
0000
0001
0000
0100
0000
,
0010
2000
3002
0023
0230
2300
3020
0230
,
0000
0300
0020
0000
1000
0000
1030
0000
0001
0000
0010
0000
0001
0000
1000
0000
,
0020
0100
0130
0002
1000
1003
0200
0320
,
0000
0030
0002
0000
1000
0000
1003
0000
0010
0000
0100
0000
0001
0000
1000
0000
,
0001
0020
0230
0320
0032
2003
3020
0130
,
1221
0330
0000
0000
1221
0330
0000
0000
,
1221
0330
0000
0000
2112
3003
0000
0000
,
1221
0330
0000
0000
1221
0330
0000
0000
,
M001
0100
M001
0100
M001
0100
M001
0100
,
0010
0000
1000
0000
0010
0000
0100
0001
0100
0000
0010
0000
1000
0000
0001
0000
,
0000
0000
0001
0000
1000
0000
0100
0000
0010
0000
0001
0000
1000
0000
0001
0010
,
0100
1000
0001
0100
0010
1000
0001
0010
0100
1000
0001
0010
0100
0010
0001
1000
,
0100
0010
0001
0100
0010
1000
0001
0100
0010
1000
0001
0010
0100
1000
0001
0100
,
0010
0000
1000
0000
0010
0000
0100
0001
0100
0000
0010
0000
1000
0000
0001
0000
,
0000
0000
0001
0000
1000
0000
0100
0000
0010
0000
0001
0000
1000
0000
0001
0010
,
0100
1000
0001
0100
0010
1000
0001
0010
0100
1000
0001
0010
0100
0010
0001
1000
,
0010
1000
0100
0010
0001
0100
0010
1000
0001
0100
0010
1000
0001
0010
0001
1000
,
0100
0000
1000
0000
0100
0000
0010
0001
0010
0000
0100
0000
1000
0000
0001
0000
,
0000
0000
0001
0000
1000
0000
0010
0000
0100
0000
0001
0000
1000
0000
0001
0100
,
0010
1000
0001
0010
0100
1000
0001
0100
0010
1000
0001
0100
0010
0100
0001
1000
,
0010
0100
0001
0010
0100
1000
0001
0010
0100
1000
0001
0100
0010
1000
0001
0010
,
0100
0000
1000
0000
0100
0000
0010
0001
0010
0000
0100
0000
1000
0000
0001
0000
,
0000
0001
1000
0010
0100
0001
1000
0001
,
0010
0000
0100
0000
0010
0000
0100
0000
0000
0000
0010
0001
1000
0000
0010
0000
,
0100
0000
0000
0010
0000
0000
1000
0000
0000
0001
0000
0000
4000
0000
0004
0000
0000
0000
0000
0000
0000
0000
0000
0000
0000
0000
0000
0000
0000
0000
0000
0000
0000
0000
0000
0000
3000
0000
0003
0000
0000
0000
0000
0000
0000
0000
0000
0000
,
0002
0000
0000
0000
1013
0000
1000
0001
0100
0000
0010
0000
0100
0000
0001
1000
,
0100
0000
0100
0000
0110
0000
0010
0100
2000
0000
3020
0000
0230
0000
0302
0000
,
1003
0000
0200
0000
0010
0300
0010
0001
2000
0000
0010
3000
0010
1000
0001
1000
,
0MMM
0000
0001
1000
0100
0000
0010
0100
2000
0000
3020
0000
0230
0000
0310
1000
,
0002
0000
0100
0003
0101
0000
0001
1000
0010
0000
0100
0000
0010
0000
1000
0001
,
0010
0000
0010
0000
0110
0000
0100
0010
0002
0000
0203
0000
0320
0000
2030
0000
,
3011
0000
0010
0100
1000
0000
1010
0000
0010
0100
0001
0000
0101
0000
0001
0000
,
1000
0001
0100
0001
1000
0000
0001
1000
0100
0000
1000
0001
0010
0001
1000
0000
,
0020
0000
0000
0000
0131
0000
0001
1000
0100
0000
0010
0000
0100
0000
1000
0001
,
0100
0000
0100
0000
0110
0000
0010
0100
0002
0000
0023
0000
0230
0000
2300
0000
,
3001
0000
0200
0000
0010
0300
0010
1000
0002
0000
0010
0003
0010
0001
1000
0001
,
MMM0
0000
1000
0001
0100
0000
0010
0100
0002
0000
0023
0000
0230
0000
0310
0001
,
2000
0000
0100
3000
1100
0000
1000
0001
0010
0000
0100
0000
0010
0000
0001
1000
,
0010
0000
0010
0000
0110
0000
0100
0010
2000
0000
3200
0000
0320
0000
0032
0000
,
1013
0000
0010
0100
0001
0000
0011
0000
0010
0000
0001
0000
1001
0000
1000
0000
,
0040
4000
0000
0000
0000
0000
0000
0000
0000
0000
0000
0000
0000
0000
0000
0000
0000
0000
0000
0000
0000
0030
3000
0000
,
0002
M000
0M00
00M0
0M03
M000
0M00
00M0
,
0M00
M000
0M00
00M0
0M00
M000
0M00
00M0
,
M000
0M00
M000
0M00
00M0
000M
0000
0000
;

//---------------dance-single - I. Pyles----------------
#NOTES:
     dance-single:
     I. Pyles:
     Hard:
     13:
     1.000,1.000,0.339,1.000,0.801,1079.000,57.000,236.000,57.000,14.000:




0000
0000
0000
0000
0000
0000
0000
0001
,
1200
0000
0000
0300
1100
0000
0100
0000
0020
0000
0032
0000
0203
0000
0320
0000
,
0000
0130
0001
0001
0020
0230
0320
0031
,
1020
0000
0000
0030
1010
0000
0010
0000
0200
0000
0302
0000
0023
0000
0230
0000
,
0000
0310
0001
0001
2000
3020
0000
0130
,
1002
0000
0000
0003
1001
0000
1000
0000
0020
0000
0230
0000
0302
0000
0023
0000
,
0000
0130
1000
1000
0002
0023
0032
1003
,
0201
0000
0000
0300
0101
0000
0100
0000
0020
0000
2030
0000
3002
0000
0023
0000
,
0000
0000
0130
0000
1000
0000
1000
0000
0001
0010
0001
0100
0010
1000
0001
1000
,
0002
0000
0000
0003
0011
0000
0010
0000
0200
0000
2300
0000
3020
0000
0230
0000
,
0000
0310
1000
1000
0200
0320
0230
1300
,
0201
0000
0000
0300
0101
0000
0100
0000
0020
0000
2030
0000
3200
0000
0320
0000
,
0000
0130
1000
1000
0002
0203
0000
0310
,
2001
0000
0000
3000
1001
0000
0001
0000
0200
0000
0320
0000
2030
0000
3200
0000
,
0000
0310
0001
0001
2000
3200
2300
3001
,
1020
0000
0000
0030
1010
0000
0010
0000
0200
0000
0302
0000
2003
0000
3200
0000
,
0310
0001
0100
0010
1000
0001
1000
0001
0010
0001
0100
0001
1000
0000
1000
0001
,
01M0
00M0
0000
0000
00M0
00M0
0000
0000
0000
0000
0000
0000
0000
0000
00M0
00M0
,
M000
M000
0000
0000
M000
M000
0000
0000
0000
0000
0001
0000
0000
0000
0101
0000
,
10M1
00M0
0000
0000
00M0
00M0
0000
0000
0000
0000
0000
0000
0000
0000
0M00
0M00
,
000M
000M
0000
0000
000M
000M
0000
0000
0000
0000
0000
0000
0000
0000
1000
0000
,
0001
0100
0001
0000
1000
0000
0001
0100
0001
0000
1000
0000
0001
0100
0001
0000
,
1000
0000
0001
0100
0001
0000
1000
0000
0001
0100
0001
0000
0010
0100
0010
0000
,
0001
0010
0001
0000
1000
0000
0001
0010
0001
0000
1000
0000
0001
0010
0001
0000
,
1000
0000
0001
0010
0001
0000
1000
0000
0100
0010
0100
0000
0010
0000
0011
0000
,
0020
0001
0031
2000
0001
3001
0020
0001
,
0031
2000
0001
3001
0100
0110
0000
1010
,
0020
1000
1030
0002
1000
1003
0020
1000
,
1030
0000
0002
0000
1000
0000
1003
0000
0100
0010
0100
0000
0010
0000
0011
0000
,
0020
0001
0031
2000
0001
3001
0020
0001
,
0031
2000
0001
3001
0100
0110
0000
1010
,
0010
0000
0000
0000
0010
0000
0100
0000
0100
0000
0010
0100
0001
0010
0001
1000
,
0001
0100
0010
1000
0001
0100
0010
1000
0001
0100
0010
1000
0100
1000
0001
0010
,
0200
0000
0000
0000
0311
0000
0001
1000
0100
0000
0010
0000
0100
0000
1000
0001
,
0100
0000
0100
0000
0110
0000
0010
0100
0002
0000
0023
0000
0230
0000
2300
0000
,
3001
0000
0200
0000
0010
0300
0010
1000
0002
0000
0010
0003
0010
0001
1000
0001
,
MMM0
0000
1000
0001
0100
0000
0010
0100
0002
0000
0023
0000
0230
0000
0310
0001
,
2000
0000
0100
3000
1100
0000
1000
0001
0010
0000
0100
0000
0010
0000
0001
1000
,
0010
0000
0010
0000
0110
0000
0100
0010
2000
0000
3200
0000
0320
0000
0032
0000
,
1013
0000
0010
0100
0001
0000
0011
0000
0010
0100
1000
0000
1100
0000
1000
0000
,
0001
1000
0100
1000
0001
0000
1000
0001
0100
0000
0001
1000
0010
1000
0001
0000
,
0020
0000
0000
0000
1130
0000
1000
0001
0100
0000
0010
0000
0100
0000
0001
1000
,
0100
0000
0100
0000
0110
0000
0010
0100
2000
0000
3020
0000
0230
0000
0302
0000
,
1003
0000
0200
0000
0010
0300
0010
0001
2000
0000
0010
3000
0010
1000
0001
1000
,
0MMM
0000
0001
1000
0100
0000
0010
0100
2000
0000
3020
0000
0230
0000
0310
1000
,
0002
0000
0100
0003
0101
0000
0001
1000
0010
0000
0100
0000
0010
0000
1000
0001
,
0010
0000
0010
0000
0110
0000
0100
0010
0002
0000
0203
0000
0320
0000
2030
0000
,
3011
0000
0010
0100
1000
0000
1010
0000
0010
0100
0001
0000
0101
0000
0001
0000
,
0010
0001
0100
0010
1000
0001
0100
0010
1000
0001
0010
0001
1000
0000
1000
0010
,
0100
0000
0000
0002
0000
0000
0010
0000
0000
0013
0000
0000
0200
0000
0000
1300
0001
0100
0010
0000
0000
0100
0000
0000
,
0000
0000
0020
0000
0100
0000
0130
0000
0020
0000
1000
0030
0002
0000
2003
0000
,
0000
0000
0000
3000
0000
0000
0002
0000
0000
0000
0000
0000
0010
0000
0000
0000
0000
0000
0013
0000
0000
0000
0000
0000
0200
0000
0000
0000
0000
0000
1300
0000
0001
0000
0100
0000
0010
0000
0000
0000
0000
0000
0100
0000
0000
0000
0000
0000
,
0000
0020
0230
0320
2030
3002
0023
0230
,
0000
0000
0000
0300
0000
0000
2000
0000
0000
0000
0000
0000
0010
0000
0000
0000
0000
0000
3010
0000
0000
0000
0000
0000
0200
0000
0000
0000
0000
0000
0301
0000
1000
0000
0100
0000
0010
0000
0000
0000
0000
0000
0100
0000
0000
0000
0000
0000
,
0000
0000
0020
0000
0100
0000
0130
0000
0020
0000
0001
0030
2000
0000
3002
0000
,
0000
0000
0000
0003
0000
0000
2000
0000
0000
0000
0000
0000
0010
0000
0000
0000
0000
0000
3010
0000
0000
0000
0000
0000
0200
0000
0000
0000
0000
0000
0301
0000
1000
0000
0100
0000
0010
0000
0000
0000
0000
0000
0100
0000
0000
0000
0000
0000
,
0000
0000
0010
0000
0001
0100
0010
0100
0001
1000
0100
1000
0001
0000
0010
0000
,
0010
0000
0000
0000
0000
0000
0000
0000
0000
0000
0000
0000
0000
0000
0000
0000
0000
0000
0000
0000
0000
0000
0000
0000
0200
0000
0000
0000
0000
0000
0000
0000
0000
0000
0000
0000
0000
0000
0000
0000
0000
0000
0000
0000
0000
0000
0000
0000
1000
0000
0000
0000
0000
0000
0000
0000
0000
0000
0000
0000
0000
0000
0000
0000
0000
0000
0000
0000
0000
0000
0000
0000
1300
0000
0000
0000
0000
0000
0000
0000
0000
0000
0000
0000
0000
0000
0000
0000
0000
0000
0000
0000
0000
0000
0000
0000
0002
0000
0000
0000
0000
0000
0000
0000
0000
0000
0000
0000
0000
0000
0000
0000
0000
0000
0003
0000
0000
0000
0000
0000
0010
0000
0000
0000
0000
0000
0000
0000
0001
0000
0000
0000
0000
0000
0000
0000
1000
0000
0000
0000
0000
0000
0000
0000
0010
0000
0000
0000
0000
0000
0000
0000
0000
0000
0000
0000
0000
0000
0000
0000
0000
0000
0000
0000
0000
0000
0000
0000
0100
0000
0000
0000
0000
0000
0000
0000
0000
0000
0000
0000
0000
0000
0000
0000
0000
0000
0000
0000
0000
0000
0000
0000
,
0000
0000
0002
0000
0100
0003
0100
0001
0020
0000
0100
0030
2000
0000
3002
0000
,
0000
0000
0000
0000
0000
0000
0000
0000
0000
0000
0000
0000
0003
0000
0000
0000
0000
0000
0000
0000
0000
0000
0000
0000
0200
0000
0000
0000
0000
0000
0000
0000
0000
0000
0000
0000
0000
0000
0000
0000
0000
0000
0000
0000
0000
0000
0000
0000
0001
0000
0000
0000
0000
0000
0000
0000
0000
0000
0000
0000
0000
0000
0000
0000
0000
0000
0000
0000
0000
0000
0000
0000
0301
0000
0000
0000
0000
0000
0000
0000
0000
0000
0000
0000
0000
0000
0000
0000
0000
0000
0000
0000
0000
0000
0000
0000
2000
0000
0000
0000
0000
0000
0000
0000
0000
0000
0000
0000
0000
0000
0000
0000
0000
0000
3000
0000
0000
0000
0000
0000
0010
0000
0000
0000
0000
0000
0000
0000
1000
0000
0000
0000
0000
0000
0000
0000
0001
0000
0000
0000
0000
0000
0000
0000
0010
0000
0000
0000
0000
0000
0000
0000
0000
0000
0000
0000
0000
0000
0000
0000
0000
0000
0000
0000
0000
0000
0000
0000
0100
0000
0000
0000
0000
0000
0000
0000
0000
0000
0000
0000
0000
0000
0000
0000
0000
0000
0000
0000
0000
0000
0000
0000
,
0000
0020
0230
0320
0032
0203
0320
2030
,
0000
0000
0000
0000
0000
0000
0000
0000
0000
0000
0000
0000
3000
0000
0000
0000
0000
0000
0000
0000
0000
0000
0000
0000
0020
0000
0000
0000
0000
0000
0000
0000
0000
0000
0000
0000
0000
0000
0000
0000
0000
0000
0000
0000
0000
0000
0000
0000
1000
0000
0000
0000
0000
0000
0000
0000
0000
0000
0000
0000
0000
0000
0000
0000
0000
0000
0000
0000
0000
0000
0000
0000
1030
0000
0000
0000
0000
0000
0000
0000
0000
0000
0000
0000
0000
0000
0000
0000
0000
0000
0000
0000
0000
0000
0000
0000
0002
0000
0000
0000
0000
0000
0000
0000
0000
0000
0000
0000
0000
0000
0000
0000
0000
0000
0003
0000
0000
0000
0000
0000
0100
0000
0000
0000
0000
0000
0000
0000
0001
0000
0000
0000
0000
0000
0000
0000
1000
0000
0000
0000
0000
0000
0000
0000
0100
0000
0000
0000
0000
0000
0000
0000
0000
0000
0000
0000
0000
0000
0000
0000
0000
0000
0000
0000
0000
0000
0000
0000
0010
0000
0000
0000
0000
0000
0000
0000
0000
0000
0000
0000
0000
0000
0000
0000
0000
0000
0000
0000
0000
0000
0000
0000
,
0000
0000
0002
0000
0010
0000
0013
0000
0002
0000
1000
0003
0020
0000
0230
0000
,
0301
1000
0010
1000
0001
0100
0010
1000
0000
0000
0001
1000
0100
0010
0000
0000
,
0001
1000
0100
1000
0001
0010
0100
1000
0010
0100
0001
1000
0100
0000
0010
0001
,
1000
0002
0100
0103
0010
1000
0001
1000
,
0020
0100
0130
0002
1000
1003
0200
0320
,
0000
0030
0002
0000
1000
0000
1003
0000
0100
0000
0010
0000
0001
0000
0010
0000
,
0100
2000
3002
0203
0320
2030
3200
0320
,
0000
0030
0200
0000
1000
0000
1300
0000
0001
0000
0100
0000
0001
0000
1000
0000
,
0200
0010
0310
0002
1000
1003
0020
0230
,
0000
0300
0002
0000
1000
0000
1003
0000
0010
0000
0100
0000
0001
0000
0100
0000
,
0010
2000
3002
0023
0230
2300
3020
0230
,
0300
0002
0010
0013
0100
1000
0001
1000
,
0200
0010
0310
0002
1000
1003
0020
0230
,
0000
0300
0002
0000
1000
0000
1003
0000
0010
0000
0100
0000
0001
0000
0100
0000
,
0010
2000
3002
0023
0230
2300
3020
0230
,
0000
0300
0020
0000
1000
0000
1030
0000
0001
0000
0010
0000
0001
0000
1000
0000
,
0020
0100
0130
0002
1000
1003
0200
0320
,
0000
0030
0002
0000
1000
0000
1003
0000
0010
0000
0100
0000
0001
0000
1000
0000
,
0001
0020
0230
0320
0032
2003
3020
0130
,
1221
0330
0000
0000
1221
0330
0000
0000
,
1221
0330
0000
0000
2112
3003
0000
0000
,
1221
0330
0000
0000
1221
0330
0000
0000
,
M001
0100
M001
0100
M001
0100
M001
0100
,
0010
1000
0001
0100
0010
1000
0001
0010
0100
1000
0001
0010
0001
0100
0010
1000
,
0001
1000
0010
0100
0001
0100
0010
1000
0001
1000
0010
0100
0001
0010
0100
0010
,
0001
1000
0010
0100
0010
1000
0100
0010
0001
1000
0100
1000
0001
0010
0100
1000
,
0010
1000
0001
0010
0100
0010
0001
0100
0010
1000
0001
0010
0100
1000
0001
1000
,
0010
1000
0001
0100
0010
1000
0001
0010
0100
1000
0001
0010
0001
0100
0010
1000
,
0001
1000
0010
0100
0001
0100
0010
1000
0001
1000
0010
0100
0001
0010
0100
1000
,
0010
0100
0001
0100
0010
1000
0001
1000
0100
1000
0001
0010
0100
0010
0001
1000
,
0010
1000
0100
0010
0001
0100
0010
1000
0001
0100
0010
1000
0001
0010
0001
1000
,
0010
1000
0001
0100
0010
1000
0001
0010
0100
1000
0001
0010
0001
0100
0010
1000
,
0001
1000
0010
0100
0001
0100
0010
1000
0001
1000
0010
0100
0001
0010
0100
0010
,
0001
1000
0010
0100
0010
1000
0100
0010
0001
1000
0100
1000
0001
0010
0100
1000
,
0010
1000
0001
0010
0100
0010
0001
0100
0010
1000
0001
0010
0100
1000
0001
1000
,
0010
1000
0001
0100
0010
1000
0001
0010
0100
1000
0001
0010
0001
0100
0010
1000
,
0001
1000
0010
0100
0001
0100
0010
1000
0001
0010
0100
0010
0001
0100
0010
1000
,
0010
0100
0001
0100
0010
1000
0001
1000
0100
0000
0010
0001
1000
0000
0010
0000
,
0100
0000
0000
0010
0000
0000
1000
0000
0000
0001
0000
0000
4000
0000
0004
0000
0000
0000
0000
0000
0000
0000
0000
0000
0000
0000
0000
0000
0000
0000
0000
0000
0000
0000
0000
0000
3000
0000
0003
0000
0000
0000
0000
0000
0000
0000
0000
0000
,
0002
0000
0000
0000
1013
0000
1000
0001
0100
0000
0010
0000
0100
0000
0001
1000
,
0100
0000
0100
0000
0110
0000
0010
0100
2000
0000
3020
0000
0230
0000
0302
0000
,
1003
0000
0200
0000
0010
0300
0010
0001
2000
0000
0010
3000
0010
1000
0001
1000
,
0MMM
0000
0001
1000
0100
0000
0010
0100
2000
0000
3020
0000
0230
0000
0310
1000
,
0002
0000
0100
0003
0101
0000
0001
1000
0010
0000
0100
0000
0010
0000
1000
0001
,
0010
0000
0010
0000
0110
0000
0100
0010
0002
0000
0203
0000
0320
0000
2030
0000
,
3011
0000
0010
0100
1000
0000
1010
0000
0010
0100
0001
0000
0101
0000
0001
0000
,
1000
0001
0100
0001
1000
0000
0001
1000
0100
0000
1000
0001
0010
0001
1000
0000
,
0020
0000
0000
0000
0131
0000
0001
1000
0100
0000
0010
0000
0100
0000
1000
0001
,
0100
0000
0100
0000
0110
0000
0010
0100
0002
0000
0023
0000
0230
0000
2300
0000
,
3001
0000
0200
0000
0010
0300
0010
1000
0002
0000
0010
0003
0010
0001
1000
0001
,
MMM0
0000
1000
0001
0100
0000
0010
0100
0002
0000
0023
0000
0230
0000
0310
0001
,
2000
0000
0100
3000
1100
0000
1000
0001
0010
0000
0100
0000
0010
0000
0001
1000
,
0010
0000
0010
0000
0110
0000
0100
0010
2000
0000
3200
0000
0320
0000
0032
0000
,
1013
0000
0010
0100
0001
0000
0011
0000
0010
0000
0001
0000
1001
0000
1000
0000
,
0040
4000
0000
0000
0000
0000
0000
0000
0000
0000
0000
0000
0000
0000
0000
0000
0000
0000
0000
0000
0000
0030
3000
0000
,
0002
M000
0M00
00M0
0M03
M000
0M00
00M0
,
0M00
M000
0M00
00M0
0M00
M000
0M00
00M0
,
M000
0M00
M000
0M00
00M0
000M
0000
0000
;

//---------------dance-single - I. Pyles----------------
#NOTES:
     dance-single:
     I. Pyles:
     Challenge:
     13:
     1.000,1.000,0.339,1.000,0.866,1117.000,57.000,236.000,57.000,14.000:





0000
0000
0000
0000
0000
0000
0000
0001
,
1200
0000
0000
0300
1100
0000
0100
0000
0020
0000
0032
0000
0203
0000
0320
0000
,
0000
0130
0001
0001
0020
0230
0320
0031
,
1020
0000
0000
0030
1010
0000
0010
0000
0200
0000
0302
0000
0023
0000
0230
0000
,
0000
0310
0001
0001
2000
3020
0000
0130
,
1002
0000
0000
0003
1001
0000
1000
0000
0020
0000
0230
0000
0302
0000
0023
0000
,
0000
0130
1000
1000
0002
0023
0032
1003
,
0201
0000
0000
0300
0101
0000
0100
0000
0020
0000
2030
0000
3002
0000
0023
0000
,
0000
0000
0130
0000
1000
0000
1000
0000
0001
0010
0001
0100
0010
1000
0001
1000
,
0002
0000
0000
0003
0011
0000
0010
0000
0200
0000
2300
0000
3020
0000
0230
0000
,
0000
0310
1000
1000
0200
0320
0230
1300
,
0201
0000
0000
0300
0101
0000
0100
0000
0020
0000
2030
0000
3200
0000
0320
0000
,
0000
0130
1000
1000
0002
0203
0000
0310
,
2001
0000
0000
3000
1001
0000
0001
0000
0200
0000
0320
0000
2030
0000
3200
0000
,
0000
0310
0001
0001
2000
3200
2300
3001
,
1020
0000
0000
0030
1010
0000
0010
0000
0200
0000
0302
0000
2003
0000
3200
0000
,
0310
0001
0100
0010
1000
0001
1000
0001
0010
0001
0100
0001
1000
0000
1000
0001
,
01M0
00M0
0000
0000
00M0
00M0
0000
0000
0000
0000
0000
0000
0000
0000
00M0
00M0
,
M000
M000
0000
0000
M000
M000
0000
0000
0000
0000
0001
0000
0000
0000
0101
0000
,
10M1
00M0
0000
0000
00M0
00M0
0000
0000
0000
0000
0000
0000
0000
0000
0M00
0M00
,
000M
000M
0000
0000
000M
000M
0000
0000
0000
0000
0000
0000
0000
0000
1000
0000
,
0001
0100
0001
0000
1000
0000
0001
0100
0001
0000
1000
0000
0001
0100
0001
0000
,
1000
0000
0001
0100
0001
0000
1000
0000
0001
0100
0001
0000
0010
0100
0010
0000
,
0001
0010
0001
0000
1000
0000
0001
0010
0001
0000
1000
0000
0001
0010
0001
0000
,
1000
0000
0001
0010
0001
0000
1000
0000
0100
0010
0100
0000
0010
0000
0011
0000
,
0020
0001
0031
2000
0001
3001
0020
0001
,
0031
2000
0001
3001
0100
0110
0000
1010
,
0020
1000
1030
0002
1000
1003
0020
1000
,
1030
0000
0002
0000
1000
0000
1003
0000
0100
0010
0100
0000
0010
0000
0011
0000
,
0020
0001
0031
2000
0001
3001
0020
0001
,
0031
2000
0001
3001
0100
0110
0000
1010
,
0010
0000
0000
0000
0010
0000
0100
0000
0100
0000
0010
0100
0001
0010
0001
1000
,
0001
0100
0010
1000
0001
0100
0010
1000
0001
0100
0010
1000
0100
1000
0001
0010
,
0200
0000
0000
0000
0311
0000
0001
1000
0100
0000
0010
0000
0100
0000
1000
0001
,
0100
0000
0100
0000
0110
0000
0010
0100
0002
0000
0023
0000
0230
0000
2300
0000
,
3001
0000
0200
0000
0010
0300
0010
1000
0002
0000
0010
0003
0010
0001
1000
0001
,
MMM0
0000
1000
0001
0100
0000
0010
0100
0002
0000
0023
0000
0230
0000
0310
0001
,
2000
0000
0100
3000
1100
0000
1000
0001
0010
0000
0100
0000
0010
0000
0001
1000
,
0010
0000
0010
0000
0110
0000
0100
0010
2000
0000
3200
0000
0320
0000
0032
0000
,
1013
0000
0010
0100
0001
0000
0011
0000
0010
0100
1000
0000
1100
0000
1000
0000
,
0001
1000
0100
1000
0001
0000
1000
0001
0100
0000
0001
1000
0010
1000
0001
0000
,
0020
0000
0000
0000
1130
0000
1000
0001
0100
0000
0010
0000
0100
0000
0001
1000
,
0100
0000
0100
0000
0110
0000
0010
0100
2000
0000
3020
0000
0230
0000
0302
0000
,
1003
0000
0200
0000
0010
0300
0010
0001
2000
0000
0010
3000
0010
1000
0001
1000
,
0MMM
0000
0001
1000
0100
0000
0010
0100
2000
0000
3020
0000
0230
0000
0310
1000
,
0002
0000
0100
0003
0101
0000
0001
1000
0010
0000
0100
0000
0010
0000
1000
0001
,
0010
0000
0010
0000
0110
0000
0100
0010
0002
0000
0203
0000
0320
0000
2030
0000
,
3011
0000
0010
0100
1000
0000
1010
0000
0010
0100
0001
0000
0101
0000
0001
0000
,
0010
0001
0100
0010
1000
0001
0100
0010
1000
0001
0010
0001
1000
0000
1000
0010
,
0100
0000
0000
0002
0000
0000
0010
0000
0000
0013
0000
0000
0200
0000
0000
1300
0001
0100
0010
0000
0000
0100
0000
0000
,
0000
0000
0020
0000
0100
0000
0130
0000
0020
0000
1000
0030
0002
0000
2003
0000
,
0000
0000
0000
3000
0000
0000
0002
0000
0000
0000
0000
0000
0010
0000
0000
0000
0000
0000
0013
0000
0000
0000
0000
0000
0200
0000
0000
0000
0000
0000
1300
0000
0001
0000
0100
0000
0010
0000
0000
0000
0000
0000
0100
0000
0000
0000
0000
0000
,
0000
0020
0230
0320
2030
3002
0023
0230
,
0000
0000
0000
0300
0000
0000
2000
0000
0000
0000
0000
0000
0010
0000
0000
0000
0000
0000
3010
0000
0000
0000
0000
0000
0200
0000
0000
0000
0000
0000
0301
0000
1000
0000
0100
0000
0010
0000
0000
0000
0000
0000
0100
0000
0000
0000
0000
0000
,
0000
0000
0020
0000
0100
0000
0130
0000
0020
0000
0001
0030
2000
0000
3002
0000
,
0000
0000
0000
0003
0000
0000
2000
0000
0000
0000
0000
0000
0010
0000
0000
0000
0000
0000
3010
0000
0000
0000
0000
0000
0200
0000
0000
0000
0000
0000
0301
0000
1000
0000
0100
0000
0010
0000
0000
0000
0000
0000
0100
0000
0000
0000
0000
0000
,
0000
0000
0010
0000
0001
0100
0010
0100
0001
1000
0100
1000
0001
0000
0010
0000
,
0010
0000
0000
0000
0000
0000
0000
0000
0000
0000
0000
0000
0000
0000
0000
0000
0000
0000
0000
0000
0000
0000
0000
0000
0200
0000
0000
0000
0000
0000
0000
0000
0000
0000
0000
0000
0000
0000
0000
0000
0000
0000
0000
0000
0000
0000
0000
0000
1000
0000
0000
0000
0000
0000
0000
0000
0000
0000
0000
0000
0000
0000
0000
0000
0000
0000
0000
0000
0000
0000
0000
0000
1300
0000
0000
0000
0000
0000
0000
0000
0000
0000
0000
0000
0000
0000
0000
0000
0000
0000
0000
0000
0000
0000
0000
0000
0002
0000
0000
0000
0000
0000
0000
0000
0000
0000
0000
0000
0000
0000
0000
0000
0000
0000
0003
0000
0000
0000
0000
0000
0010
0000
0000
0000
0000
0000
0000
0000
0001
0000
0000
0000
0000
0000
0000
0000
1000
0000
0000
0000
0000
0000
0000
0000
0010
0000
0000
0000
0000
0000
0000
0000
0000
0000
0000
0000
0000
0000
0000
0000
0000
0000
0000
0000
0000
0000
0000
0000
0100
0000
0000
0000
0000
0000
0000
0000
0000
0000
0000
0000
0000
0000
0000
0000
0000
0000
0000
0000
0000
0000
0000
0000
,
0000
0000
0002
0000
0100
0003
0100
0001
0020
0000
0100
0030
2000
0000
3002
0000
,
0000
0000
0000
0000
0000
0000
0000
0000
0000
0000
0000
0000
0003
0000
0000
0000
0000
0000
0000
0000
0000
0000
0000
0000
0200
0000
0000
0000
0000
0000
0000
0000
0000
0000
0000
0000
0000
0000
0000
0000
0000
0000
0000
0000
0000
0000
0000
0000
0001
0000
0000
0000
0000
0000
0000
0000
0000
0000
0000
0000
0000
0000
0000
0000
0000
0000
0000
0000
0000
0000
0000
0000
0301
0000
0000
0000
0000
0000
0000
0000
0000
0000
0000
0000
0000
0000
0000
0000
0000
0000
0000
0000
0000
0000
0000
0000
2000
0000
0000
0000
0000
0000
0000
0000
0000
0000
0000
0000
0000
0000
0000
0000
0000
0000
3000
0000
0000
0000
0000
0000
0010
0000
0000
0000
0000
0000
0000
0000
1000
0000
0000
0000
0000
0000
0000
0000
0001
0000
0000
0000
0000
0000
0000
0000
0010
0000
0000
0000
0000
0000
0000
0000
0000
0000
0000
0000
0000
0000
0000
0000
0000
0000
0000
0000
0000
0000
0000
0000
0100
0000
0000
0000
0000
0000
0000
0000
0000
0000
0000
0000
0000
0000
0000
0000
0000
0000
0000
0000
0000
0000
0000
0000
,
0000
0020
0230
0320
0032
0203
0320
2030
,
0000
0000
0000
0000
0000
0000
0000
0000
0000
0000
0000
0000
3000
0000
0000
0000
0000
0000
0000
0000
0000
0000
0000
0000
0020
0000
0000
0000
0000
0000
0000
0000
0000
0000
0000
0000
0000
0000
0000
0000
0000
0000
0000
0000
0000
0000
0000
0000
1000
0000
0000
0000
0000
0000
0000
0000
0000
0000
0000
0000
0000
0000
0000
0000
0000
0000
0000
0000
0000
0000
0000
0000
1030
0000
0000
0000
0000
0000
0000
0000
0000
0000
0000
0000
0000
0000
0000
0000
0000
0000
0000
0000
0000
0000
0000
0000
0002
0000
0000
0000
0000
0000
0000
0000
0000
0000
0000
0000
0000
0000
0000
0000
0000
0000
0003
0000
0000
0000
0000
0000
0100
0000
0000
0000
0000
0000
0000
0000
0001
0000
0000
0000
0000
0000
0000
0000
1000
0000
0000
0000
0000
0000
0000
0000
0100
0000
0000
0000
0000
0000
0000
0000
0000
0000
0000
0000
0000
0000
0000
0000
0000
0000
0000
0000
0000
0000
0000
0000
0010
0000
0000
0000
0000
0000
0000
0000
0000
0000
0000
0000
0000
0000
0000
0000
0000
0000
0000
0000
0000
0000
0000
0000
,
0000
0000
0002
0000
0010
0000
0013
0000
0002
0000
1000
0003
0020
0000
0230
0000
,
0301
1000
0010
1000
0001
0100
0010
1000
0000
0000
0001
1000
0100
0010
0000
0000
,
0001
1000
0100
1000
0001
0010
0100
1000
0010
0100
0001
1000
0100
0000
0010
0001
,
1000
0002
0100
0103
0010
1000
0001
1000
,
0020
0100
0130
0002
1000
1003
0200
0320
,
0000
0030
0002
0000
1000
0000
1003
0000
0100
0000
0010
0000
0001
0000
0010
0000
,
0100
2000
3002
0203
0320
2030
3200
0320
,
0000
0030
0200
0000
1000
0000
1300
0000
0001
0000
0100
0000
0001
0000
1000
0000
,
0200
0010
0310
0002
1000
1003
0020
0230
,
0000
0300
0002
0000
1000
0000
1003
0000
0010
0000
0100
0000
0001
0000
0100
0000
,
0010
2000
3002
0023
0230
2300
3020
0230
,
0300
0002
0010
0013
0100
1000
0001
1000
,
0200
0010
0310
0002
1000
1003
0020
0230
,
0000
0300
0002
0000
1000
0000
1003
0000
0010
0000
0100
0000
0001
0000
0100
0000
,
0010
2000
3002
0023
0230
2300
3020
0230
,
0000
0300
0020
0000
1000
0000
1030
0000
0001
0000
0010
0000
0001
0000
1000
0000
,
0020
0100
0130
0002
1000
1003
0200
0320
,
0000
0030
0002
0000
1000
0000
1003
0000
0010
0000
0100
0000
0001
0000
1000
0000
,
0001
0020
0230
0320
0032
2003
3020
0130
,
1221
0330
0000
0000
1221
0330
0000
0000
,
1221
0330
0000
0000
2112
3003
0000
0000
,
1221
0330
0000
0000
1221
0330
0000
0000
,
M001
0100
M001
0100
M001
0100
M001
0100
,
0010
1000
0001
0100
0010
1000
0001
0010
0100
1000
0001
0010
0001
0100
0010
1000
,
0001
1000
0010
0100
0001
0100
0010
1000
0001
1000
0010
0100
0001
0010
0100
0010
,
0001
1000
0010
0100
0010
1000
0100
0010
0001
1000
0100
1000
0001
0010
0100
1000
,
0010
1000
0001
0010
0100
0010
0001
0100
0010
1000
0001
0010
0100
1000
0001
1000
,
0010
1000
0001
0100
0010
1000
0001
0010
0100
1000
0001
0010
0001
0100
0010
1000
,
0001
1000
0010
0100
0001
0100
0010
1000
0001
1000
0010
0100
0001
0010
0100
1000
,
0010
0100
0001
0100
0010
1000
0001
1000
0100
1000
0001
0010
0100
0010
0001
1000
,
0010
1000
0100
0010
0001
0100
0010
1000
0001
0100
0010
1000
0001
0010
0001
1000
,
0010
1000
0001
0100
0010
1000
0001
0010
0100
1000
0001
0010
0001
0100
0010
1000
,
0001
1000
0010
0100
0001
0100
0010
1000
0001
1000
0010
0100
0001
0010
0100
0010
,
0001
1000
0010
0100
0010
1000
0100
0010
0001
1000
0100
1000
0001
0010
0100
1000
,
0010
1000
0001
0010
0100
0010
0001
0100
0010
1000
0001
0010
0100
1000
0001
1000
,
0010
1000
0001
0100
0010
1000
0001
0010
0100
1000
0001
0010
0001
0100
0010
1000
,
0001
1000
0010
0100
0001
0100
0010
1000
0001
0010
0100
0010
0001
0100
0010
1000
,
0010
0100
0001
0100
0010
1000
0001
1000
0100
0000
0010
0001
1000
0000
0010
0000
,
0100
0000
0000
0010
0000
0000
1000
0000
0000
0001
0000
0000
1000
0000
0010
0000
0100
0000
0001
0000
1000
0000
0001
0000
1000
0000
0010
0000
0100
0000
0001
0000
1000
0000
0001
0000
0100
0000
0000
0000
0000
0000
0010
0000
0000
0000
0000
0000
,
0200
0000
0000
0000
1310
0000
1000
0001
0100
0000
0010
0000
0100
0000
0001
1000
,
0100
0000
0100
0000
0110
0000
0010
0100
2000
0000
3020
0000
0230
0000
0302
0000
,
1003
0000
0200
0000
0010
0300
0010
0001
2000
0000
0010
3000
0010
1000
0001
1000
,
0MMM
0000
0001
1000
0100
0000
0010
0100
2000
0000
3020
0000
0230
0000
0310
1000
,
0002
0000
0100
0003
0101
0000
0001
1000
0010
0000
0100
0000
0010
0000
1000
0001
,
0010
0000
0010
0000
0110
0000
0100
0010
0002
0000
0203
0000
0320
0000
2030
0000
,
3011
0000
0010
0100
1000
0000
1010
0000
0010
0100
0001
0000
0101
0000
0001
0000
,
1000
0001
0100
0001
1000
0000
0001
1000
0100
0000
1000
0001
0010
0001
1000
0000
,
0020
0000
0000
0000
0131
0000
0001
1000
0100
0000
0010
0000
0100
0000
1000
0001
,
0100
0000
0100
0000
0110
0000
0010
0100
0002
0000
0023
0000
0230
0000
2300
0000
,
3001
0000
0200
0000
0010
0300
0010
1000
0002
0000
0010
0003
0010
0001
1000
0001
,
MMM0
0000
1000
0001
0100
0000
0010
0100
0002
0000
0023
0000
0230
0000
0310
0001
,
2000
0000
0100
3000
1100
0000
1000
0001
0010
0000
0100
0000
0010
0000
0001
1000
,
0010
0000
0010
0000
0110
0000
0100
0010
2000
0000
3200
0000
0320
0000
0032
0000
,
1013
0000
0010
0100
0001
0000
0011
0000
0010
0000
0001
0000
1001
0000
1000
0000
,
0010
0100
0001
1000
0001
1000
0010
0100
0001
0100
0001
1000
0010
0100
0001
1000
0001
1000
0010
0100
0001
1000
0010
0100
,
0002
M000
0M00
00M0
0M03
M000
0M00
00M0
,
0M00
M000
0M00
00M0
0M00
M000
0M00
00M0
,
M000
0M00
M000
0M00
00M0
000M
0000
0000
;
