#TITLE:INJECTION OF LOVE;
#SUBTITLE:;
#ARTIST:Shintani Akira;
#TITLETRANSLIT:;
#SUBTITLETRANSLIT:;
#ARTISTTRANSLIT:;
#CREDIT:;
#BANNER:injection_of_love-banner.png;
#BACKGROUND:injection_of_love-bg.png;
#LYRICSPATH:;
#CDTITLE:!eggmanTitle.png;
#MUSIC:Beatmania IIDX RED 11th Style - [ERECTRIC CABARET] Shintani Akira - INJECTION OF LOVE.mp3;
#OFFSET:-0.100;
#SAMPLESTART:37.740;
#SAMPLELENGTH:19.000;
#SELECTABLE:YES;
#BPMS:0.000=160.000;
#STOPS:;
#BGCHANGES:;
// cache tags:
#FIRSTBEAT:0.000;
#LASTBEAT:283.667;
#SONGFILENAME:Songs/Ace Megapack/INJECTION OF LOVE/InjectionOfLove.sm;
#HASMUSIC:1;
#HASBANNER:1;
#MUSICLENGTH:108.728;
// end cache tags

//---------------dance-single - ----------------
#NOTES:
     dance-single:
     :
     Hard:
     9:
     0.731,0.620,0.892,0.000,0.920,459.000,97.000,0.000,0.000,0.000:
1001
0000
0000
1001
0000
0000
1000
0100
0010
0001
1000
0010
,
0100
0000
0001
0000
,
1100
0000
0000
1100
0000
0000
0010
0100
1000
0010
0100
0001
,
0010
0000
0000
0000
0000
0000
0110
0000
0001
0000
1000
0000
,
1001
0000
0000
1100
0000
0000
1000
0100
0010
0001
1000
0010
,
0100
0000
0000
0001
0000
0000
0101
0000
0010
1000
0001
0000
,
1001
0000
0000
1100
0000
0000
0010
0100
1000
0010
1000
0100
,
0010
0000
0000
0010
0000
0000
0011
0000
0100
1000
0010
0000
,
0101
0000
0000
0010
1000
0001
0010
0100
0010
0001
1000
0010
,
0000
0000
0000
0100
0010
0100
0001
0000
1000
0100
0010
0000
,
0001
0000
0000
1000
0010
1000
0100
0010
0001
1000
0010
0100
,
0001
0000
0000
0101
0000
0100
0001
0000
0000
0000
0000
0000
,
1010
0000
0000
1001
0000
0000
1000
0000
0001
1000
0000
0000
,
1010
0000
0000
0101
0000
0000
0001
0000
0010
0100
0000
0000
,
0110
0000
0000
1100
0000
0000
1000
0000
0010
0100
0000
0000
,
1010
0000
0000
1001
0000
0000
1000
0000
0100
0010
0000
0001
,
0100
0000
0010
0100
0000
0101
0000
0000
0010
1000
0000
0100
,
0010
0000
0001
0100
0000
0101
0000
0000
0010
1000
0000
0100
,
0010
0000
0100
1000
0000
1001
0000
0000
0001
0100
0000
0010
,
0100
0000
0001
1000
0000
0100
0010
0000
0001
1000
0010
0100
,
0001
0000
0000
0101
0000
0000
1010
0000
0100
0001
0010
0100
,
1000
0000
0000
0001
0000
0000
1000
0000
0010
0100
0000
0000
,
0101
0000
0000
0110
0000
0000
1010
0000
0010
1000
0100
1000
,
0001
0000
0000
0001
0000
0000
1001
0000
0000
1000
0000
0010
,
0100
0000
0001
1000
0000
0100
0010
0000
0001
0100
0000
0010
,
1000
0000
0100
0010
0000
0100
1000
0000
0010
0100
0000
0001
,
1000
0000
0100
0010
0000
0001
0100
0000
0010
0100
0000
0001
,
1000
0000
0100
0010
0000
0001
1000
0000
0010
1000
0100
0010
,
0001
0000
0000
1001
0000
0000
1000
0000
0000
1010
0000
0100
,
0001
0010
0011
0000
,
1001
0000
0000
1100
0000
0000
0100
0000
0000
0110
0000
0001
,
1000
0000
0000
0000
0000
0000
0010
0000
0000
0000
0000
0100
0001
0000
0000
0000
0000
0000
0000
0000
0000
0000
0000
0000
,
0101
0000
0000
1010
0000
0000
1100
0000
0000
0011
0000
0100
,
1000
0000
0000
0010
0000
0100
0001
0000
0000
0000
0000
0000
,
1001
1100
0011
1001
,
1000
0000
0010
0100
0000
0001
1000
0000
0000
1001
0000
0100
,
0010
0000
0000
0011
0000
0100
1000
0000
0000
0010
0100
0001
,
1000
0000
0000
0100
0010
0001
1000
0000
0000
0000
0000
0000
,
1100
0011
1001
1010
,
0101
0011
0110
1100
,
1001
0101
0110
1010
,
1100
0110
0011
1001
,
1100
0000
0010
0100
0000
1000
0010
0000
0100
0001
0000
0010
,
0001
0000
0100
0010
0000
1000
0100
0000
0010
0100
0000
1000
,
0001
0000
0100
0010
0000
0110
0000
0000
0001
1000
0100
0010
,
0000
0000
0001
1000
0000
0010
0100
0001
1000
0100
0010
0001
,
1000
1001
1010
1001
,
1100
0110
0011
1001
,
0101
0110
1010
1100
,
0110
0000
0001
1000
0000
0000
0110
0000
0001
1000
0000
0000
,
1001
0000
0010
0100
0000
0001
1000
0000
0100
0010
0000
0001
,
0100
0000
0010
0100
0000
0001
1000
0000
0100
0010
0000
0001
,
0100
0000
0010
1000
0000
1010
0000
0000
0100
0001
0010
0100
,
0000
0000
1000
0010
0000
0100
0001
0010
0100
1000
0001
0010
,
0100
0000
0000
0110
0000
0000
1000
0000
0010
0100
0000
0101
,
0000
0000
0000
1001
0000
0000
1000
0000
0100
0010
0000
0110
,
0000
0000
0000
0011
0000
0000
0001
0000
0000
1001
0000
1000
,
0010
1010
0101
0011
,
1001
0000
0010
0100
0000
0001
1000
0000
0100
1000
0000
0010
,
0100
0000
0001
0010
0000
0100
1000
0000
0001
1000
0000
0010
,
0100
0000
0001
0010
0000
0100
0010
0000
0001
1000
0000
0010
,
0100
0000
0001
1000
0000
0100
0010
0000
0000
0110
0000
0000
,
0000
0001
0010
0100
1000
0001
0010
0000
0000
0000
0000
0000
,
1000
0000
0000
1010
0000
0100
0001
0010
0100
1000
0001
0010
,
0000
0000
0100
1000
0000
0010
0100
0000
0000
0101
0000
0000
,
0010
0000
0000
1010
0000
0100
0001
0010
0100
1000
0010
0100
,
0000
0000
0001
1000
0000
0100
0010
0000
0100
1000
0001
0000
,
1001
0000
0000
0101
0000
0010
0100
0001
1000
0100
0010
0100
,
0000
0000
1000
0010
0000
0100
0001
0000
0010
0100
1000
0000
,
1001
0000
0000
0101
0000
0010
0100
0001
0010
0100
0010
0001
,
0000
1000
0010
0100
0001
0010
0100
0010
0001
1000
0010
0100
;
