#TITLE:E.P.M;
#SUBTITLE:;
#ARTIST:Dragonforce;
#TITLETRANSLIT:;
#SUBTITLETRANSLIT:;
#ARTISTTRANSLIT:;
#CREDIT:B. Abear;
#BANNER:Bn-EPM.png;
#BACKGROUND:Bg-EPM.png;
#LYRICSPATH:;
#CDTITLE:;
#MUSIC:E.P.M..ogg;
#OFFSET:-0.576;
#SAMPLESTART:25.179;
#SAMPLELENGTH:21.500;
#SELECTABLE:YES;
#BPMS:0.000=145.000,48.000=190.000,113.000=95.000,115.000=190.000;
#STOPS:48.000=4.454
,1295.000=0.947
;
#BGCHANGES:;
// cache tags:
#FIRSTBEAT:16.000;
#LASTBEAT:1364.000;
#SONGFILENAME:Songs/Dragonforce/E.P.M/E.P.M.sm;
#HASMUSIC:1;
#HASBANNER:1;
#MUSICLENGTH:444.421;
// end cache tags

//---------------dance-single - B. Abear----------------
#NOTES:
     dance-single:
     B. Abear:
     Challenge:
     14:
     1.000,1.000,0.511,0.540,1.000,3218.000,227.000,240.000,67.000,6.000:



0000
0000
0000
0000
,
0000
0000
0000
0000
,
0000
0000
0000
0000
,
0000
0000
0000
0000
,
1000
0010
0100
0001
0000
1000
0100
0010
,
0000
0100
1000
0001
0000
0100
0010
0100
,
0001
1000
0100
0010
0000
0001
1000
0001
,
0000
0100
0010
1000
0000
0001
1000
0010
,
0100
0001
0010
0100
0000
1000
0001
0100
,
0000
0010
1000
0100
0000
0010
0001
1000
,
0100
1000
0001
0100
0000
0010
0100
0001
,
0100
1000
0100
0001
1000
0100
0010
0001
,
MMM0
0000
1000
0010
0100
0002
0000
1003
,
0100
0020
0000
0130
1000
0002
0000
0103
,
0010
1000
0001
0010
0001
0200
0000
0310
,
1000
0000
0002
0000
0000
0000
0013
0000
0100
0000
2000
0000
0000
0000
3001
0100
,
0010
1000
0001
0010
0100
0000
1000
0000
0001
0000
0200
0000
0000
0000
0310
0000
,
1000
0002
0000
0013
0100
2000
0000
3001
,
0010
0100
0010
0001
0010
1000
0010
0100
,
0010
0000
0001
0000
1000
0010
0100
0001
1000
0010
0100
0001
2000
0000
3200
0000
,
0340
0000
1130
1001
0101
0210
0000
1310
,
1001
0021
0000
1130
0110
1200
0000
0311
,
1001
0101
0110
1010
1001
0120
0000
0131
,
1100
0120
0000
1031
0101
2001
0000
3011
,
1001
0000
0101
0000
0100
0010
1000
0001
0010
0001
1000
0100
0010
0100
1000
0001
,
0100
0010
0100
0001
1000
0000
0100
0000
1000
0000
0001
0000
0010
0000
0100
0000
,
2000
0000
3010
0000
0100
0001
1000
0100
0010
0001
1000
0001
0100
0010
1000
0100
,
1000
0010
1000
0001
0100
0010
0100
0010
1000
0001
1000
0001
0010
0001
0010
0001
,
1000
0001
1000
0001
0400
0000
0000
0000
0000
0000
0000
0000
0310
1000
0001
0100
,
0001
0100
0010
1000
0001
0100
0001
0100
0010
1000
0010
1000
0100
0000
0100
0000
,
0010
0010
0001
0001
1000
1000
0010
0010
,
0100
0100
0101
1001
1100
0110
0011
0010
,
0100
0100
1000
1000
0001
0001
0100
0100
,
0010
0010
0100
0100
0001
1001
1100
0100
,
0010
0010
0001
0001
1000
1000
0100
0100
,
1000
1000
1010
0110
0101
1001
1100
0100
,
0010
0010
0001
0001
1000
1000
0001
0001
,
2002
0000
3003
0000
0202
0000
0303
0000
0220
0000
0330
0000
0010
1000
0001
1000
,
0100
0010
0100
1000
0001
0100
0001
0100
0010
1000
0002
0000
0000
0000
2003
0000
,
0000
0000
3001
0000
0100
0000
0010
0000
0010
0000
0100
0000
0001
1000
0100
0010
,
0001
1000
0001
0100
0010
1000
0001
1000
0100
0010
0002
0000
0000
0000
2003
0000
,
0000
0000
3010
0000
0100
0000
0001
0000
1000
0000
0100
0000
2000
0000
3010
0100
,
0001
1000
0200
0000
1300
0001
0100
0010
2000
0000
3010
0100
0001
1000
0002
0000
,
1003
0100
0010
0001
1000
0000
0001
0000
0100
0000
0010
0000
1000
0001
1000
0100
,
0010
0001
1000
0010
0100
0001
0100
0001
1000
0100
1000
0000
1100
0000
0000
0000
,
1001
0000
0000
0000
0101
0000
0000
0000
1001
0000
0000
0000
0001
1000
0100
0010
,
0001
1000
0010
1000
0001
0100
0001
1000
0100
0010
0001
0010
0100
1000
0001
0100
,
0010
1000
0001
0010
0100
1000
0001
0100
0010
1000
0001
0000
1000
0100
1000
0010
,
0100
0001
0100
0010
2000
0000
3001
0010
0100
1000
0001
0100
0020
0000
0130
0001
,
1000
0100
0010
0001
2000
0000
3001
0000
0000
0000
0100
0000
0010
1000
0001
0010
,
0100
1000
0100
1000
0001
0010
0100
1000
0001
0100
0010
1000
0001
1000
0001
0010
,
0100
1000
0001
0100
0010
1000
0010
0100
0001
1000
0100
0010
0001
0100
0001
0100
,
0010
0100
0010
0100
0001
1000
0001
1000
0100
1000
0100
1000
0001
0010
0001
0010
,
0100
1000
0100
1000
0001
0100
0001
0100
0010
1000
0100
0010
0004
0000
0000
0000
,
0000
0000
0000
4003
,
0000
3040
0000
0130
,
0001
0100
0001
0000
1000
0000
0100
0000
0010
0001
0010
0000
0100
0000
1000
0000
,
0001
1000
0001
0000
0100
0000
0010
0000
1000
0010
1000
0000
0001
1000
0100
0010
,
0001
1000
0001
0100
0010
1000
0001
0010
0100
1000
0001
0100
0010
1000
0001
1000
,
0010
0100
0001
0100
0001
1000
0100
0010
0100
1000
0001
1000
0001
0000
0100
0000
,
0010
0100
0010
0000
0100
0000
0001
0000
1000
0100
1000
0000
0002
0000
0000
0000
,
0000
0203
0000
0000
0320
0000
2030
3100
,
0100
0020
0130
0100
2000
3001
0200
0310
,
0010
2000
3001
0001
0020
0130
2000
3001
,
0001
0200
0310
0010
2000
3100
0020
0130
,
0100
0020
0031
0001
1000
1000
0200
0010
,
0310
0002
0100
0103
0020
0130
0002
0010
,
0013
0200
1000
1300
0020
0130
1010
0100
,
0011
1000
0110
0001
1010
0100
0011
1010
,
0000
1100
0101
0000
1001
0110
2000
0000
,
3100
0011
0000
0001
0101
0000
0000
0100
,
0110
0000
0010
1000
1100
0000
0110
0000
,
0010
1001
0000
0001
0101
0000
0000
0100
,
0110
0000
0010
0100
0101
0000
1001
0000
,
1000
0011
0000
0001
1001
0000
0000
1000
,
1010
0000
1000
0100
0110
0000
0011
0000
,
0001
0000
1010
0000
0000
0000
1000
0000
1100
0000
0000
0000
0100
0010
0001
1000
,
0001
1000
0100
0010
0001
1000
0001
1000
0010
0100
0001
1000
0002
0000
0003
0000
,
1000
0101
0000
0001
0011
0000
0000
0010
,
0110
0000
0100
1000
1001
0000
0101
0000
,
0100
1010
0000
0010
0110
0000
0000
0100
,
0101
0000
0001
1000
1100
0100
0110
0000
,
0001
1100
0000
0100
0110
0000
0010
0000
,
0011
0000
0001
1100
0001
1100
0101
1000
,
0010
0101
1000
0010
0101
1100
4004
0000
,
0000
0000
0000
0000
0000
0000
0000
0000
3003
0000
0000
0000
1000
0001
1000
0100
,
0010
0001
2000
0000
3010
0100
0001
1000
0100
0010
0001
1000
0002
0000
0103
0010
,
1000
0010
2000
0000
3001
0010
0001
1000
0100
1000
0001
0010
0100
1000
0100
1000
,
0100
1000
0100
1000
0100
1000
0100
1000
0100
1000
0100
1000
0001
0000
000M
0000
,
0100
0000
0M00
0000
0010
0000
00M0
0000
1000
0001
1000
0001
0200
0000
0310
1000
,
0001
1000
0200
0000
0310
0001
1000
0100
1000
0001
0100
0010
2000
0000
3010
0100
,
0001
1000
0002
0000
1003
0100
0010
0001
1000
0100
0010
0001
1000
0010
0100
0001
,
0000
1000
0001
0000
0100
0001
0100
0001
1000
0010
1000
0010
1000
0100
0010
0001
,
1000
0100
0010
0001
1000
0010
0100
0001
0020
0000
0130
0000
1000
0010
1000
0001
,
0010
0100
1000
0100
1000
0001
0100
0010
1000
0001
0010
0001
1000
0100
0010
0001
,
1000
0010
0100
0001
0100
0010
1000
0001
0010
0100
0010
0001
1000
0001
1000
0010
,
0100
0001
1000
0100
0010
0100
0010
0001
1000
0001
0100
0010
1000
0000
M000
0000
,
0001
000M
1000
M000
0100
0M00
M11M
0000
,
0011
1001
1010
M1M1
,
0110
0000
0000
0000
1010
0000
0000
0000
1100
0000
0000
0000
0100
0010
0001
1000
,
0001
1000
0010
0100
0001
1000
0001
1000
0010
0100
0010
0100
0001
0000
000M
0000
,
1000
M000
0010
00M0
1000
M000
0100
0010
,
0001
0010
0001
0000
1000
0000
0010
0000
0100
0010
0100
0000
0001
0000
1000
0000
,
0100
1000
0100
0000
0010
0000
0001
0000
1000
0010
1000
0000
0001
0000
1000
0000
,
0100
0010
0100
0000
0010
0000
0001
0000
1000
0010
1000
0000
0001
0000
0100
0000
,
0010
0100
0010
0000
0100
0000
0001
0000
0101
0000
1001
0000
1000
0000
0100
0000
,
0010
0100
0010
0000
0100
0000
1000
0000
0001
0100
0001
0000
1000
0000
0010
0000
,
1000
0001
1000
0000
0001
0000
0010
0000
0100
1000
0100
0000
1000
0000
0010
0000
,
0100
0010
0100
0000
0001
0000
1000
0000
0010
0100
0010
0000
1000
0010
1000
0010
,
0100
0001
1000
0010
1000
0010
0100
0001
1000
0010
0100
0001
2000
0000
3001
0100
,
0001
0010
0200
0000
1300
0100
1000
0001
0200
0000
0310
1000
0010
1000
0002
0000
,
1003
0100
1000
0001
1001
0000
0110
0000
1001
0000
0110
0000
0020
0000
0130
0001
,
1000
0001
0020
0000
0130
1000
0100
1000
0020
0000
0130
0001
0100
0010
2000
0000
,
3001
0010
0001
1000
1001
0000
0110
0000
1001
0000
0110
0000
0200
0000
0301
1000
,
0001
1000
0200
0000
0310
0001
1000
0010
0200
0000
0301
1000
0100
0010
0002
0000
,
1003
0100
1000
0010
0110
0000
1001
0000
0110
0000
1001
0000
0001
0100
0010
1000
,
0010
0000
0000
1000
0000
0000
0001
0000
0000
0100
0000
0000
0010
0000
0000
1000
0000
0000
0010
0000
0000
1000
0000
0000
0001
0000
0000
1000
0000
0000
0001
0000
0000
0000
0000
0000
0011
0000
0000
0000
0000
0000
0000
0000
0110
0000
0000
0000
,
0000
1100
0000
1001
0000
1010
0000
0110
0000
0200
0000
0000
,
0301
0000
1000
0000
0001
1000
0100
0000
0010
0000
0002
0000
0003
0000
0200
0000
,
0300
0020
0030
0100
0100
0100
0002
0000
,
1003
0000
0100
0000
1000
0010
0100
0000
0001
0000
0020
0000
0030
0000
0200
0000
,
0300
0000
2000
0000
3001
0000
0100
0000
0010
0000
1000
0000
0002
0000
1003
0100
,
1000
0001
0020
0000
0130
1000
0001
0100
0020
0000
0130
0001
1000
0001
0020
0000
,
0130
1000
0100
1000
0002
0000
0103
0010
1000
0000
0001
0000
2002
0000
0000
0000
,
0000
0000
0000
0000
0000
0000
0000
0000
0000
0000
3003
0000
1000
0010
0100
0001
,
1000
0000
1000
0010
0100
0001
1000
0000
1001
0000
0000
0000
0002
0000
1003
0100
,
1000
0010
0200
0000
0301
1000
0001
1000
0100
0010
0002
0000
0023
0000
0130
1000
,
0001
0100
0020
0000
0130
0001
1000
0100
1000
0001
0100
0001
2000
0000
3100
0010
,
0001
1000
0002
0000
2003
0000
3100
0010
0001
1000
0002
0000
0103
0010
1000
0001
,
1000
1001
0101
0000
0110
0010
0020
0000
,
0100
0230
0000
0001
0302
0000
0000
0000
,
0000
0000
0000
0000
0000
0000
0000
0000
0003
0000
0000
0000
1000
0100
0010
0001
,
0010
0001
1000
0100
0010
0001
0010
0001
1000
0010
1000
0010
0100
0000
0100
0000
,
0001
0010
0001
0010
0100
0000
0100
0000
1000
0001
1000
0001
0100
0000
0010
0000
,
1000
0010
1000
0000
0001
0000
0010
0000
0100
1000
0100
0000
0010
0000
0001
0000
,
1000
0001
1000
0000
0010
0000
1000
0001
0010
0100
1000
0000
1001
0000
0001
0000
,
0011
0010
0110
0100
1100
1000
1001
0001
,
0101
0100
0110
0010
1010
1000
0001
1000
,
0100
1000
0100
0000
0010
0000
0001
0000
1000
0001
1000
0000
0001
0000
0100
0000
,
0010
1000
0010
0000
1000
0000
0100
0000
0010
0001
0010
0000
0011
0000
0001
0000
,
1001
0000
1000
0000
1010
0000
0010
0000
0110
0000
0100
0000
0001
0100
0010
0000
,
1000
0100
0010
0000
0001
1000
0001
1000
0010
0100
0010
0100
0001
0000
0100
0000
,
0001
0000
0100
0000
0001
0000
0100
0000
0001
0000
0100
0010
1000
0000
0100
0000
,
1000
0000
0100
0000
1000
0000
0100
0000
1000
0000
0001
0010
0100
0000
1000
0000
,
0100
0000
1000
0000
0100
0000
1000
0000
0100
0000
1000
0001
0100
0000
0010
0000
,
0100
0000
0010
0000
0100
0000
0010
0000
0100
0001
1000
0100
1000
0000
0001
0000
,
1000
0000
0001
0000
1000
0000
0001
0000
1000
0000
0001
1000
0010
0000
1000
0000
,
0010
0000
1000
0000
0010
0000
1000
0000
0010
0000
1000
0100
0010
0000
0001
0000
,
0010
0000
0001
1000
0010
0000
0100
0000
0010
0000
1000
0001
0010
0000
0010
0000
,
0100
0100
1000
1000
0001
0001
2000
0000
,
3001
0200
0000
0310
2000
0000
0000
0000
,
3001
0010
0200
0000
0000
0000
2300
0000
,
3001
0200
0000
0310
2000
0000
0000
3001
,
0010
0100
0010
0010
0100
0010
0001
0001
,
0001
2000
0000
3010
0110
0100
0001
0002
,
0000
0000
0000
0003
0000
0000
1000
0000
0000
1000
0000
0000
2000
0000
0000
0000
0000
0000
3001
0000
0000
1000
0001
1000
,
0001
0000
0000
0100
0000
0000
0001
1000
0001
1000
0000
0000
1001
0000
0000
0001
0000
0000
1000
0100
0000
0010
0000
0000
,
0001
0000
0000
0000
0000
0000
1000
0000
0000
0000
0000
0000
0001
0000
0100
0000
0000
0000
0010
0000
0000
0000
0000
0000
1000
0000
0000
0000
0000
0000
0001
0000
0000
0000
0000
0000
1000
0000
0000
0100
0000
0000
1000
0000
0000
0000
0000
0000
,
0001
1000
0001
0000
0100
0001
0100
0000
0010
1000
0010
0000
1000
0001
1000
0000
,
0001
0010
0001
0000
1000
0100
1000
0000
0100
0010
0100
0000
0010
0001
0010
0000
,
0001
1000
0001
0000
1000
0010
1000
0000
0010
0100
0010
0000
0100
0001
0100
0000
,
0001
1000
0001
0000
1000
0100
1000
0000
0001
0010
0001
0000
1000
0100
1000
0000
,
0010
0100
0010
0000
0100
0001
0100
0000
0001
0010
0001
0000
1000
0100
1000
0000
,
0001
0010
0001
0000
0100
0010
0100
0000
0010
1000
0010
0000
1010
0000
1000
0010
,
1000
0010
0100
0000
0100
0000
0001
1000
0001
1000
0100
0000
0010
0001
0010
0001
,
1000
0010
1000
0010
0100
0001
0100
0001
1000
0100
1000
0100
1000
0001
1000
0100
,
0010
0001
2000
0000
3010
0100
0001
1000
0100
0010
0001
1000
0002
0000
0103
0010
,
1000
0010
2000
0000
3001
0010
0001
1000
0100
1000
0001
0010
0100
1000
0100
1000
,
0100
1000
0100
1000
0100
1000
0100
1000
0100
1000
0100
1000
0001
0000
000M
0000
,
0100
0000
0M00
0000
0010
0000
00M0
0000
1000
0001
1000
0001
0200
0000
0310
1000
,
0001
1000
0200
0000
0310
0001
1000
0100
1000
0001
0100
0010
2000
0000
3010
0100
,
0001
1000
0002
0000
1003
0100
0010
0001
1000
0100
0010
0001
1000
0010
0100
0001
,
0000
1000
0001
0000
0100
0001
0100
0001
1000
0010
1000
0010
1000
0100
0010
0001
,
1000
0100
0010
0001
1000
0010
0100
0001
0020
0000
0130
0000
1000
0010
1000
0001
,
0010
0100
1000
0100
1000
0001
0100
0010
1000
0001
0010
0001
1000
0100
0010
0001
,
1000
0010
0100
0001
0100
0010
1000
0001
0010
0100
0010
0001
1000
0001
1000
0010
,
0100
0001
1000
0100
0010
0100
0010
0001
1000
0001
0100
0010
1000
0000
M000
0000
,
0001
000M
1000
M000
0100
0M00
M11M
0000
,
0011
1001
1010
M1M1
,
0110
0000
0000
0000
1010
0000
0000
0000
1100
0000
0000
0000
0100
0010
0001
1000
,
0001
1000
0010
0100
0001
1000
0001
1000
0010
0100
0010
0100
0001
0000
000M
0000
,
1000
M000
0010
00M0
1000
M000
0001
1000
,
0001
0010
0001
0000
1000
0000
0010
0000
0100
0010
0100
0000
0001
0000
1000
0000
,
0001
0010
0001
0000
1000
0000
0100
0000
0010
0100
0010
0000
0001
0000
1000
0000
,
0010
1000
0010
0000
0100
0000
0001
0000
1000
0100
1000
0000
0001
0000
0010
0000
,
0100
1000
0100
0000
1000
0000
0001
0000
0100
0010
0100
0000
0010
0000
1000
0000
,
0001
0000
0010
0000
0100
1000
0100
0000
0010
0000
0001
0000
1000
0001
1000
0000
,
0010
0000
0100
0000
0001
0100
0001
0000
1000
0100
1000
0000
0001
0010
0100
1000
,
0001
0010
0100
1000
0001
0010
0100
1000
0001
0010
0100
1000
0010
0100
0001
1000
,
0001
1000
0010
0100
0001
1000
0001
1000
0100
0000
0010
0000
0001
1000
0100
1000
,
0001
0000
0100
0000
0010
0000
0100
0000
0001
0100
0010
1000
0001
0010
0100
1000
,
0001
1000
0100
0000
0010
0000
0001
0000
1000
0010
0100
0000
0001
0100
0001
0100
,
0010
1000
1000
0100
0010
0100
1000
0001
,
1000
0010
0100
0001
0010
0100
0010
0001
1000
0100
1000
0001
0200
0000
0310
1000
,
0001
1000
0200
0000
0310
0001
1000
0100
1000
0001
0100
0010
1000
0100
0010
0001
,
1000
0100
0010
0001
1000
0100
0010
0001
1000
0100
0010
0001
1000
0010
1000
0001
,
0010
0001
1000
0100
1000
0001
0100
0001
1000
0100
1000
0000
1100
0000
0000
0000
,
0110
0011
0000
0011
1001
1000
0002
0000
,
0000
0023
0000
0000
0230
0000
2300
0000
,
0000
3020
0000
0000
0230
0000
0302
0000
,
0000
2003
0000
0000
3200
0000
2300
0000
,
0000
3020
0000
0000
0230
0000
0302
0010
,
0013
0200
1000
1300
0002
0103
0020
1000
,
1030
0000
0002
0000
1000
0000
1003
0000
0200
0000
0310
0000
0001
1000
0000
0100
,
0000
0010
0001
0000
1000
0010
1000
0010
0100
0010
0100
0010
0100
0001
1000
0100
,
0010
0100
1000
0001
0010
0100
1000
0001
1000
0010
0100
0001
0010
0000
0000
0000
,
0000
0000
0000
0100
1000
0001
0010
0001
,
1000
0010
0100
0001
1000
0100
0110
0000
,
0000
0000
0000
0011
2002
3003
1010
2002
,
3003
0101
2002
3003
0110
1001
0110
0000
,
0000
0000
0000
0010
1000
0001
0010
0100
,
1000
0001
0010
0001
1000
0010
1010
0000
,
0000
0000
0000
1010
2002
3003
0011
2002
,
3003
0101
2002
3003
0110
1001
0110
0110
,
0100
0000
0002
0000
0000
1003
1100
0110
,
0010
0000
0002
0000
0000
1003
1010
0110
,
0100
0000
0010
0000
1000
0100
0020
0000
,
0000
0000
0031
0010
0100
1000
1001
0101
,
0100
0000
0020
0000
0000
1030
1100
0110
,
0100
0000
2000
0000
0000
3001
0011
1001
,
2000
0000
3020
0000
0130
0001
0020
0000
,
0000
0000
0100
0100
0100
0100
0031
0100
,
1000
0100
0001
0100
1000
0100
0001
0010
,
1000
0010
0001
0010
1000
0010
0001
0100
,
1000
0100
0001
0100
1000
0100
0001
0001
,
0000
0000
1000
0100
0010
0000
0000
0000
0001
1000
0001
1000
0001
0000
0100
0000
,
1000
0100
0001
0100
1000
0100
0010
0001
,
0010
1000
0010
0001
0010
1000
0001
0100
,
1000
0100
0001
0100
1000
0100
0010
1010
,
0000
1000
0100
0100
0010
0010
0001
1000
,
0001
0010
0100
1000
0010
0100
0001
0002
,
0100
1003
0001
0002
0100
1003
0010
0010
,
0100
0001
1000
0100
0010
0100
1000
1100
,
0000
0100
0110
0010
0001
1000
0001
0010
,
0100
1000
0010
0100
0010
1000
0001
0010
,
0100
1000
0001
1000
0010
0100
0001
1000
,
0100
0010
0100
1000
0001
0010
0001
0001
,
1000
1000
0100
0100
1000
1000
0010
0010
,
0100
0100
0001
0001
0100
0100
0110
0010
,
0010
0000
1010
0000
1000
0000
1000
0000
1001
0000
0001
0000
1000
0100
0010
0001
,
1000
0010
0100
0001
1000
0100
1000
0001
0100
0000
0000
0000
0020
0000
2030
0000
,
3020
2030
3020
2030
3002
0023
0000
0230
,
0000
0000
1300
0010
0100
0001
0100
0001
1000
0100
1000
0100
0010
0001
1000
0001
,
0100
0010
1000
0001
0040
0400
0000
0000
0000
0000
0030
0000
0310
0001
1000
0001
,
0100
0000
0010
0000
0100
0001
0100
0010
0100
0001
0100
0010
1000
0000
0100
0000
,
0010
0000
0100
0000
1000
0000
0010
0000
0100
0001
1000
0100
1000
0001
0010
0001
,
1000
0010
1000
0001
0010
0100
1000
0001
0100
0001
1000
0100
1000
0001
0100
0010
,
1000
0100
0010
0001
1000
0001
0100
0010
1000
0000
0001
0000
1000
0100
0010
0001
,
1000
0000
0000
0001
0000
0000
0100
0000
0000
0001
0000
0000
1000
0000
0000
0100
0000
0000
1000
0000
0000
0001
0000
0000
0010
0000
0000
0100
0000
0000
1000
0000
0000
0001
0000
0000
1000
0000
0000
0000
0000
0000
0000
0000
0001
0000
0100
0000
,
0000
0000
0001
0010
0000
0000
0100
1000
0000
0000
0001
0010
0000
0000
0001
1000
0000
0000
0010
0100
0000
0000
0010
1000
,
0000
0000
0000
0000
0001
0000
0010
0000
0000
0000
0000
0000
0100
0000
1000
0000
0000
0000
0000
0000
0100
0000
0010
0000
0000
0000
0000
0000
0100
0000
1000
0000
0000
0000
0000
0000
0001
0000
0000
0100
0000
0000
0010
0000
0000
0100
0000
0000
,
0001
0000
0000
1000
0000
0000
0100
0000
0000
1000
0000
0000
0100
0000
0000
0010
0000
0000
0100
0000
0000
1000
0000
0000
0001
0000
0000
0100
0000
0000
0010
0000
0000
0100
0000
0000
0001
0000
1000
0000
0001
0000
1000
0000
0000
0000
0000
0000
,
0001
0000
0010
0000
0000
0000
0100
0000
1000
0000
0000
0000
0001
0000
0100
0000
0000
0000
0010
0000
1000
0000
0000
0000
0010
0000
0100
0000
0000
0000
0001
0000
0100
0000
0000
0000
0010
0000
0000
1000
0000
0000
0001
0000
0000
1000
0000
0000
,
0100
0000
0000
0010
0000
0000
0100
0000
0000
1000
0000
0000
0001
0000
0000
0010
0000
0000
0001
0000
0000
1000
0000
0000
0100
0000
0000
1000
0000
0000
0001
0000
0000
1000
0000
0000
0100
0000
0010
0000
0000
0000
0000
0000
0100
0000
1000
0000
,
0000
0000
0000
0000
0001
0000
0100
0000
0000
0000
0000
0000
0010
0000
1000
0000
0000
0000
0000
0000
0001
0000
0010
0000
0000
0000
0000
0000
0100
0000
1000
0000
0000
0000
0000
0000
0010
0000
0000
0100
0000
0000
0010
0000
0000
1000
0000
0000
,
0001
1000
0100
0010
0001
1000
0100
1000
0001
0100
0010
1000
1MM1
0000
0000
0000
,
11MM
0000
0000
0000
M11M
0000
0000
0000
MM11
0000
0000
0000
0001
1000
0100
1000
,
0010
0100
0010
1000
0001
1000
0100
0010
0001
1000
0001
0010
0100
1000
0001
0100
,
0010
0000
0000
1000
0000
0000
0001
0000
0000
1000
0000
0000
0100
0000
0000
0010
0000
0000
0001
0000
0000
0010
0000
0000
0001
0000
0000
1000
0000
0000
0001
0000
0000
0000
0000
0000
1000
0000
0000
0000
0100
0000
0000
0000
0010
0000
0000
0000
,
0001
0000
0000
0000
0010
0000
0000
0000
0100
0000
0000
0000
1000
0000
0000
0000
0010
0000
0000
0000
0100
0000
0000
0000
0001
0000
0000
0000
0100
0000
0000
0000
0010
0000
0000
0000
1000
0000
0000
0010
0000
0000
1000
0000
0000
0010
0000
0000
,
1000
0010
1000
0010
0100
0001
0100
0001
0100
0001
0100
0001
4000
0400
0000
0000
,
0000
0000
0000
0000
0000
0000
0000
0000
0000
0000
0000
0000
0000
0000
0000
3300
0000
0000
1000
0010
0000
0000
0000
0000
,
0100
0001
0000
0000
0000
0000
1000
0100
0000
0000
0000
0000
0010
0001
0000
0000
0000
0000
1000
0000
0010
0000
0100
0000
,
0001
0000
0000
0000
1000
0000
0000
0000
0001
0000
0000
0000
0010
0000
0000
0000
0100
0000
0000
0000
1000
0000
0000
0000
0001
0000
0000
0000
1000
0000
0000
0000
0010
0000
0000
0000
0100
0000
0000
0001
0000
0000
1000
0000
0000
0100
0000
0000
,
1000
0001
0010
0001
0100
0010
1000
0010
0100
0001
1000
0100
4000
0000
0000
0000
,
0000
0000
0000
3040
,
0000
0000
0000
0430
,
0000
0000
0000
0000
,
0000
0000
0000
0000
0300
0000
0020
0030
,
0020
0000
0030
0000
0020
0000
2030
0000
0000
0000
3002
0000
1003
0100
1000
0001
,
0010
0000
0000
0001
0000
0000
1000
0000
0000
0100
0000
0000
0010
0000
0000
0001
0000
0000
1000
0000
0000
0001
0000
0000
1000
0000
0000
0010
0000
0000
0100
0000
0000
0000
0000
0000
0001
0000
0100
0000
0000
0000
0000
0000
0010
0000
1000
0000
,
0000
0000
0000
0000
0001
0000
0010
0000
0000
0000
0000
0000
0100
0000
1000
0000
0000
0000
0000
0000
0001
0000
0100
0000
0000
0000
0000
0000
0010
0000
1000
0000
0000
0000
0000
0000
0001
0000
0000
0100
0000
0000
0001
0000
0000
0100
0000
0000
,
0010
1000
0010
1000
0001
0010
0100
1000
0001
0010
0100
1000
0001
0000
0001
0000
,
1000
0000
0000
0000
0100
0000
0000
0000
0010
0000
0000
0000
0001
0000
0000
0000
1000
0000
0000
0000
0100
0000
0000
0000
0010
0000
0000
0001
0000
0000
1000
0000
0000
0001
0000
0000
0200
0000
0000
0000
0000
0000
0000
0000
0000
0000
0000
0000
,
0000
0000
0000
0000
0000
0000
0310
0000
0000
1000
0000
0000
0001
0000
0000
0000
0100
0000
0000
0000
0001
0000
0000
0000
2000
0000
0000
0000
0000
0000
0000
0000
0000
0000
0000
0000
3200
0000
0000
0000
0000
0000
0000
0000
0000
0000
0000
0000
,
0000
0000
0000
0310
0001
1000
0100
1000
0010
0100
0001
1000
,
0100
0010
0100
0010
0001
1000
0001
0100
0010
1000
0100
1000
,
0001
0000
0010
0000
0100
0000
1000
0000
0001
0000
1000
0000
0010
0000
1000
0100
0000
0010
0001
0000
1000
0000
0010
0000
,
1000
0001
0010
0100
1000
0100
1000
0010
0100
0004
0000
0000
,
0000
0000
0403
0000
0000
0000
0000
0000
0340
0000
0130
0001
1000
0000
1000
0000
,
0100
0000
0000
0100
0000
0000
0010
0000
0000
0011
0000
0000
0001
0000
0000
1000
0000
0000
0001
0000
1000
0000
0100
0000
,
1000
0010
0100
0001
0010
0100
1000
0100
0010
0001
1000
0001
,
1000
0000
0010
0000
0100
0000
0001
0000
1000
0100
0000
0010
0001
0000
1000
0010
0000
0000
0200
0000
0000
0000
0000
0000
,
0301
0000
0000
1000
0000
0000
0100
0000
0000
1000
0000
0000
0100
0000
0000
0000
0000
0000
0010
0000
0000
0000
0000
0000
0100
0000
0000
0000
0000
0000
1000
0000
0000
0000
0000
0000
0001
0000
0000
0000
0100
0000
0000
0000
0001
0000
0000
0000
,
1000
0100
1000
0001
0010
0100
1000
0010
0100
0010
1000
0001
,
0010
0100
1000
0001
1000
0010
1000
0001
0100
0010
1000
0100
,
0010
0000
0000
0000
0001
0000
0000
0000
0010
0000
0000
0000
0001
0000
0000
0000
1000
0000
0000
0000
0010
0000
0000
0000
0100
0000
0000
0000
0001
0000
0000
0000
0010
0000
0000
0000
0100
0000
0000
1000
0000
0000
0001
0000
0000
0010
0000
0000
,
0001
0010
0100
1000
0001
0010
0001
0010
0100
1000
0100
1000
0001
0000
1000
0010
,
0100
0001
1000
0100
0010
0001
1000
0010
0200
0000
0000
0000
0302
0000
0000
0000
,
0000
2003
0000
0000
3200
0000
0340
0000
,
0000
0000
0031
2000
,
3001
0000
0200
0000
0000
0000
0320
0000
0000
0000
2030
0000
3001
0010
0002
0000
,
0000
0000
0000
0003
MMMM
0000
MMMM
0000
MMMM
0000
MMMM
0000
1000
0000
0001
0000
,
1000
0100
0000
0020
0000
0032
0000
1003
,
0010
0000
0100
0000
0001
0000
1000
0000
0200
0000
0000
0000
0310
0001
1000
0001
,
0100
0010
1000
0001
1000
0100
0010
0001
0010
0100
1000
0010
0100
0000
0002
0000
,
0000
0000
1003
0000
0100
0000
0010
0000
0002
0000
0000
0000
0103
0010
1000
0001
,
1000
0001
0100
0010
1000
0001
1000
0001
0100
0000
0010
0000
0100
0010
1000
0001
,
1000
0001
0100
0010
1000
0001
1000
0001
0100
0010
1000
0001
0010
0100
1000
0001
,
1000
0000
0000
0001
0000
0000
0010
0000
0000
0100
0000
0000
1000
0000
0000
0001
0000
0000
1000
0000
0000
0001
0000
0000
0100
0000
0000
0000
0000
0000
0010
0000
0000
0000
0000
0000
0100
0000
0000
0000
0000
0000
0000
0000
0001
0000
0000
0000
,
0000
1000
0000
0100
0000
0010
0000
0001
0000
1000
0000
0001
,
0000
1000
0000
0100
0000
0010
0000
0001
0000
2000
0000
0000
,
3020
0000
0000
0000
0230
0000
0302
0000
2003
0000
0000
0000
3100
0010
0001
1000
,
0010
0000
0000
1000
0000
0000
0001
0000
0000
0010
0000
0000
0100
0000
0000
1000
0000
0000
0001
0000
0000
0100
0000
0000
0001
0000
0000
1000
0000
0000
0100
0000
0000
0010
0000
0000
0001
0000
0000
0000
0000
0000
0000
0000
1000
0000
0000
0000
,
0000
0000
0100
0000
0000
0000
0011
0000
0000
0000
1001
0000
0000
0000
0101
0000
0000
0000
0110
0000
0000
0010
0000
0000
,
0100
0002
0000
2003
0000
3100
0010
0001
,
1000
0000
0020
0000
0000
0000
0230
0000
0000
0000
0301
0000
1000
0100
0010
0001
,
0010
0001
1000
0100
0010
0001
0010
0001
1000
0010
1000
0010
0100
0001
1000
0010
,
1000
0010
0100
0001
1000
0010
1000
0010
0100
0001
0100
0001
1000
0001
1000
0100
,
0010
0001
2000
0000
3010
0100
0001
1000
0100
0010
0001
1000
0002
0000
0103
0010
,
1000
0010
2000
0000
3001
0010
0001
1000
0100
1000
0001
0010
0100
1000
0100
1000
,
0100
1000
0100
1000
0100
1000
0100
1000
0100
1000
0100
1000
0001
0000
000M
0000
,
0100
0000
0M00
0000
0010
0000
00M0
0000
1000
0001
1000
0001
0200
0000
0310
1000
,
0001
1000
0200
0000
0310
0001
1000
0100
1000
0001
0100
0010
2000
0000
3010
0100
,
0001
1000
0002
0000
1003
0100
0010
0001
1000
0100
0010
0001
1000
0010
0100
0001
,
0000
1000
0001
0000
0100
0001
0100
0001
1000
0010
1000
0010
1000
0100
0010
0001
,
1000
0100
0010
0001
1000
0010
0100
0001
0010
0100
1000
0001
1000
0010
1000
0001
,
0010
0100
1000
0100
1000
0001
0100
0010
1000
0001
0010
0001
1000
0100
0010
0001
,
1000
0010
0100
0001
0100
0010
1000
0001
0010
0100
0010
0001
1000
0001
1000
0010
,
0100
0001
1000
0100
0010
0100
0010
0001
1000
0001
0100
0010
1000
0100
1000
0100
,
0010
0001
0010
0001
1000
0100
1000
0100
0010
0001
0010
0000
M11M
0000
0000
0000
,
0011
1001
1010
M1M1
,
0110
0000
0000
0000
1010
0000
0000
0000
1100
0000
0000
0000
0100
0010
0001
1000
,
0001
1000
0010
0100
0001
1000
0001
1000
0010
0100
0010
0100
MMM1
0000
0000
0000
,
1000
0100
0010
0002
0000
1003
0010
0200
,
0000
0301
1000
0200
0000
0310
0001
1000
,
0010
0100
0001
0200
0000
0310
1000
0002
,
0000
0000
1003
0000
0100
0000
0020
0000
0000
0000
0130
1000
0001
0100
0010
1000
,
0001
1000
0100
2000
0000
3010
0100
0002
,
0000
0013
0100
2000
0000
3001
0100
0001
,
2000
0100
3001
0200
0010
0301
2000
3100
,
0010
0001
1000
0001
0100
0010
1000
0001
1000
0100
0010
0001
1000
0010
0100
0001
,
1000
0010
0100
1000
0010
0100
1000
0010
0100
1000
0010
0100
,
0001
0100
0010
1000
0001
0100
0010
1000
0001
0100
0010
1000
1001
0000
1001
0000
,
1001
0000
0000
0000
0001
0000
0000
0000
0010
0000
0000
0000
0100
0000
0000
1000
0000
0000
0001
0000
0000
1000
0000
0000
0010
0000
0000
0100
0000
0000
0001
0000
0000
1000
0000
0000
0100
0000
0000
1000
0000
0000
0001
0000
0000
0010
0000
0000
,
0100
1000
0010
0100
0001
1000
0001
0010
0100
1000
0010
0100
0110
0000
0110
0000
,
0220
0000
0000
0000
0000
0330
2002
3003
,
0220
0330
2020
3030
0022
0033
2002
3003
,
0110
0000
0010
0010
1000
1000
0001
0001
,
1000
1000
0100
0100
0010
0010
0001
0001
,
2002
0000
3003
0000
2002
0000
0000
0000
0000
0000
0000
0000
3000
0000
1003
0010
,
0100
0000
0000
0000
;
