#TITLE:Critical Crystal;
#SUBTITLE:;
#ARTIST:Blue Dragon;
#TITLETRANSLIT:;
#SUBTITLETRANSLIT:;
#ARTISTTRANSLIT:;
#CREDIT:owenviau1;
#BANNER:../owenviau1 Simfiles 6 (Science X Owen).png;
#BACKGROUND:BG.PNG;
#LYRICSPATH:;
#CDTITLE:;
#MUSIC:Critical Crystal.mp3;
#OFFSET:-0.017;
#SAMPLESTART:79.130;
#SAMPLELENGTH:29.999;
#SELECTABLE:YES;
#DISPLAYBPM:95.500:191.000;
#BPMS:0.000=191.000,22.000=382.000,24.000=191.000,26.000=382.000,28.000=191.000,30.000=382.000,31.000=191.000,110.000=764.000,110.500=191.000,126.000=764.000,126.500=191.000,136.000=95.500,157.000=191.000,190.000=382.000,192.000=191.000,194.000=382.000,196.000=191.000,198.000=382.000,200.000=191.000,202.000=382.000,202.500=95.500,202.750=191.000,203.000=382.000,204.000=191.000,259.000=382.000,260.000=191.000,286.000=382.000,287.000=191.000,288.000=382.000,289.000=191.000,290.000=382.000,294.000=95.500;
#STOPS:22.000=0.079
,22.500=0.079
,23.000=0.079
,23.500=0.079
,26.000=0.079
,26.500=0.079
,27.000=0.079
,27.500=0.079
,30.000=0.079
,30.500=0.079
,110.000=0.106
,126.000=0.106
,157.000=0.314
,190.000=0.079
,190.500=0.079
,191.000=0.079
,191.500=0.079
,194.000=0.079
,194.500=0.079
,195.000=0.079
,195.500=0.079
,198.000=0.079
,198.500=0.079
,199.000=0.079
,199.500=0.079
,203.000=0.079
,203.500=0.079
,259.000=0.040
,259.250=0.040
,259.500=0.040
,259.750=0.040
,286.000=0.040
,286.250=0.040
,286.500=0.040
,286.750=0.040
,288.000=0.040
,288.250=0.040
,288.500=0.040
,288.750=0.040
,290.000=0.079
,290.500=0.079
,291.000=0.079
,291.500=0.079
,292.000=0.079
,292.500=0.079
,293.000=0.079
,293.500=0.079
;
#BGCHANGES:;
// cache tags:
#FIRSTBEAT:0.000;
#LASTBEAT:315.000;
#SONGFILENAME:Songs/owenviau1 Simfiles 6/Critical Crystal - [owenviau1] v1.0.1/Critical Crystal.sm;
#HASMUSIC:1;
#HASBANNER:1;
#MUSICLENGTH:114.755;
// end cache tags

//---------------dance-single - 15 (owenviau1)----------------
#NOTES:
     dance-single:
     15 (owenviau1):
     Challenge:
     15:
     1.000,1.000,0.706,0.523,1.000,1059.000,81.000,60.000,0.000,16.000:

1010
0000
0101
0000
1000
0100
0010
0001
2000
3000
0020
0030
1002
0003
2100
3000
,
0004
0403
0340
4030
3400
0340
0034
4003
3002
0000
0103
0000
1020
0030
0201
0300
,
1000
0010
0100
0001
1000
0100
0010
0001
0100
0010
1000
0001
0010
0001
0100
0010
,
1000
0100
0010
0001
0100
0010
1000
0100
1001
0000
1001
0000
0010
0100
0001
1000
,
0100
0000
0010
0000
0101
0000
1000
0010
0000
0000
0100
0000
0001
1000
0010
0100
,
0001
1000
0100
1000
0010
0100
0001
1000
0210
0000
1302
0000
1023
0000
0231
0000
,
1300
0010
0100
0001
1000
0010
1000
0001
1200
0000
0321
0000
2031
0000
3120
0000
,
1030
0001
0010
0001
0100
0010
1000
0100
1002
0000
0213
0000
0301
1000
0001
1000
,
0001
0000
0000
0100
0000
0000
1001
0000
0000
1000
0010
1000
0010
0000
0000
0100
0000
0000
1001
0000
0000
0010
0000
0000
,
0102
1003
0120
0130
2001
0010
3201
0010
,
0301
1000
0010
0100
0001
1000
0100
1000
0010
0100
0001
1000
0100
0010
0001
0100
,
0010
1000
0001
0100
0010
0100
0001
1000
0010
1000
0100
0010
0001
0100
0010
1000
,
0010
0100
0010
1000
0001
1000
0010
0100
0001
0010
0001
1000
0010
1000
0001
0100
,
0010
1000
0100
0010
0001
1000
0001
0100
0010
1000
0100
1000
0001
0100
0001
1000
,
0010
0100
0001
1000
0100
0010
0001
0010
0100
1000
0001
0100
0001
0010
0100
1000
,
0010
1000
0100
0010
0001
0100
0010
1000
0010
1000
0001
0100
0010
1000
0100
0000
,
1001
0000
0100
0000
0010
1000
0100
0010
0001
0000
0100
0000
1010
0000
0001
0000
,
0100
0010
1000
0001
0010
0001
1000
0010
0100
0000
0010
0000
1001
0000
0010
0000
,
0100
1000
0001
0100
0010
1000
0100
1000
0001
0100
0001
0010
0100
1000
0010
0100
,
0001
1000
0100
0010
0001
0100
0001
1000
0010
0100
0001
0010
0001
1000
0010
1000
,
0001
0100
0001
1000
0100
1000
0010
0100
0001
1000
0100
0010
0001
0010
0100
0000
,
1010
0100
0101
0010
1100
0010
1001
0001
,
1000
0100
0010
0001
0100
0010
1000
0001
0010
0001
0100
0010
1000
0100
0010
0001
,
1000
0100
1000
0010
0100
0001
0010
0001
1000
0001
0100
0010
1000
0100
0010
0001
,
0010
0100
1000
0010
1000
0001
0100
0001
1000
0010
0100
0001
0010
0001
0100
0000
,
1001
0000
0011
0000
1000
0100
0010
0001
2000
3000
0020
0030
1002
0003
2100
3000
,
0010
0100
0001
1000
0100
1000
0010
0100
0001
0010
0100
1000
0001
0100
0001
1000
,
0100
0000
0000
0010
0000
0000
0001
0000
0000
0100
0000
0000
0010
0000
0000
1000
0000
0000
0100
0000
0000
1000
0000
0000
0001
0000
0000
0000
0000
0000
0010
0000
0100
0000
1000
0000
0001
0000
0000
0100
0000
0000
0010
0000
0000
1000
0000
0000
,
0001
0100
0010
1000
0100
1000
0001
0100
0001
0010
0100
1000
0010
0100
0001
1000
,
0100
0000
0000
1000
0000
0000
0010
0000
0000
0100
0000
0000
0001
0000
0000
0010
0000
0000
0100
0000
0000
1000
0000
0000
0001
0000
0100
0000
0010
0000
1000
0000
0100
0000
0010
0000
0001
0000
0000
0100
0000
0000
0001
0000
0000
1000
0000
0000
,
0010
0100
0001
1000
0100
1000
0010
0100
0001
0010
0100
1000
0001
1000
0010
0100
,
0010
0000
0000
1000
0000
0000
0001
0000
0000
0100
0000
0000
0010
0000
0000
1000
0000
0000
0100
0000
0000
0010
0000
0000
0001
0000
0000
0000
0000
0000
1000
0000
0001
0000
0100
0000
0001
0000
0000
0010
0000
0000
0100
0000
0000
1000
0000
0000
,
0001
1000
0010
0100
0001
1000
0100
1000
0010
0100
0001
1000
0001
0000
0110
0000
,
1000
0101
0010
1001
0100
1010
0001
0101
,
2010
0000
0001
0000
3100
0010
0002
1000
0000
0100
0000
0010
0000
1003
0100
0010
,
0002
0000
1003
0010
0100
0001
0020
0100
0000
1000
0000
0001
0000
0130
0001
1000
,
0020
0000
0130
0001
1000
0001
2000
0100
0000
0010
0000
0100
0000
3001
0010
0100
,
2000
0000
3001
0010
0100
0010
0002
1000
0000
0010
0000
0100
0000
1003
0010
0100
,
0020
0000
1030
0001
0100
0001
2000
0100
0000
0010
0000
0100
0000
0000
0000
0000
,
0000
0000
0000
0000
3000
0000
0000
0000
0001
0100
0010
1000
0100
1000
0001
0100
,
0010
1000
0001
0010
0001
0100
0010
1000
0100
0010
0001
0100
0010
1000
0001
0100
,
0001
1000
0010
0100
0001
1000
0100
0010
0001
0100
0010
1000
0001
0010
0001
0100
,
0010
1000
0001
0100
0001
0100
0010
1000
0100
1000
0001
0100
0010
1000
0001
0010
,
0001
0100
0010
1000
0100
0010
0001
0100
0010
1000
0001
0100
0001
1000
0010
0100
,
0001
1000
0100
0010
0001
0100
0010
1000
0001
0010
0001
0100
0010
1000
0001
0100
,
0001
0100
0010
1000
0100
1000
0001
0100
0010
1000
0001
0010
0001
0100
0010
1000
,
0100
0010
0001
0100
0010
1000
0001
0100
0001
1000
0010
0100
0001
1000
0100
0010
,
0001
0100
0010
1000
0001
0100
0010
0100
1001
0000
0110
0000
1001
0000
0110
0000
,
1000
0100
0010
0001
0100
0010
1000
0001
1010
0000
0101
0000
1010
0000
0101
0000
,
0010
0100
0001
1000
0100
1000
0010
0100
0011
0000
1100
0000
0011
0000
1100
0000
,
0001
0100
0001
1000
0010
0100
0001
0100
1010
0000
0000
0000
0101
0000
1001
0000
,
0010
0100
0001
1000
0400
1300
0040
0130
0004
1003
0010
0100
0001
1000
0100
1000
,
0010
0100
0001
0010
0100
1000
0100
0010
0001
0100
0010
1000
0001
0100
0001
1000
,
0100
1000
0010
0100
0001
1000
0001
0010
0100
1000
0010
1000
0100
0010
0001
1000
,
0001
0100
0001
0010
0100
1000
0010
0100
0001
1000
0100
1000
0010
0100
0001
1000
,
0010
1000
0001
0100
0010
1000
0100
0010
1001
0000
0101
0000
1000
0100
0010
0001
,
2000
3000
0020
0030
1002
0003
2100
3000
0004
0403
0340
4030
3400
0340
0034
4003
,
3002
0000
0003
0000
1020
0030
0201
0300
1000
0010
0100
0001
0010
0001
1000
0010
,
1000
0100
0010
0001
0100
0010
1000
0001
0100
0010
1000
0100
1000
0010
0100
0001
,
0010
0100
1000
0100
0010
0001
0100
0010
1000
0001
0100
0001
1000
0010
1000
0001
,
0010
0001
0100
0010
1000
0100
0010
0001
0100
0010
1000
0100
1000
0001
0100
0001
,
1000
0010
0100
0001
1000
0100
0010
0001
0100
0010
1000
0001
0010
0001
0100
0010
,
1000
0100
1000
0001
0100
0001
1000
0010
0100
0001
1000
0100
0010
0001
0100
0001
,
1000
0010
0100
0001
1000
0100
0010
0001
0010
0100
1000
0010
0100
0001
0010
0001
,
1000
0010
1000
0100
0010
0001
0100
0000
1010
0000
0101
0000
1000
0100
0010
0001
,
1000
0000
0110
0000
0004
0000
0403
0000
0310
0100
0001
1000
0001
0100
0010
1000
,
0100
0010
0001
0100
0010
1000
0001
0100
0010
1000
0100
1000
0010
0100
0001
0010
,
0100
1000
0100
0010
0001
0100
0010
1000
0001
0100
0001
1000
0010
1000
0001
0010
,
0001
0100
0010
1000
0100
0010
0001
0100
0010
1000
0100
1000
0001
0100
0001
1000
,
0010
0100
0001
1000
0100
0010
0001
0100
0010
1000
0001
0010
0001
0100
0010
1000
,
0100
1000
0001
0100
0001
1000
0010
0100
0001
1000
0100
0010
0001
0100
0001
1000
,
0010
0100
0001
1000
0100
0010
0001
0010
0100
1000
0010
0100
0001
0010
0001
1000
,
0010
1000
0100
0010
0001
0010
0100
1000
1002
0000
0123
0000
2031
0000
3210
0000
,
1302
0000
0123
0000
2031
0000
3210
0000
2301
0000
0010
0000
3100
0010
0002
1000
,
0000
0100
0000
0010
0000
1003
0100
0010
0002
0000
1003
0010
0100
0001
0020
0100
,
0000
1000
0000
0001
0000
0130
0001
1000
0020
0000
0130
0001
1000
0001
2000
0100
,
0000
0010
0000
0100
0000
3001
0010
0100
2000
0000
3001
0010
0100
0010
0002
1000
,
0000
0010
0000
0100
0000
1003
0010
0100
0020
0000
1030
0001
0100
0001
2000
0100
,
0000
0010
0000
0100
0000
0000
0000
0000
0000
0000
0000
0000
3000
0000
0000
0000
;
