#TITLE:桃源郷;
#SUBTITLE:;
#ARTIST:DJ MAKNORCH;
#TITLETRANSLIT:TOGENKYO;
#SUBTITLETRANSLIT:;
#ARTISTTRANSLIT:;
#CREDIT:;
#BANNER:tgkbn.jpg;
#BACKGROUND:tgkbg.jpg;
#LYRICSPATH:;
#CDTITLE:cdtitle.png;
#MUSIC:togenkyo.mp3;
#OFFSET:-1.344;
#SAMPLESTART:103.809;
#SAMPLELENGTH:11.720;
#SELECTABLE:YES;
#DISPLAYBPM:185.000:46.000;
#BPMS:0.000=185.000,256.000=92.500,288.000=185.000,352.000=46.250,362.000=740.000;
#STOPS:;
#BGCHANGES:;
// cache tags:
#FIRSTBEAT:16.000;
#LASTBEAT:374.000;
#SONGFILENAME:Songs/Japanese Collaboration Mix/togenkyo/togenkyo.sm;
#HASMUSIC:1;
#HASBANNER:1;
#MUSICLENGTH:139.911;
// end cache tags

//---------------dance-single - ----------------
#NOTES:
     dance-single:
     :
     Hard:
     9:
     0.605,1.000,0.000,0.279,0.214,554.000,0.000,39.000,0.000,0.000:
0000
0000
0000
0000
,
0000
0000
0000
0000
,
0000
0000
0000
0000
,
0000
0000
0000
0000
,
1000
0010
0100
0000
0010
0100
0001
0000
,
0010
0100
1000
0000
0100
1000
0010
0000
,
0100
0001
1000
0100
0010
0001
1000
0010
,
1000
0000
0000
0000
,
0001
0100
0010
1000
0100
0010
0100
0000
,
1000
0100
0010
0001
1000
0010
0100
0000
,
0010
0100
0001
1000
0100
1000
0001
0100
,
0010
1000
0100
1000
0010
1000
0100
0000
,
0010
0001
0100
0010
1000
0100
0010
0000
,
0001
0100
0010
1000
0100
0010
0100
0000
,
1000
0100
0010
0100
1000
0001
0100
0010
,
0100
0001
0010
0001
0100
0001
0010
0000
,
0100
1000
0010
0100
0001
1000
0100
0000
,
0010
0001
1000
0001
0010
0100
0010
0000
,
0001
0010
0100
1000
0010
1000
0001
0100
,
0001
1000
0010
0100
0001
1000
0100
0000
,
0010
0001
1000
0100
1000
0010
0100
0000
,
0001
0100
0010
1000
0100
0010
0100
0000
,
1000
0010
0100
0001
1000
0100
0010
0001
,
1000
0000
0000
0000
,
0001
0010
0100
0100
0010
0001
0001
0000
,
0100
0010
1000
1000
0001
0010
0010
0000
,
0100
1000
0010
0010
1000
0100
0100
0000
,
0010
0100
1000
0001
0010
0100
1000
0001
,
0100
0010
1000
1000
0001
0010
0010
0000
,
0100
1000
0001
0001
0100
0010
0010
0000
,
0100
0001
1000
1000
0001
0010
0010
0000
,
0001
1000
1000
0000
1000
0001
0001
0000
,
0010
0100
1000
1000
0010
0100
0100
0000
,
0001
1000
0100
0100
1000
0010
0010
0000
,
0100
0001
0010
0010
0100
1000
1000
0000
,
0010
0100
0000
0100
0001
1000
0001
1000
,
0100
0010
0000
0001
1000
0001
0001
0000
,
0100
0010
0000
1000
0001
1000
1000
0000
,
0010
0100
0000
0001
0001
1000
1000
0000
,
0100
0000
0000
0000
,
0010
0001
1000
0001
1000
0010
0100
0001
,
0010
0001
1000
0100
1000
0000
0200
0000
,
0310
0001
1000
0001
0100
0010
0100
0001
,
1000
0010
0100
0001
0020
0000
0230
0000
,
1300
0001
0010
0100
0010
0001
1000
0100
,
0010
0100
1000
0001
0010
0000
0002
0000
,
0103
0010
1000
0001
0100
0001
0010
0100
,
0020
0230
2300
3002
,
0013
0100
0000
0000
1000
0100
0000
0000
0100
1000
0000
0000
1000
0010
0000
0000
,
0010
1000
0000
0000
1000
0010
0000
0000
0010
0000
0100
0000
0100
0000
0001
0000
,
0001
0010
0000
0000
0010
0100
0000
0000
0100
1000
0000
0000
1000
0010
0000
0000
,
0010
1000
0000
0000
1000
0001
0000
0000
0001
0000
0100
0000
0100
0000
0001
0000
,
0001
1000
0000
0000
1000
0100
0000
0000
0100
0010
0000
0000
0010
0100
0000
0000
,
0100
1000
0000
0000
1000
0001
0000
0000
0001
0000
0100
0000
0100
0000
0010
0000
,
0010
1000
0000
0000
1000
0010
0000
0000
0010
0100
0000
0000
0100
0010
0000
0000
,
0010
0100
0000
0000
0010
1000
0000
0000
0010
0000
0100
0000
0010
0000
1000
0000
,
1000
0001
0000
0000
0001
0100
0000
0000
0100
0000
0100
0000
0100
0000
0000
0000
,
0100
0001
0000
0000
0001
1000
0000
0000
1000
0000
1000
0000
1000
0000
0000
0000
,
0001
1000
0000
0000
1000
0010
0000
0000
0010
0000
0010
0000
0010
0000
0000
0000
,
0010
0100
0000
0000
0100
0001
0000
0000
0001
1000
0000
0000
1000
0100
0000
0000
,
0100
0000
0000
0000
0200
0020
0000
0330
0000
0000
0000
0000
0002
0020
0000
0033
,
0000
0000
0000
0000
0020
0200
0000
0330
0000
0000
0000
0000
0200
2000
0000
3300
,
0000
0000
2000
3100
0000
0000
2000
3001
0000
0000
2000
3010
0000
0000
2000
3001
,
0000
0010
0100
1000
0100
0010
0002
0000
,
1003
0000
0000
0000
,
0100
0000
0000
0000
,
0010
0000
0000
0000
,
0000
0000
0000
0000
,
0002
0020
0003
0030
0000
0000
0000
0000
0020
0200
0030
0300
0000
0000
0000
0000
0200
2000
0300
3000
0000
0000
0000
0000
2000
0020
3000
0030
0000
0000
0000
0000
,
0020
0200
0030
0300
0000
0000
0000
0000
0200
0002
0300
0003
0000
0000
0000
0000
0002
0020
0003
0030
0000
0000
0000
0000
0020
0002
0030
0003
0000
0000
0000
0000
,
0001
1000
0000
0000
1000
0001
0000
0000
0001
1000
0000
0000
1000
0001
0000
0000
0001
1000
0000
0000
1000
0001
0000
0000
0001
1000
0000
0000
1000
0001
0000
0000
,
0001
1000
0000
0000
0000
0000
0000
0000
0000
0000
0000
0000
0000
0000
0000
0000
0000
0000
0000
0000
0000
0000
0000
0000
0000
0000
0000
0000
0000
0000
1000
0000
,
0001
0010
0100
1000
0001
0100
0010
0000
,
0100
0010
0100
0001
1000
0100
0010
0000
,
0001
1000
0100
0010
0001
0100
0010
0100
,
0001
1000
0010
1000
0100
0010
0000
0001
,
1000
0010
1000
0001
0100
0010
1000
0000
,
0010
0100
0001
0010
0100
1000
0100
0000
,
0010
0001
0100
0010
1000
0100
0010
0100
,
1000
0001
0100
0000
0100
0001
1000
0000
,
0010
0100
0001
1000
0100
0010
0001
0000
,
1000
0001
0100
0010
0100
0001
1000
0000
,
0001
0010
0100
1000
0001
0010
0100
0010
,
0001
0010
0000
0010
0000
0100
0000
0100
,
1000
0100
0010
0001
1000
0010
0100
0001
,
0010
0100
1000
0010
0100
0001
0010
0100
,
0010
0001
0010
0001
1000
0100
1000
0100
,
0010
0200
0000
0000
0000
0000
0000
0000
,
1300
0000
0000
0000
,
0000
0000
0000
0000
,
0000
0000
0000
0000
,
0020
0000
0000
0000
,
0000
0000
0000
0000
,
0000
0000
0030
0000
;
