#TITLE:01;
#SUBTITLE:- Cassius - Toop Toop;
#ARTIST:Unknown artist;
#TITLETRANSLIT:;
#SUBTITLETRANSLIT:;
#ARTISTTRANSLIT:;
#CREDIT:;
#BANNER:01 - Cassius - Toop Toop-banner.PNG;
#BACKGROUND:01 - Cassius - Toop Toop-bg.PNG;
#LYRICSPATH:;
#CDTITLE:;
#MUSIC:01 - Cassius - Toop Toop.mp3;
#OFFSET:-0.300;
#SAMPLESTART:100.000;
#SAMPLELENGTH:12.000;
#SELECTABLE:YES;
#BPMS:0.000=132.020;
#STOPS:;
#BGCHANGES:;
// cache tags:
#FIRSTBEAT:0.000;
#LASTBEAT:343.000;
#SONGFILENAME:Songs/new cedric/01 - Cassius - Toop Toop/01 - Cassius - Toop Toop.sm;
#HASMUSIC:1;
#HASBANNER:1;
#MUSICLENGTH:167.549;
// end cache tags

//---------------dance-single - ----------------
#NOTES:
     dance-single:
     :
     Hard:
     6:
     0.534,0.512,0.370,0.239,0.081,524.000,62.000,40.000,0.000,4.000:
1000
0010
1000
0010
1000
0010
1000
0010
,
0100
0001
0100
0001
0100
0001
0100
0001
,
1000
0010
1000
0010
1000
0010
1000
0010
,
0100
0010
0100
0010
0100
0010
0100
0010
,
1000
0100
1000
0100
1000
0100
1000
0100
,
0010
0100
0010
0100
0010
0100
0010
0100
,
0010
0001
1000
0001
0010
0001
1000
0001
,
0010
0001
1000
0001
0010
0001
1000
0001
,
2002
0000
0000
0003
,
3001
0000
0000
0110
,
0220
0000
0000
0030
,
0310
0000
0000
0011
0000
0000
0110
0000
,
2020
0032
0203
0302
,
3013
0000
1000
0000
1000
0000
1000
0010
,
2000
0000
0010
0100
,
3001
0000
0000
0110
0000
0000
0000
0000
1001
0000
0000
0000
1001
0000
0000
0000
,
1000
0000
0001
0000
0010
0000
0100
0000
1000
0000
0001
0000
1000
0001
0000
0001
,
1000
0001
1000
0001
0110
0000
0110
0000
,
1000
0010
1000
0010
1000
0010
1000
0010
,
0100
0000
0001
0000
0100
0000
0001
0000
0100
0000
0001
1000
0001
1000
0001
0000
,
0200
0001
0001
0001
,
0320
1000
1000
1000
,
1030
1001
1001
0011
,
0011
0110
0110
1100
,
1200
1000
1000
1300
,
1000
1000
1000
1000
,
1000
0000
0100
0000
1000
0000
0100
0000
1000
0000
0100
0000
1000
0001
0000
0001
,
0100
0001
0100
0001
0100
0001
0100
0010
,
1000
0100
0010
0001
1000
0100
0010
0001
,
1000
0100
0010
0001
1000
0100
0010
0001
,
1000
0001
1000
0001
1000
0100
1000
0100
,
1000
0010
1000
0010
1000
0010
1000
0100
,
1000
0100
1000
0100
1000
0010
1000
0010
,
1000
0001
1000
0001
1000
0001
1000
0100
,
1000
0000
0010
0000
1000
0000
0010
0000
1000
0000
0100
0000
1000
0001
0000
0001
,
0010
0001
0010
0001
0010
0001
0100
0010
,
0100
0001
0100
0001
0100
0010
0100
0010
,
0100
0001
0100
0001
0100
0001
0100
0001
,
1000
0000
0001
0000
1000
0000
0001
0000
1000
0000
0100
0000
1000
0001
0000
0001
,
1000
0001
0010
0001
0010
0001
0010
0001
,
1000
0010
1000
0010
0100
0010
0100
0010
,
0001
0010
0001
0010
0001
0010
0001
0010
,
1000
0000
0100
0000
1000
0000
0100
0000
1000
0000
0001
0000
1000
0001
0000
0001
,
1000
0010
1000
0010
1000
0010
1000
0100
,
1000
0001
1000
0001
1000
0010
1000
0010
,
1000
0100
1000
0100
1000
0100
1000
0100
,
1000
0001
1000
0001
1000
0010
1000
0010
,
1000
0001
1000
0001
1000
0001
1000
0010
,
1000
0100
1000
0100
1000
0001
0100
0001
,
0000
1000
0010
0000
0000
1000
0010
0000
0000
1000
0010
0000
0000
0000
0010
0000
,
0110
0000
0000
0000
1001
0000
0000
0000
0001
0000
0000
0000
1000
0001
0000
0001
,
0100
0110
1001
1001
,
0011
0011
1100
1100
,
0101
0101
1010
1010
,
2002
3003
1001
1001
,
0110
0000
0000
0000
0110
0000
0000
0000
1000
0000
0022
0000
0000
0033
0000
0000
,
0011
0011
1001
1001
,
0110
0110
1001
0110
,
0001
0000
0000
0000
1010
0000
0000
0000
0001
0000
0000
0000
1000
0001
0000
0001
,
1000
0000
0000
0000
1000
0000
0000
0000
0001
0000
2200
0000
0000
3300
0000
0000
,
0010
0001
0100
0000
0010
1000
0100
0001
,
0010
1000
0100
0001
0010
1000
0100
0001
,
2000
3000
0002
0003
2000
3000
0002
0003
,
2000
0000
3000
0000
0002
0000
0000
0000
2003
3000
0220
0000
0000
0000
0330
0000
,
1001
0001
0100
0001
0100
0001
0100
0000
,
0110
0110
0110
0110
,
1001
0000
0000
0000
0001
0000
1000
0000
0001
0000
0010
0000
0001
1000
0000
1000
,
0001
0001
1001
1001
,
0001
0010
1000
0010
0001
0100
1000
0100
,
0010
0100
0011
1100
,
0001
0000
0000
0000
0100
0000
0000
0000
0010
0000
0000
0000
1000
0001
0000
0001
,
0100
0000
0000
0000
0010
0000
0000
0000
1000
0000
0022
0000
0000
0033
0000
0000
,
0010
0001
1000
0100
,
0100
0010
1000
0001
,
2000
0000
0001
0000
0010
0010
3010
0000
,
2000
0000
0010
0000
0001
0001
3001
0000
,
0200
0302
2003
3002
,
0203
0000
0000
0000
0000
0000
0000
0000
0000
0000
0300
0000
1000
0000
0000
0001
0000
0000
1000
0000
0000
0001
0000
0000
1000
0000
0000
0001
0000
0000
0000
0000
0000
0000
0000
0000
1000
0000
0000
0000
0000
0000
0000
0000
0000
0000
0000
0000
,
0100
0001
1000
0000
0010
0100
0001
0000
,
1000
0001
0100
0000
1000
0001
0100
0000
,
1000
0001
0100
0010
1000
0001
0100
0010
,
1000
0001
0100
0001
2000
0000
0010
0000
,
0100
0001
0001
0001
,
0001
0000
3001
0000
0200
0002
0000
0003
,
0001
0001
0001
0000
0001
0000
0001
0000
,
0001
0001
0301
0000
0011
0000
1100
0000
;

//---------------dance-single - ----------------
#NOTES:
     dance-single:
     :
     Edit:
     1:
     0.000,0.000,0.000,0.000,0.000,0.000,0.000,0.000,0.000,0.000:
0000
0000
0000
0000
;
