#TITLE:TRUE LOVE;
#SUBTITLE:;
#ARTIST:jun159;
#TITLETRANSLIT:;
#SUBTITLETRANSLIT:;
#ARTISTTRANSLIT:;
#CREDIT:;
#BANNER:TRUE LOVE.png;
#BACKGROUND:TRUE LOVE-bg.png;
#LYRICSPATH:;
#CDTITLE:Dis159.png;
#MUSIC:TRUE LOVE.mp3;
#OFFSET:-0.481;
#SAMPLESTART:47.620;
#SAMPLELENGTH:15.000;
#SELECTABLE:YES;
#BPMS:0.000=188.000,228.000=375.999,229.000=188.000,293.000=375.999;
#STOPS:228.000=0.480
;
#BGCHANGES:;
// cache tags:
#FIRSTBEAT:0.000;
#LASTBEAT:300.000;
#SONGFILENAME:Songs/Definitive Keyboard Megapack/True love(Disregard159)/TRUE LOVE.sm;
#HASMUSIC:1;
#HASBANNER:1;
#MUSICLENGTH:96.869;
// end cache tags

//---------------dance-double - ----------------
#NOTES:
     dance-double:
     :
     Easy:
     4:
     0.229,0.301,0.010,0.010,0.000,153.000,1.000,1.000,0.000,0.000:







00000000
00000000
00000000
00000000
,
00000000
00000000
00000000
00000000
,
00000000
00000000
00000000
00000000
,
00000000
00000000
00000000
00000000
,
00001000
00000000
00000010
00000000
,
00000001
00000000
00000100
00000000
,
00000001
00000000
00000010
00000000
,
00000001
00001000
00000001
00000000
,
00000001
00000000
00000100
00000000
,
00001000
00000000
00010000
00000000
,
01000000
00000000
10000000
00000000
,
00010000
00000000
10000000
00000000
,
00100000
00000000
00010000
00000000
,
01000000
00000000
10000000
00000000
,
00100000
00000000
00010000
00000000
,
00001000
00000000
00010000
00000000
,
00002000
00000000
00000000
00003000
,
00000010
00000000
00000001
00000000
,
00000010
00000000
00000100
00000000
,
00001000
00000000
00000010
00000000
,
00000001
00000000
00001000
00000000
,
00000001
00000000
00000100
00000000
,
00001000
00000000
00010000
00000000
,
01000000
00000000
00100000
00000000
,
00010000
00000000
10000000
00000000
,
00010000
00000000
01000000
00000000
,
10000000
00000000
01000000
00000000
,
10000000
00000000
00100000
00000000
,
00010000
00000000
00001000
00000000
,
00000100
00000000
00000001
00000000
,
00000010
00000000
00001000
00000000
,
00000001
00000000
00001000
00000000
,
00000001
00001000
00000001
00000000
,
00000100
00000100
00000010
00000000
,
00000100
00000000
00000001
00000000
,
00000010
00000010
00001000
00000000
,
00010000
00000000
00001000
00000000
,
00010000
00010000
00100000
00000000
,
10000000
00000000
01000000
00000000
,
10000000
00000000
00010000
00000000
,
10000000
00010000
10000000
00010000
,
00100000
00000000
00100000
00000000
,
10000000
00000000
10000000
00000000
,
01000000
00000000
01000000
00000000
,
00010000
00010000
00010000
00000000
,
00001000
00000000
00001000
00000000
,
00000100
00000000
00000100
00000000
,
00000010
00000000
00000010
00000000
,
00000001
00001000
00000001
00000000
,
00000010
00000000
00000100
00000000
,
00001000
00000000
00000100
00000000
,
00000001
00000000
00001000
00000000
,
00000010
00000000
00001000
00000000
,
00010000
00000000
01000000
00000000
,
00100000
00000000
10000000
00000000
,
00100000
00000000
01000000
00000000
,
00010000
00000000
10000000
00000000
,
01000000
00000000
00000000
00000000
,
00010000
00000000
00000000
00000000
,
00001000
00000000
00000000
00000000
,
00000100
00000000
00000000
00000000
,
00001000
00000000
00000001
00000000
,
00000100
00000000
00000010
00000000
,
00000001
00000000
00001000
00000000
,
00000001
00001000
00000001
00000000
,
00000100
00000100
00000010
00000000
,
00000001
00000001
00000100
00000000
,
00000010
00000010
00001000
00000000
,
00010000
00010000
00001000
00001000
,
00010000
00010000
01000000
00000000
,
10000000
10000000
01000000
00000000
,
00100000
00100000
01000000
00000000
,
00010000
10000000
00010000
00000000
,
10010000
00000000
00000000
00000000
;

//---------------dance-double - ----------------
#NOTES:
     dance-double:
     :
     Medium:
     5:
     0.459,0.528,0.403,0.103,0.000,262.000,39.000,10.000,0.000,0.000:







00000000
00000000
00000000
00000000
,
00000000
00000000
00000000
00000000
,
00000000
00000000
00000000
00000000
,
00000000
00000000
00000000
00000000
,
10000000
00000000
00100000
00000000
,
00010000
00000000
01000000
00000000
,
00010000
00000000
00100000
00000000
,
00010000
10000000
00100000
10010000
,
00100000
01000000
10000000
00100000
,
00010000
00001000
00010000
01000000
,
00010000
00001000
00000010
00000001
,
00000100
00001000
00000100
00000001
,
00000010
00001000
00000010
00000001
,
00000100
00001000
00010000
00100000
,
10000000
00100000
01000000
10000000
,
00100000
00010000
01000000
00001000
,
00020000
00000000
00030000
00011000
,
00001000
00000100
00000001
00000101
,
00001000
00000010
00000001
00001100
,
00010000
00000010
00001000
00010000
,
01000000
00100000
10000000
01010000
,
00100000
00010000
01000000
11000000
,
00100000
00010000
00001000
00000110
,
00000100
00000001
00000010
00001000
,
00000001
00000100
00001000
00000110
,
00001002
00000100
00001000
00000013
,
00000100
00001000
00010000
01000000
,
20010000
00100000
00010000
31000000
,
00100000
01000000
00010000
00100000
,
00021000
00000010
00001000
00030010
,
00001000
00000100
00000001
00000110
,
00001000
00000010
00000001
00000100
,
00001000
00010000
00001000
00011000
,
00110000
11000000
00100000
01000000
,
10000000
00100000
00010000
00100000
,
11000000
01010000
00100000
00001000
,
00010000
00000100
00001000
00000010
,
00000101
00000011
00000100
00001000
,
00000010
00000001
00000010
00001000
,
00010000
01000000
10000000
00100000
,
01000000
00010000
00100000
10010000
,
01000000
00010000
00001000
00000010
,
00001000
00010000
00100000
00010000
,
00001000
00000100
00001000
00010000
,
01000000
10000000
00100000
00010000
,
00001000
00000100
00001000
00010000
,
00001000
00000010
00001000
00010000
,
01000000
00010000
00001000
00000010
,
00000001
00001000
00000010
00000101
,
00002001
00000010
00000001
00003100
,
00000001
00000100
00001000
00010000
,
00100000
01000000
10000000
01000000
,
10000000
01100000
10010000
01100000
,
10020000
01000000
00100000
10030000
,
00100000
00010000
10000000
01000000
,
00010000
00001000
00010000
00100000
,
00010000
00001000
00000100
00001001
,
00000010
00000001
00000100
00000000
,
00000010
00001000
00000100
00000000
,
00000010
00000000
00000001
00000000
,
00001000
00000100
00000010
00000000
,
00000001
00000100
00001000
00010000
,
01000000
10000000
00100000
00010000
,
02200000
03300000
20020000
30030000
,
00100000
00010000
01000000
10010000
,
00100000
11000000
00100000
01010000
,
10000000
00100000
00010000
00001000
,
00000100
00001001
00000010
00001001
,
00000010
00001000
00000100
00001000
,
00000010
00000101
00000010
00001100
,
00000001
00000110
00001000
00000110
,
00000001
00000010
00001000
00010000
,
00001000
00010000
01000000
00100000
,
10010000
00000000
00000000
00000000
;

//---------------dance-double - ----------------
#NOTES:
     dance-double:
     :
     Hard:
     8:
     0.599,0.678,0.578,0.010,0.015,349.000,56.000,1.000,0.000,0.000:







00000000
00000000
00000000
00000000
,
00000000
00000000
00000000
00000000
,
00000000
00000000
00000000
00000000
,
00000000
00000000
00000000
00000000
,
00000001
00000100
00000010
00000000
00001000
00000000
00000000
00000000
,
00001000
00000001
00000010
00000000
00000100
00000000
00000000
00000000
,
00001000
00000001
00000100
00001000
,
00010000
00000000
00000000
00100000
00000000
00000000
01000000
00000000
00100000
00000000
00000000
00000000
10010000
00000000
00000000
00000000
,
00100000
01000000
00000000
00001000
00010000
00001000
00000000
00100000
,
00010000
10000000
00000000
01000000
00010000
00001000
00000000
00000010
,
00000001
00001000
00000000
00000001
00000010
00000100
00000000
00001000
,
00000010
00000100
00001000
00010000
,
00000010
00001000
00000000
00000100
00010000
00000100
00000000
00001000
,
00000010
00000100
00000000
00001000
00010000
00100000
00000000
10000000
,
00010000
00100000
00000000
01000000
10000000
00010000
00000000
01000000
,
00001000
00010000
00000000
00010000
00001000
00000100
00000001
00000000
,
00000020
00000000
00000030
00001001
,
00000010
00000000
00000100
00000001
00000000
00000010
00000100
00000000
,
00001000
00000000
00000001
00000100
00000000
00001000
00010000
00000000
,
00100000
00000000
10000000
00000000
01000000
00100000
00010000
00000000
,
01000000
00000000
00001000
00010000
00000000
00000010
00001000
00000000
,
00000100
00000000
00010000
00001000
00000000
00100000
00010000
00000000
,
10000000
00000000
01000000
00010000
00000000
00001000
00000100
00000000
,
00000001
00000000
00001000
00000000
00000010
00000100
00000001
00000000
,
00001000
00000100
00000000
00000010
00000000
00000001
00000100
00000000
,
00001010
00011000
01010000
11000000
,
00100000
00000000
00001000
00000000
00010000
00000100
00000010
00000000
,
00000101
00001100
00011000
00110000
,
10000000
00000000
00100000
00000000
01000000
00010000
10000000
00000000
,
01100000
10010000
01001000
00010010
,
00000100
00000000
00001000
00000000
00000010
00000100
00000001
00000000
,
00001000
00000100
00000010
00000000
00000001
00000100
00001000
00000000
,
00010000
00000000
01000000
10000000
00000000
00010000
01000000
00000000
,
10010000
00000000
01100000
00000000
00010000
10000000
00100000
00000000
,
00010000
00000000
00001000
00010000
00000000
00000010
00001000
00000000
,
00000101
00000000
00001010
00000000
00000100
00010000
00001000
00000000
,
00100000
00000000
00010000
10000000
00000000
00100000
01000000
00000000
,
10010000
00000000
01001000
00000000
00010000
00000010
00001000
00000000
,
00000100
00000000
00010000
00001000
00000000
00100000
00010000
00000000
,
01000000
00000000
00001000
00000000
00010000
00000100
00000010
00000000
,
00000001
00000000
00000000
00001000
00000000
00000000
00000010
00000000
00000100
00000000
00000000
00000000
00001001
00000000
00000000
00000000
,
00000100
00010000
00000100
00000000
00001000
00000010
00000100
00000000
,
00001000
00010000
00001000
00000000
00100000
00010000
01000000
00000000
,
00100000
10000000
00100000
00000000
01000000
00001000
00010000
00000000
,
00110000
00011000
00001100
00000101
,
00000010
00001000
00000010
00000000
00010000
00001000
00000100
00000000
,
00000010
00001000
00000010
00000000
00010000
00001000
00000010
00000000
,
00000001
00000100
00000001
00000000
00001000
00000100
00000010
00000000
,
00000001
00001000
00000000
00000110
00000000
00001000
00000001
00000000
,
00000101
00001010
00011000
01010000
,
00011000
00001010
00011000
01010000
,
11000000
10100000
00110000
00011000
,
00001100
00000000
00000011
00000000
00000100
00001000
00010000
00000000
,
00110000
11000000
10100000
01010000
,
00011000
00001010
00000101
00000011
,
00001100
00011000
00110000
10100000
,
01010000
00000000
10100000
00000000
01000000
00010000
10000000
01000000
,
00010000
00000000
00001000
00000000
00000100
00000000
00000001
00000010
,
00000000
00000100
00000000
00001000
00000000
00000001
00000100
00000000
,
00001000
00000000
00010000
00000000
00100000
00000000
00010000
00001000
,
00000000
00000010
00000000
00000001
00000000
00000100
00001000
00000000
,
00010000
00000000
01000000
00000000
10000000
00000000
00010000
01000000
,
00000000
00100000
00000000
10000000
01000000
00100000
00010000
00000000
,
10000000
01000000
10000000
00000000
00010000
01000000
00010000
00000000
,
00100000
00000000
00000000
00001000
00000000
00000000
00010000
00000000
00000010
00000000
00000000
00000000
00001001
00000000
00000000
00000000
,
00000010
00000100
00000010
00000000
00000001
00000100
00001000
00000000
,
00010000
00001000
00010000
00000000
00000010
00001000
00000100
00000000
,
00000010
00000001
00000010
00000000
00000100
00010000
00001000
00000000
,
00100000
00000000
00010000
01000000
00000000
00100000
10000000
00000000
,
01000000
00010000
00001000
00000000
00000100
00001000
00010000
00000000
,
01000000
10000000
00100000
00000000
01000000
00001000
00010000
00000000
,
01000000
00010000
00001000
00000000
00000100
00000001
00000010
00000000
,
00000100
00001000
00000000
00000001
00000000
00000100
00001000
00000000
,
00011000
00000000
00000000
00000000
;

//---------------dance-single - ----------------
#NOTES:
     dance-single:
     :
     Challenge:
     19:
     1.000,1.000,1.000,0.970,1.000,781.000,617.000,94.000,0.000,230.000:

2220
0000
0000
0330
3101
0000
0000
0000
1001
0000
0110
0000
0101
0000
1010
0000
,
0000
1011
1101
0110
0000
0011
0000
0110
,
0222
0000
0000
0000
0000
0000
0300
0000
0033
0000
0000
0000
0000
0000
0000
0000
0000
0000
0000
0000
0000
0000
0000
0000
1100
0000
0000
0000
0000
0000
0000
0000
0000
0000
0000
0000
0000
0000
0000
0000
0000
0000
0000
0000
0000
0000
0000
0000
1011
0000
0000
0000
0000
0000
0000
0000
0000
0000
0000
0000
0000
0000
0000
0000
0000
0000
0000
0000
0000
0000
0000
0000
0111
0000
0000
0000
0000
0000
0000
0000
0000
0000
0000
0000
0000
0000
0000
0000
0000
0000
0000
0000
0000
0000
0000
0000
0000
0000
0000
0000
0000
0000
0000
0000
0000
0000
0000
0000
0000
0000
0000
0000
0000
0000
0000
0000
0000
0000
0000
0000
1110
0000
0000
0000
0000
0000
0000
0000
0000
0000
0000
0000
0000
0000
0000
0000
0000
0000
0000
0000
0000
0000
0000
0000
0000
0000
0000
0000
0000
0000
0000
0000
0000
0000
0000
0000
0000
0000
0000
0000
0000
0000
0000
0000
0000
0000
0000
0000
0110
0000
0000
0000
0000
0000
0000
0000
0000
0000
0000
0000
0000
0000
0000
0000
0000
0000
0000
0000
0000
0000
0000
0000
,
2202
3000
0303
0000
1010
0000
0000
0000
0101
0000
0000
0000
1001
0000
0000
0000
0000
0000
0000
0000
0000
0000
0000
0000
0000
0000
0000
0000
0000
0000
0000
0000
,
0222
0030
1303
0000
0101
0000
0000
0000
1100
0000
0001
0000
1010
0000
0000
0000
0011
0000
1100
0000
0011
0000
0000
0000
1001
0000
0110
0000
1000
0000
0000
0000
,
0110
1001
0110
0000
1001
0100
1010
0000
0011
1100
0011
0000
1100
0011
1100
0000
,
0011
1100
0011
0000
1001
0110
1001
0000
0101
1010
0101
0000
1001
0110
1001
0000
,
2222
0000
0033
0000
0000
0000
3322
0003
0030
0000
0000
0000
2221
0000
3030
0000
2322
0000
3033
0000
0000
0000
0000
0000
1101
0000
0010
0000
1101
0000
0010
0000
,
0101
0000
0000
1010
0000
0000
0101
0000
0000
1010
0000
0000
0101
0000
0000
1010
0000
0000
0101
0000
0000
1010
0000
0000
0001
0000
0000
1100
0000
0000
0011
0000
0000
1100
0000
0000
0010
0000
0000
1101
0000
0000
0010
0000
0000
1100
0001
0000
,
0010
0101
1010
0101
1010
0101
1010
0100
1001
0110
1001
0110
1001
0110
1001
0110
,
1001
0110
1001
0110
1001
0110
0001
1010
0101
1010
0101
1010
0001
1100
0011
0100
,
1011
0100
1001
0110
1000
0101
1010
0101
1010
0100
0011
1100
0011
0100
0011
1100
,
0011
1100
0011
1000
0110
1001
0110
0001
0110
1001
0110
1000
0110
1000
0110
1001
,
0110
0001
1010
0101
1010
0101
1010
0101
1010
0101
1000
0100
1010
0101
0010
0001
,
2220
0030
3301
0000
0110
0000
1001
0000
0110
0000
1001
0000
0110
0000
1001
0000
0010
0000
1100
0000
0011
0000
0100
0000
0011
0000
1100
0000
0011
0000
1000
0000
,
0121
0030
1000
0000
0101
0000
1000
0000
0011
0000
1100
0000
0001
0000
1100
0000
0011
0000
0100
0000
0011
0000
1100
0000
0000
0000
0101
0000
1000
0000
0011
0000
,
0000
0000
1011
0100
1000
0011
1100
0010
1101
0000
1111
0000
1111
0000
0000
0000
,
1111
0000
0000
0000
1110
0000
0000
0000
0111
0000
0000
0000
2120
3030
0000
0000
0101
0000
0000
0000
2021
3030
0000
0000
0101
0000
0000
0000
1010
0000
0000
0000
,
1101
0000
0000
0000
1110
0000
0000
0000
1101
0000
0000
0000
0122
0033
0000
0000
1100
0000
0000
0000
0122
0033
0000
0000
1010
0000
0000
0000
0101
0000
0000
0000
,
1011
1110
0111
1101
0011
1110
0011
1110
,
1101
0111
1110
1101
0110
1100
0011
1100
,
0111
0000
0000
0000
1110
0000
0000
0000
0111
0000
0000
0000
2111
3000
0000
0000
0111
0000
0000
0000
2121
3030
0000
0000
0110
0000
0000
0000
1011
0000
0000
0000
,
0111
0000
0000
0000
1110
0000
0000
0000
0111
0000
0000
0000
1122
0033
0000
0000
1100
0000
0000
0000
1122
0033
0000
0000
1100
0000
0000
0000
0110
0000
0000
0000
,
1011
1110
0111
1011
0101
1101
1010
0101
,
1220
0330
0000
0000
2211
3300
0000
0000
0010
0000
0000
0000
0212
0303
0000
0000
1100
0000
0000
0000
2120
3030
0000
0000
0011
0000
0000
0000
1100
0000
0000
0000
,
0111
0000
0000
0000
1100
0000
0000
0000
2120
3030
0000
0000
0101
0000
0000
0000
1011
0000
0000
0000
0110
0000
0000
0000
2201
3300
0000
0000
0212
0303
0000
0000
,
1110
1101
1110
0111
1100
0111
1110
1011
,
0111
1110
1011
1110
0111
1111
0111
1110
,
0111
1110
1011
1101
1110
0111
1100
0111
,
1110
0000
0000
0000
1011
0000
0000
0000
2222
3333
0000
0000
1101
0000
0000
0000
1110
0000
0000
0000
0101
0000
0000
0000
2120
3030
0000
0000
2102
3003
0000
0000
,
0110
1011
1101
1110
1011
0111
1101
1110
,
0000
0000
0000
0000
0020
0000
1101
0000
1101
0000
0000
0000
1101
0030
0000
0000
,
1110
0000
0000
1110
0000
1111
1110
0000
,
1101
1001
0110
0110
1101
1011
0111
0111
,
1100
1011
0111
1110
0001
1110
0101
1110
,
2211
3300
0000
0000
1110
0000
0000
0000
2112
3003
0000
0000
0011
0000
0000
0000
0110
0000
0000
0000
1101
0000
0000
0000
1110
0000
0000
0000
1011
0000
0000
0000
,
0111
1111
1110
1100
0011
0110
1001
1100
,
0221
0330
0000
0000
1110
0000
0000
0000
2102
3003
0000
0000
0101
0000
0000
0000
1110
0000
0000
0000
1110
0000
0000
0000
0111
0000
0000
0000
1011
0000
0000
0000
,
1110
0111
1101
1110
0101
1110
0110
1101
,
1110
0000
0111
0000
1110
0001
1110
0000
0011
0000
1110
0000
0111
0000
1101
0000
,
1011
0000
0000
1110
0000
0000
1011
0000
1101
0000
0000
0000
0011
1100
0011
1100
,
0011
1000
0100
1010
0101
1000
0111
1000
0110
1001
0110
1000
0011
1100
0011
1000
,
0111
1000
0111
1000
0111
1000
0110
1000
0101
1010
0101
1010
0101
1000
0111
1000
,
0110
1001
0110
1000
0011
1100
0010
1001
0100
1011
0100
1010
0101
0000
1110
0000
,
1111
0000
1111
0000
1111
0000
2111
3000
0000
0000
2222
0333
3000
0000
0000
0000
,
1100
0011
1100
0001
1110
0001
1110
0001
0110
1001
0110
0001
1110
0001
1010
0001
,
0100
1011
0100
0011
1100
0001
1110
0001
0110
0001
1110
0001
1010
0101
0010
1001
,
0110
0001
1100
0011
1100
0001
1110
0001
0100
1011
0100
0011
1100
0000
1011
0000
,
0111
1011
0000
1110
0000
1112
0000
0003
,
1001
0110
1001
0110
1001
0100
0011
1100
0011
1100
0011
1100
0001
1110
0001
0110
,
1001
0010
0100
1010
0101
0010
0101
1010
0101
0010
0100
1010
0001
1110
0001
0110
,
0001
1100
0010
0100
0011
1100
0010
1100
0011
1100
0010
0101
0010
1001
0110
1000
,
0011
0100
0011
1100
0010
0100
0011
1100
0010
0100
0011
1100
0010
1101
0010
0100
,
0010
1100
0011
1100
0010
1100
0011
0100
0011
1100
0011
1100
0010
1001
0010
1101
,
0010
0001
1010
0100
0010
0101
1010
0101
0010
0101
1010
0101
1010
0101
1010
0101
,
0010
1000
0110
0001
0110
1001
0110
0001
0110
1001
0110
0001
0110
1000
0111
1000
,
0011
1100
0011
1100
0010
0100
0011
1100
0010
0100
0011
1000
0100
0011
1100
0011
,
1200
0300
0000
0000
0000
0000
0000
0000
0000
0000
0000
0000
0000
0000
0000
0000
0000
0000
0000
0000
0000
0000
0000
0000
0000
0000
0000
0000
0000
0000
0000
0000
0000
0000
0000
0000
0000
0000
0000
0000
0000
0000
0000
0000
0000
0000
0000
0000
1111
0000
0000
0000
0000
0000
0000
0000
0000
0000
0000
0000
0000
0000
0000
0000
0000
0000
0000
0000
0000
0000
0000
0000
0000
0000
0000
0000
0000
0000
0000
0000
0000
0000
0000
0000
0000
0000
0000
0000
0000
0000
0000
0000
0000
0000
0000
0000
1111
0000
0000
0000
0000
0000
0000
0000
0000
0000
0000
0000
0000
0000
0000
0000
0000
0000
0000
0000
0000
0000
0000
0000
0000
0000
0000
0000
0000
0000
0000
0000
0000
0000
0000
0000
0000
0000
0000
0000
0000
0000
0000
0000
0000
0000
0000
0000
1110
0000
0000
0000
0000
0000
0000
0000
0000
0000
0000
0000
0000
0000
0000
0000
0000
0000
0000
0000
0000
0000
0000
0000
1011
0000
0000
0000
0000
0000
0000
0000
0000
0000
0000
0000
0000
0000
0000
0000
0000
0000
0000
0000
0000
0000
0000
0000
,
0111
1110
0000
1110
0111
1110
0000
1011
,
0000
0000
1110
0111
1010
1101
0000
1101
,
0000
0111
1010
1011
1100
2111
3000
0000
,
0000
0000
0000
0000
1101
0010
1100
0000
1001
0010
0101
0000
0011
0100
1010
0000
,
1010
0100
0011
0000
0101
1000
0100
0000
0100
1000
0011
0000
1001
0110
1001
0000
,
0101
1010
0101
0000
0011
1100
0011
0000
1010
0101
1010
0000
0101
1010
0101
0000
,
1100
0010
0101
0000
1111
0000
0000
1111
0000
0000
1111
0000
1111
0000
0000
0000
,
1111
0000
0000
0000
0110
1001
0110
0001
1110
0001
0110
1001
0100
0011
1100
0011
,
1100
0001
0110
1001
0110
1001
0110
0001
1110
0001
0110
1001
0110
0001
1110
0001
,
1010
0101
1010
0001
0110
1001
0110
0001
1110
0001
0110
1001
0110
0001
1110
0001
,
1110
0000
1111
0000
0111
0000
0000
0000
0111
0000
1100
0011
0000
0000
2222
0000
,
0000
0000
3333
0000
0110
1001
0110
1000
0011
1100
0010
1001
0100
1010
0101
1010
,
0001
1100
0011
1000
0111
1000
0111
1000
0111
1000
0110
1001
0110
1001
0100
1010
,
0001
1100
0010
1001
0100
1010
0101
1000
0011
1100
0010
1001
0100
1010
0101
1010
,
0101
0010
1101
0000
1111
0000
1111
0000
0000
0000
1111
0000
0000
0000
2222
0000
,
0000
0000
0330
3003
2222
0000
0000
0000
0000
0000
0000
0000
0000
0000
0000
0000
,
0000
0000
0000
0000
,
3333
0000
0000
0000
;
