#TITLE:ZAP YOUR CHANNEL;
#SUBTITLE:-Hard Edit-;
#ARTIST:DJ Sharpnel;
#TITLETRANSLIT:;
#SUBTITLETRANSLIT:;
#ARTISTTRANSLIT:;
#CREDIT:;
#BANNER:logo.png;
#BACKGROUND:zapyourchannel.png;
#LYRICSPATH:;
#CDTITLE:;
#MUSIC:06_zap_your_channeldj_sharpnel.mp3;
#OFFSET:0.000;
#SAMPLESTART:18.700;
#SAMPLELENGTH:10.060;
#SELECTABLE:YES;
#BPMS:0.000=319.240,24.333=400.939,559.500=210.461,652.000=400.979;
#STOPS:419.500=0.120
,422.500=0.120
,425.500=0.120
,428.500=0.120
,431.500=0.120
,434.500=0.120
,437.500=0.120
,440.500=0.120
,443.500=0.120
,446.500=0.120
,449.500=0.120
,452.500=0.120
,590.000=0.120
,591.500=0.060
,593.000=0.060
,594.000=0.060
,598.500=0.060
,602.000=0.060
,603.000=0.440
,897.500=0.080
;
#BGCHANGES:;
// cache tags:
#FIRSTBEAT:0.000;
#LASTBEAT:1142.000;
#SONGFILENAME:Songs/juju step2/[Chiika]Zap Your Channel/06_zap_your_channeldj_sharpnel.sm;
#HASMUSIC:1;
#HASBANNER:1;
#MUSICLENGTH:187.115;
// end cache tags

//---------------dance-single - ----------------
#NOTES:
     dance-single:
     :
     Challenge:
     11:
     1.000,1.000,0.609,0.208,0.270,1253.000,114.000,39.000,0.000,1.000:
1001
0000
0000
1100
0000
0000
0000
0000
,
0110
0000
0000
0000
0000
0000
0000
0000
0000
0011
0000
0000
0000
0000
0000
0000
0000
0000
1100
0000
0000
0000
0011
0000
,
0000
0000
0001
1000
0001
1000
0001
1000
,
0110
0000
0000
0000
0000
1100
0000
0000
0000
0000
0000
0000
,
0110
0000
0000
0000
0000
0000
0000
0000
0001
0000
0000
0000
0000
0000
0000
0000
0000
0000
0000
0000
0000
1001
0000
0000
,
0000
0000
0000
0001
0000
0010
0000
0001
0000
0010
0000
0100
0000
1000
0000
0100
,
0000
1001
0000
0000
1000
0000
0000
1100
0000
0000
0100
0000
,
0000
0110
0000
0000
0010
0000
0000
0011
0000
0000
0010
0000
,
0000
0110
0000
0000
0100
0000
0000
1100
0000
0000
0100
0000
,
0000
0110
0000
0000
0010
0000
0000
0011
0000
0000
0010
0000
,
0000
0110
0000
0000
0100
0000
0000
1100
0000
0000
0100
0000
,
0000
0110
0000
0000
0010
0000
0000
0011
0000
0000
0010
0000
,
0000
0000
0110
0000
0000
0000
0000
0000
0100
0000
0000
0000
0000
0000
1100
0000
0000
0000
0100
0000
0000
0010
0000
0000
,
0100
0000
0000
0010
0000
0000
0100
0000
0000
0010
0000
0000
0100
0000
1000
0000
0000
0000
0000
0000
0100
0000
0000
0000
,
0000
0010
0000
0000
0001
0000
0000
0010
0000
0000
0100
0000
,
0000
0010
0000
0000
0001
0000
0000
0010
0000
0000
0100
0000
,
0000
1000
0000
0000
0100
0000
0000
0010
0000
0000
0100
0000
,
0000
0001
0000
0000
0010
0000
0000
0100
0000
0000
0010
0000
,
0000
0100
0000
0000
1000
0000
0000
0100
0000
0000
1000
0000
,
0000
0100
0000
0000
0010
0000
0000
0001
0000
0000
0010
0000
,
0000
0001
0000
0000
0010
0000
0000
0100
0000
0000
0010
0000
,
0000
1000
0000
0000
0100
0000
0000
0010
0000
0000
0100
0000
,
0000
0001
0000
0000
0010
0000
0000
0100
0000
0000
0010
0000
,
0000
0100
0000
0000
1000
0000
0000
0100
0000
0000
0010
0000
,
0000
0100
0000
0000
0001
0000
0000
0010
0000
0000
0100
0000
,
0000
1000
0000
0000
0100
0000
0000
0010
0000
0000
1000
0000
,
0000
0001
0000
0000
0100
0000
0000
0010
0000
0000
2002
0000
,
0000
0000
0000
0000
0000
0000
3003
1000
,
0100
1000
0100
1000
0000
0000
1000
0100
,
1000
0100
1000
0000
0100
0000
0010
0000
,
0100
1000
0100
0010
,
0001
0000
0010
0001
0010
0000
0100
1000
,
0100
0000
1000
0000
0100
0000
0010
0001
,
0010
0100
0010
0100
,
0010
0000
0100
0000
1000
0100
1000
0010
,
0001
0000
0000
0010
0000
0000
0000
0000
0010
0000
0000
0000
0000
0000
0100
0000
0000
0000
0000
0000
0010
0000
0000
0000
,
0000
0000
0001
0000
0000
0000
0000
0000
0000
1000
0000
0000
0100
0000
0000
1000
0000
0000
0100
0000
0000
0000
0000
0000
,
0010
0001
0010
0100
,
1000
0000
0100
0000
0010
0000
0001
0010
,
0001
0010
0001
0100
1000
0100
0000
0100
,
0000
0010
0000
0010
0100
0010
0100
0000
,
0010
0100
1000
0001
,
0100
1000
0100
0010
0001
0010
0000
0100
,
0000
1000
0000
0100
0000
0010
0000
1001
,
0000
0000
0000
1100
0000
0000
0000
0100
,
0000
0010
0000
0100
0000
0000
0001
0000
,
0000
0100
0000
1100
,
0000
0110
0000
0011
0000
1001
0000
0000
,
0000
1001
0000
0000
0000
1000
0000
0100
,
0000
0010
0000
0000
0000
0001
0000
0000
,
0010
0000
0110
0000
,
0110
0000
0000
0000
1001
0000
0000
0000
1100
0000
0000
0000
0000
0000
0000
1100
,
0000
0000
0000
0100
0000
0001
0000
0100
,
0000
0000
0000
1000
0000
0000
0100
0000
,
0000
1100
0110
0011
,
1001
0110
0000
1000
,
0000
0100
0000
0010
0000
0100
0000
0000
,
0000
0010
0000
0000
0000
0100
0000
0000
,
0000
0000
0000
1010
0000
0000
0000
0000
0000
1100
0000
0000
0000
0000
0011
0000
0000
0000
0000
0000
0000
0000
0000
0000
,
1100
0100
1000
0100
,
0010
0100
0001
0010
,
0100
1000
0010
0100
,
0001
0010
0100
0010
,
0100
1000
0010
0001
,
0010
0100
0001
1000
,
0100
0010
1000
0100
,
0010
0100
0001
1000
,
0100
0010
0100
1000
,
0100
0001
0010
0100
,
1000
0001
0100
1000
,
0100
0010
0100
1000
,
0100
1000
0010
0001
,
0010
0100
0010
0100
,
1000
0100
1000
0010
,
1000
0000
0010
0001
0010
0001
0100
1000
,
0100
1000
0100
0000
0100
0000
0010
0000
,
0001
0010
0100
0010
,
0001
0000
0100
0000
1000
0000
0100
1000
,
0100
1000
0100
0010
0001
0010
0001
0010
,
0100
0010
0100
1000
,
0100
0010
1000
0001
,
0100
0000
0010
0000
0100
0000
0100
0010
,
0100
0010
0010
0100
0010
0100
1000
0000
,
0100
1000
0010
0001
,
0010
0100
0010
0100
,
0010
0000
1000
0000
0100
0001
0100
0001
,
0010
1000
0010
1000
0010
0000
1000
0000
,
0100
1000
0010
0100
,
0001
0100
0010
0100
,
0100
0000
1000
0100
0000
0100
0000
0100
,
0010
0001
0000
0001
0000
0001
0010
0100
,
0000
0100
0000
0100
0010
1000
0000
1000
,
0000
1000
0100
0010
0000
0010
0000
0010
,
0000
0010
0000
0010
0000
0010
0000
0010
,
0000
0100
0000
0010
0000
1000
0000
0001
,
0000
0100
0000
0010
0000
1000
0000
0100
,
0000
0010
0000
0010
0000
0100
0000
1000
,
0100
0000
0100
0000
0100
0010
0001
0000
,
0001
0000
0001
0010
0001
0000
0001
0000
,
0001
0010
0100
0000
0100
0000
0100
0010
,
0000
0010
0000
0010
0100
1000
0000
1000
,
0000
1000
0000
1000
0000
1000
0000
1000
,
0000
1000
0000
1000
0000
0100
0000
0010
,
0000
0001
0000
0010
0000
0100
0000
0010
,
0000
0100
0000
0010
0000
0001
0000
0011
,
0000
0010
0000
0100
0000
1100
0000
0100
,
0000
0010
0000
0110
0000
0100
0000
0010
,
0000
0011
0000
0010
0000
0001
0000
1100
,
0000
0100
0000
0010
0000
0101
0000
0001
,
0000
0010
0000
1100
0000
0100
0000
1000
,
0000
1001
0000
0100
0000
1000
0000
0110
,
0000
0100
0000
0010
0000
0101
0000
0001
,
0000
0100
0000
1100
0000
0010
0000
0100
,
0000
0101
0000
1000
0000
0100
0000
0010
,
0000
0001
0000
0010
0000
0100
0000
1000
,
0000
0100
0000
0010
0000
0001
0000
0010
,
0000
0200
0000
0000
0000
0000
0000
0000
,
0300
1000
0100
1000
0100
0010
0100
0010
,
0001
0010
0001
0010
0100
0010
0100
1000
,
0100
1000
0100
0010
0100
0010
0001
0010
,
0001
0110
0000
0000
1001
0000
0000
0110
,
0000
0100
0000
1000
0000
0100
0000
0010
,
0000
0100
0000
0010
0000
0001
0000
0010
,
0100
0000
1000
0100
0000
0100
0110
0000
,
0010
0001
0010
0001
0010
0011
0000
0100
,
0000
0010
0000
0100
0000
0010
0000
0001
,
0000
0010
0000
0100
0000
0110
0000
1000
,
0000
0100
0000
0010
0000
0100
0000
0010
,
0000
0100
0000
0011
0000
0100
0000
1000
,
0000
0100
0000
0010
0000
0100
0000
1000
,
0000
0010
0000
0100
0000
1000
0001
1000
,
0000
0100
0000
0010
0000
1000
0000
0010
,
0000
0100
0000
0110
0000
1000
0000
0100
,
0000
0010
0000
0100
0000
0010
0000
0100
,
0000
1100
0000
0010
0000
0001
0000
0010
,
0000
1000
0000
0100
0000
0010
0000
0100
,
0000
0101
0000
1100
0000
0110
0000
1001
,
0000
0110
0000
1100
0000
0011
0000
0220
,
0000
0000
0000
0000
,
0330
0000
0000
0000
0000
0000
0000
1000
,
0100
1000
0100
0010
0100
1000
0100
0010
,
0001
0010
0100
0010
1000
0001
0100
0010
,
0100
0010
0100
1000
0100
0001
0010
0100
,
0010
0100
1000
0100
0001
0010
0100
1001
,
0100
0010
0100
0010
0001
0010
0100
1100
,
0100
0010
0100
1000
0100
1000
0110
0010
,
0001
0010
0100
1000
0100
0010
1100
0100
,
0011
0010
1100
0000
0110
1000
0100
1000
,
0100
0010
0100
0001
0010
0000
0010
0100
,
0010
0100
1000
0100
1000
0010
0100
1000
,
0100
0010
0100
0001
0010
0100
1000
0100
,
0010
0001
0010
0100
0010
0100
1000
0010
,
0100
0001
0010
0100
1000
0100
1000
0100
,
0010
0001
0010
0100
0010
0100
1000
0100
,
0001
0010
0100
1000
0100
0010
0001
0100
,
1000
0010
0100
0001
0100
0010
1000
0100
,
0100
0010
0001
0100
0010
0001
0010
0100
,
1000
0010
0001
0100
0001
0010
0100
1000
,
0010
0100
0010
0001
1000
0100
0010
0100
,
1000
0100
0010
0001
0010
0100
0010
0100
,
1000
0100
0001
0010
0100
1000
0100
0010
,
0100
0010
0100
1000
0100
0001
0010
0100
,
1000
0100
0010
0100
1000
0100
0010
0001
,
0010
1000
0100
0010
,
0100
1000
0100
0010
,
0001
0010
0100
1000
,
0100
0010
1000
0100
,
0010
0001
0100
0010
,
1000
0100
0010
0001
,
0100
0010
0100
1000
,
0100
0001
0100
1000
,
0001
0100
0010
0100
,
1000
0100
0001
0010
,
0100
1000
0100
0010
,
0001
0100
1000
0100
,
0100
0001
0010
0100
,
0010
0001
1000
0100
,
0010
0100
1000
0100
,
0010
0100
0010
1000
0000
0100
0000
0010
,
0000
0001
0000
0010
0000
0100
0000
0010
,
0000
0100
1000
0100
0000
0010
0001
0010
,
0000
0100
0010
0100
0000
1000
0100
1000
,
0000
0100
0000
0010
0000
0001
0000
0010
,
0000
0100
0000
0010
0000
0100
0000
0010
,
0000
0001
0010
0001
0000
0010
0100
0010
,
0000
1000
0100
1000
0000
0100
0010
0100
,
0000
1000
0000
0100
0000
0010
0000
0001
,
0000
0100
0000
0010
0000
0100
0000
1000
,
0100
1000
0000
0010
0100
0010
0000
0100
,
1000
0100
0000
0010
0001
0010
0000
0100
,
0000
0010
0000
0100
0000
1000
0000
0100
,
0000
0010
0000
0100
0000
0100
0010
0100
,
0000
0001
0010
0001
0000
0100
0010
0100
,
0000
1010
0000
0000
0011
0000
0000
0000
,
0110
0000
1100
0000
,
0110
0000
0000
0000
0000
0000
0000
0000
0000
0000
0011
0000
0000
0000
0000
0000
0000
0000
0000
0000
0000
1100
0000
0000
,
0000
0000
0000
0110
0000
0000
0000
1100
,
0000
0000
0000
0000
0000
0000
0000
0000
0000
0110
0000
0000
0000
0000
0000
0000
0000
0000
0000
0000
0011
0000
0000
0000
,
0000
1100
0000
0110
,
0000
1100
0000
0101
,
0000
1010
0000
0000
0000
1001
0000
1000
,
0000
0100
0000
0010
0000
0001
0000
0100
,
0000
1000
0000
0100
0000
0001
0000
0010
,
0000
0100
0000
1000
0000
0010
0000
1000
,
0000
0100
0000
0001
0000
0010
0000
0100
,
0000
1000
0000
0100
0000
0100
0000
1000
,
0000
0100
0000
0100
0000
0010
0000
1001
,
0000
0100
1000
0000
0000
0010
0001
0000
,
0000
0011
0000
0000
0000
0110
0000
0000
,
0000
0000
0000
0000
1100
0000
0000
0000
0000
0000
0000
0000
0000
0000
0000
1000
0000
0000
0000
0000
0000
0100
0000
0000
,
0000
0010
0000
0001
0000
0010
0000
0100
,
0000
1000
0000
0100
0000
0000
0000
0000
,
0110
0000
1100
0000
,
0110
0000
0000
0001
0000
0010
0000
0100
,
0000
1000
0000
0010
0000
0100
0000
1000
,
0000
0000
0000
0100
0000
0000
0000
0000
0000
0001
0000
0000
0000
0000
0000
1000
0000
0000
0000
0000
2002
0000
0000
0000
,
0000
0000
3003
1000
0000
0100
0000
0010
,
0000
0001
0000
0010
0000
0200
0000
0000
,
0000
0300
0020
0000
0000
0000
0000
0000
,
0000
0000
0000
0030
,
0100
1000
0100
0010
,
0001
0010
2002
0000
,
0000
0000
0000
0000
,
0000
0000
0000
0000
3003
1000
0000
0100
,
0000
0010
0000
0001
0000
0110
0000
0000
,
0000
0000
0100
1000
0100
1000
0100
1000
,
0100
0010
0001
0010
,
0100
0000
0010
0000
0001
0000
1000
0010
,
0100
0010
0100
0010
0100
0000
1000
0000
,
0100
0010
0010
0001
,
0010
0100
1000
0100
,
0001
0010
1000
0100
,
0010
0000
0001
0000
0010
0000
0010
0001
,
0010
0001
0010
0001
0010
0000
0010
0000
,
0100
0000
0001
0000
0010
1000
0100
1000
,
0100
1000
0100
1000
0100
0000
0010
0000
,
1000
0001
0010
1000
,
0100
0010
0100
0001
,
0100
0020
0000
0000
0000
0031
0020
0000
,
0000
0000
0000
0000
,
0000
1030
0100
0010
,
0001
0010
0010
0100
,
0001
0000
0100
0000
0010
0000
1000
0010
,
0100
0010
0100
0010
0100
0010
0000
0000
,
1000
0100
0010
0100
,
0010
0001
1000
0100
,
0001
0010
0100
0010
,
1000
0000
0100
0000
0001
0000
0001
0010
,
0001
0010
0001
0010
0001
0000
0010
0000
,
0100
0000
1000
0000
0001
0100
1000
0100
,
1000
0100
1000
0100
1000
0000
1000
0000
,
0001
0100
1000
0100
,
0010
0001
0100
0010
,
1000
0000
0100
1000
0001
1000
0001
1000
,
0001
1000
0001
1000
0100
0010
0100
0010
,
0100
0010
0100
2000
0000
0000
0000
0000
,
3200
0000
0000
0000
0000
0300
0100
0010
,
0001
0002
0000
0000
0000
0000
0000
0023
,
0000
0000
0000
0000
0000
0030
0100
1000
,
0100
2000
0000
0000
0000
0000
0020
0000
,
3000
0000
0000
0000
0000
0032
0000
0000
,
0000
0200
0003
0000
0000
0310
0100
0010
,
0100
1000
0001
1000
0001
1000
0001
1000
,
2000
0000
0000
0000
0000
3020
0000
0000
,
0000
0030
0001
0100
0010
2000
0000
0000
,
0000
0000
0000
0200
0000
3000
0000
0000
,
0000
0000
0300
0010
,
0001
0010
0100
1000
,
0100
0000
0010
0000
1000
0001
1000
0001
,
1000
0001
1000
0001
1000
0001
1000
0001
,
0220
0000
2330
0000
,
0000
0000
3200
0000
0000
0000
0000
0310
,
1000
0100
0200
0000
0000
0000
0000
0000
,
0002
0300
0000
0000
0000
0000
0103
1000
,
0100
0020
0000
0000
0000
0000
0000
0000
,
0200
0030
0000
0000
0000
2300
0000
0000
,
0000
0002
3000
0000
0000
0000
1000
0103
,
1000
0100
0010
0100
0010
0001
0010
0001
,
0110
2000
0000
0000
0000
0000
0000
3020
,
0000
0000
0000
0030
0010
0001
0010
0200
,
0000
0000
0000
0000
0300
2000
0000
0000
,
0000
0000
0000
0000
0000
0000
0000
3100
,
0000
0010
0000
0001
0000
0010
0000
0100
,
0000
1000
0000
0100
0000
0100
0010
0100
,
0010
0100
0010
0100
0010
0100
0010
0100
,
0000
1001
0000
0110
1001
0000
0000
0000
;
