#TITLE:HANAJI;
#SUBTITLE:Maria Holic OP theme;
#ARTIST:Kobayashi Yuu;
#TITLETRANSLIT:;
#SUBTITLETRANSLIT:;
#ARTISTTRANSLIT:;
#CREDIT:ALICE_;
#BANNER:hanaji.png;
#BACKGROUND:hanaji.jpg;
#LYRICSPATH:;
#CDTITLE:cdtitle.png;
#MUSIC:hanaji.mp3;
#OFFSET:0.828;
#SAMPLESTART:56.020;
#SAMPLELENGTH:14.260;
#SELECTABLE:YES;
#BPMS:0.000=232.021,151.667=232.041;
#STOPS:;
#BGCHANGES:3.313=hanaji.avi=1.000=0=0=1,
99999=-nosongbg-=1.000=0=0=0 // don't automatically add -songbackground-
;
// cache tags:
#FIRSTBEAT:4.000;
#LASTBEAT:333.000;
#SONGFILENAME:Songs/alice 4th complete step/hanaji/hanaji.sm;
#HASMUSIC:1;
#HASBANNER:1;
#MUSICLENGTH:89.922;
// end cache tags

//---------------dance-single - ----------------
#NOTES:
     dance-single:
     :
     Hard:
     9:
     0.818,0.830,1.000,0.367,0.417,391.000,91.000,33.000,0.000,0.000:
0000
0000
0000
0000
,
0000
0000
0000
0000
,
1000
0001
1000
0001
,
1000
0001
1000
0001
,
1000
0001
1000
0001
,
0110
0000
0110
0000
0000
2002
0000
0000
0000
3003
0000
0000
,
1100
0000
0000
0110
0000
0000
0011
0000
0010
0001
0000
0000
,
0101
0000
0000
0110
0000
0000
1010
0000
0010
1000
0000
0000
,
1100
0000
0000
0110
0000
0000
0011
0000
0010
0001
0000
0000
,
1000
0000
0010
0100
0000
0002
0000
0000
0000
0003
0000
0000
,
0011
0000
0000
0110
0000
0000
1100
0000
1000
0100
0000
0000
,
1010
0000
0000
0110
0000
0000
0101
0000
0001
0100
0000
0000
,
0010
1000
0000
1000
0100
1000
0000
0001
,
0100
0001
1000
0010
0100
0001
0020
0000
,
0100
0001
0100
0001
,
0100
1000
0100
0001
,
1000
0001
0100
0031
,
0110
0000
0110
0000
0000
2002
0000
0000
0000
3003
0000
0000
,
0120
1000
0100
1000
,
0001
1000
0100
1000
,
0001
1000
0100
1030
,
1001
0000
1001
0000
0000
0220
0000
0000
0000
0330
0000
0000
,
1000
0100
0010
0001
,
0100
0000
0010
0100
0000
0100
0010
0000
0010
0100
0000
0000
,
0001
0010
0100
1000
,
0010
0000
0100
0010
0000
0010
0100
0000
0100
0010
0000
0000
,
1000
0000
0001
0000
0100
0010
1000
0000
,
0001
0000
1000
0000
0100
0010
0001
0100
,
0010
1001
0110
0001
,
1000
0000
1100
0000
0000
0020
0000
0000
0000
0030
0000
0000
,
0100
0001
1000
0010
,
0001
0000
1000
0001
0000
0001
1000
0000
1000
0001
0000
0000
,
0010
1000
0001
0100
,
1000
0000
0001
1000
0000
1000
0001
0000
0001
1000
0000
0000
,
0100
0000
0010
0000
0001
1000
0100
0000
,
0010
0000
0100
0000
0001
1000
0010
0100
,
0001
0110
1000
0110
,
0001
0000
1000
0000
0000
0220
0000
0000
0000
0330
0000
0000
,
1000
0001
0100
0010
,
1000
0000
0001
0100
1000
0000
0100
0000
,
0001
0011
1000
1010
,
0100
0000
0001
0010
0002
0000
0103
0000
,
1000
0000
1000
0000
0010
1000
0001
0000
,
0100
0000
0100
0000
0010
0001
1000
0002
,
0000
0000
0100
0000
0100
0000
0100
0003
,
0010
0100
0010
0100
,
1000
1001
0100
1100
,
0010
0000
0001
0100
0000
0020
0000
0000
0000
0130
0000
0000
,
0001
1001
0100
0101
,
0010
0000
1000
0100
0000
0002
0000
0000
0000
0103
0000
0000
,
1010
0000
1010
0000
0101
0010
1000
0000
,
0101
0000
0101
0000
1010
0100
0001
0000
,
0110
0000
1001
0000
1100
0000
0101
0000
0011
0000
1010
0000
,
0220
0330
0000
0000
0000
0000
0000
0000
0000
0000
0000
0000
0000
0000
0000
0000
0000
0000
0000
0000
0000
0000
0000
0000
0000
0000
0000
0000
0000
0000
0000
0000
0220
0000
0000
0000
0000
0000
0000
0000
0000
0000
0000
0000
0000
0000
0000
0000
0000
0000
0000
0000
0000
0000
0000
0000
0000
0000
0000
0000
0000
0000
0000
0000
,
0000
0000
0000
0330
,
1000
1100
0001
0101
,
1000
0000
0010
0100
0000
0010
1000
0001
1000
0100
0010
0001
,
0100
0101
1000
1010
,
0001
0000
0010
0100
0000
0010
0001
1000
0001
0100
0010
1000
,
0100
0000
0000
0110
0000
0000
0010
0000
0001
0100
0000
0000
,
1000
0000
0000
0000
0001
0000
0200
0000
0000
0000
0000
0000
0310
0000
0000
0010
0000
0000
1000
0000
0000
0001
0000
0000
,
0100
2010
3100
0000
,
0022
0033
0200
0002
0000
0000
0000
0303
,
1000
1010
0001
0011
,
1000
0000
0001
0100
0000
0010
1000
0001
1000
0100
0010
0100
,
1000
0101
0001
1010
,
0001
0000
1000
0010
0000
0100
0001
1000
0001
0010
0100
0010
,
0001
0000
0000
0101
0000
0000
0010
0000
0001
1000
0000
0000
,
0010
0000
0000
0000
0100
0000
0020
0000
0000
0000
0000
0000
1030
0000
0000
1000
0000
0000
0010
0000
0000
0100
0000
0000
,
0010
0110
1001
0100
,
2100
0000
0000
0000
0000
0020
3030
0000
0100
0100
0000
0000
,
0011
0000
0000
1010
0000
0000
0101
0000
1000
0100
0000
0000
,
1010
0000
0000
0011
0000
0000
1100
0000
0001
0100
0000
0000
,
0011
0000
0000
1010
0000
0000
0101
0000
1000
0100
0000
0000
,
0010
0000
0001
1000
0000
0220
0000
0000
0000
0330
0000
0000
,
1100
0000
0000
0101
0000
0000
1010
0000
0001
0010
0000
0000
,
0101
0000
0000
1100
0000
0000
0011
0000
1000
0010
0000
0000
,
1001
0100
0000
0010
0101
0010
0000
0100
,
1010
0100
0001
1000
0010
0000
0120
0000
,
0100
1000
0100
0031
,
2000
0001
0010
3100
,
0011
0100
0000
0000
1010
0100
0000
0000
,
1001
0000
0000
0110
0000
0000
1001
0000
0000
0100
0000
0010
;

//---------------dance-single - Copied from----------------
#NOTES:
     dance-single:
     Copied from:
     Challenge:
     13:
     1.000,1.000,1.000,0.790,1.000,545.000,197.000,71.000,0.000,90.000:
0000
0000
0000
0000
,
0001
0010
0001
0100
0010
1000
0010
0100
0010
1000
0100
0010
,
0100
0000
0100
0010
0000
0010
0100
0000
0100
0010
0000
0010
,
0100
0000
0100
0010
0000
0010
0100
0000
0100
0010
0000
0010
,
0100
0000
0100
0010
0000
0010
0100
0000
0100
0010
0000
0010
,
1001
0000
1001
0000
0000
0220
0000
0000
0000
0000
0000
0330
,
1101
0000
0000
1011
0000
0000
0111
0000
0100
0011
0000
0000
,
1011
0000
0000
1101
0000
0000
1110
0000
0010
1100
0000
0000
,
1101
0000
0000
1011
0000
0000
0111
0000
0100
0011
0000
0000
,
1001
0000
1001
0110
0000
2001
0100
0010
0010
0100
0001
3010
,
0111
0000
0000
1011
0000
0000
1110
0000
1000
0111
0000
0000
,
1110
0000
0000
1101
0000
0000
0111
0000
0001
1110
0000
0000
,
0011
0000
0000
0000
1100
0000
0000
0000
0000
1010
0000
0000
0101
0000
0000
0000
1010
0000
0000
0000
0000
0011
0000
0000
,
2100
0000
0000
3010
0000
0000
0012
0000
0000
1003
0000
0000
0100
0000
0001
0000
0001
0000
0010
0000
0100
0000
0100
0000
,
2001
0000
0001
0110
0000
0010
0001
0000
0001
0110
0000
0010
,
3001
0000
0001
0110
0000
0010
0001
0000
0001
0110
0000
0100
,
1000
0000
1000
0110
0000
0100
1000
0000
1000
0110
0000
0010
,
1001
0000
0110
0000
0000
1002
0010
0100
0010
2000
0000
3003
,
1001
0000
0001
0110
0000
0010
0001
0000
0001
0110
0000
0010
,
0001
0000
0001
0110
0000
0010
0001
0000
0001
0110
0000
0100
,
1001
0000
1000
0112
0000
0100
1000
0000
1000
0110
0000
0013
,
1001
0000
1001
0000
0000
0220
1000
0000
0000
0001
0000
0330
,
2000
0110
3002
0110
,
1003
0000
0010
0100
0000
0020
1100
0000
0000
0101
0000
0030
,
0002
0110
2003
0110
,
3001
0000
0100
0010
0000
2000
0110
0000
0010
0001
0000
3010
,
0200
0000
0000
1301
0000
0000
0100
0000
0010
1000
0000
0100
,
0001
0000
1001
0000
0110
0000
0021
0100
,
1030
0000
0000
0202
0000
0000
1313
0000
2100
0000
0000
3000
,
0011
0000
0101
0000
0000
2110
0100
0001
0001
0010
0100
3001
,
0020
1100
0230
0011
,
1300
0000
0010
0100
0000
0100
1002
0000
1000
0010
0000
0013
,
0200
1010
0320
0101
,
0130
0000
0001
0010
0000
2000
0100
0000
0010
0001
0000
3100
,
0020
0000
0000
1130
0000
0000
1000
0000
0001
0010
0000
1000
,
0100
0000
0110
0000
1001
0000
0102
1000
,
0013
0000
0000
1000
0000
0100
0010
0000
0200
0000
0000
0300
,
0101
0000
0101
0000
0000
2002
0000
0000
0010
0010
0000
3103
,
0100
0001
0100
1000
,
0100
0001
0100
1000
,
0001
0000
1010
0000
1000
0101
0010
0000
,
0110
0000
0110
1000
0000
0110
0001
0000
0010
0100
0000
1000
,
0020
0000
0000
0000
0030
0000
2001
0000
0000
3000
0000
0000
0010
0000
0000
0200
0000
0000
0000
0000
0000
0300
0000
0000
,
1011
0000
1200
0000
0310
0200
0000
2302
,
0000
0000
0010
0000
0100
0000
0020
3003
,
1000
0000
0101
0000
1100
0000
0101
0030
,
1001
1011
1100
1110
,
1001
0000
0110
0000
0000
0220
0000
0000
1000
0001
0330
0000
,
1010
1110
0101
0111
,
1001
0000
0110
0000
0000
0220
0001
0000
0000
1000
0000
0330
,
1010
0000
0111
0000
2100
0010
3001
0000
,
0101
0000
1110
0000
0102
0010
1003
0000
,
1001
0000
1010
0000
1110
0000
0101
0000
1011
0000
0110
0000
,
1101
0000
2110
0110
,
3001
0100
0100
1000
0010
0010
0100
0001
1100
0010
1000
0110
,
0010
0100
1000
0001
0100
1000
0010
0100
1000
0001
0100
1000
,
0011
0000
0110
0000
0000
1100
0001
0010
1000
0010
0100
0001
,
0100
0010
0001
1000
0010
0001
0100
0010
0001
1000
0010
0001
,
1100
0000
0110
0000
0000
0011
0100
1000
0010
0100
0001
0010
,
1000
0100
0001
1000
0010
0001
0110
0000
2112
0000
0000
3103
,
0001
0010
0001
0100
0010
1000
0100
0010
0100
1000
0010
0001
,
0100
0001
0010
0001
1000
0100
1000
0010
0100
0001
1000
0010
,
0100
0000
0101
0000
0000
2020
0000
0000
0000
0000
0000
3030
,
0001
0100
1000
0001
0010
0100
0001
0100
1000
0001
0010
0100
,
1010
0000
1001
0000
0000
0101
0010
0100
1100
0001
0100
1100
,
1000
0010
0001
1000
0100
0010
1000
0010
0001
1000
0100
0010
,
0101
0000
1001
0000
0000
1010
0100
0010
0011
1000
0010
0011
,
1000
0100
0001
1000
0010
0001
0110
0000
1221
0000
0000
1330
,
0010
0100
0001
1000
0100
0010
1000
0001
0010
0001
0100
0010
,
1000
0100
0010
0100
0010
0001
1000
0010
0100
0001
1000
0010
,
0100
0000
1010
0000
0000
0202
0000
0000
1000
1000
0000
0303
,
1010
1100
1110
1011
,
0011
0101
0111
1101
,
1010
1100
1110
1011
,
0021
0000
0000
0130
0000
0102
1000
0010
0010
0100
1000
0103
,
0011
0101
1101
1110
,
1100
1010
1011
0111
,
2020
0000
3131
0000
0000
0000
0022
0000
1133
0000
0000
0000
,
0120
0000
0000
1031
0000
0000
0100
0001
0011
1000
0100
0011
,
1100
1010
1011
0111
,
0011
0101
1101
1110
,
2002
0000
3113
0000
0000
0000
2002
0000
3113
0000
0000
0000
,
1000
0000
0100
0020
0000
0000
0131
0000
0000
0011
0000
2002
,
0000
3003
0000
0000
;

//---------------dance-single - ----------------
#NOTES:
     dance-single:
     :
     Medium:
     5:
     0.540,0.553,0.423,0.100,0.011,293.000,38.000,9.000,0.000,0.000:
0000
0000
0000
0000
,
0200
0000
0000
0000
0000
0000
0000
0300
,
1000
0001
0100
0001
,
1000
0001
0100
0001
,
1000
0001
0100
0001
,
2000
0000
0000
0000
0000
0000
0000
3000
,
0001
0100
0010
1000
,
1000
0100
0010
0001
,
0001
0100
0010
1000
,
1010
0101
2000
3000
,
1000
0100
0010
0001
,
0001
0100
0010
1000
,
0001
0000
1100
0000
,
0101
1000
0001
1000
,
0010
0100
0100
0001
,
0001
0010
0010
0001
,
0001
1000
0100
0010
,
0200
0000
0000
0300
,
1000
0010
0010
0100
,
0100
0001
0001
1000
,
1000
0100
0010
0100
,
2000
0000
0000
3000
,
0001
0101
1000
1100
,
0001
0100
0001
1000
,
0100
1100
0001
0101
,
1000
0100
1000
0001
,
0100
1000
0100
0010
,
1000
0001
0010
0100
,
0010
0001
0100
0000
,
1010
1000
1100
0000
,
1000
0100
1000
0010
,
0100
0100
0100
0000
,
0001
0100
0001
0010
,
0100
0100
0100
0000
,
1000
0001
0010
0010
,
0001
1000
0100
0010
,
0100
1000
0010
0000
,
0101
0000
0000
0000
0000
1100
0000
0000
0000
0000
0000
0000
,
1000
0100
1000
0010
,
0010
0100
0001
1000
,
0001
0100
0010
1000
,
1000
0100
0010
0001
,
1000
0100
0010
0100
,
1000
0010
0100
0002
,
0000
1000
1000
1003
,
0100
0100
0010
0100
,
1000
1100
0001
0101
,
1000
0010
0100
0000
,
0001
0101
1000
1100
,
0001
0010
0100
0000
,
1000
1001
0100
0010
,
1000
1001
0010
0100
,
1000
0001
0010
0001
,
0100
0000
0220
0000
,
0000
0000
0000
0330
,
1000
0010
0001
0010
,
1000
0100
0010
0100
,
1000
0010
0001
0010
,
1000
0100
0010
0001
,
0100
0010
1000
1100
,
0010
0100
0001
0101
,
1000
0001
0100
0001
,
1000
1100
0101
1000
,
0010
0001
0010
1000
,
0100
0100
1000
0001
,
0010
1000
0010
0001
,
0100
0100
0010
1000
,
0001
0101
1000
0001
,
1000
1100
0001
1000
,
0010
0100
0001
1000
,
0101
1100
0001
1000
,
0010
0110
0100
0001
,
1000
1100
0010
0100
,
0001
0101
1000
0100
,
1000
0010
0200
0300
,
1000
1100
0001
0010
,
0100
1100
1000
0001
,
0101
0000
1100
0000
,
0011
1000
0001
0010
,
0100
1000
0010
0100
,
0100
0001
0010
0100
,
1001
0000
0110
0000
,
1001
0000
0000
0010
0000
0000
0001
0000
0000
0100
0000
0010
;

//---------------dance-single - ----------------
#NOTES:
     dance-single:
     :
     Easy:
     4:
     0.404,0.598,0.089,0.222,0.000,226.000,8.000,20.000,0.000,0.000:
0000
0000
0000
0000
,
0000
0000
0000
0000
,
0000
0001
0000
1000
,
0000
0001
0000
1000
,
0000
0001
0000
1000
,
0000
0000
0000
0000
,
1000
0100
0010
0001
,
0001
0010
0100
1000
,
1000
0100
0010
0001
,
0002
0000
0000
0003
,
0001
0100
0010
1000
,
1000
0010
0100
0001
,
2000
3000
0002
0003
,
0100
0010
1000
0002
,
0000
0000
0000
0000
,
0000
0000
0000
0003
,
1000
0100
1000
0001
,
2000
0000
0000
3000
,
0000
0000
0000
0000
,
0000
0000
0000
0000
,
0001
0010
1000
0100
,
0020
0000
0000
0030
,
1000
0001
0100
0001
,
0100
0100
0100
0000
,
0001
1000
0100
1000
,
0010
0010
0010
0000
,
1000
1000
0100
0000
,
0001
0001
0100
0000
,
0010
0001
0010
0100
,
0020
0000
0030
0000
,
1000
0001
0100
0001
,
1000
1000
1000
0000
,
0010
1000
0001
0010
,
0100
0100
0100
0000
,
0001
0001
0010
0000
,
1000
1000
0010
0000
,
0100
0001
0100
1000
,
0020
0000
0000
0030
,
1000
0000
1000
0000
,
0100
0000
0100
0000
,
0010
0000
0010
0000
,
1000
0000
1000
0000
,
0001
0010
0001
0000
,
0001
0100
0001
0000
,
1000
0010
0001
0010
,
0010
1000
0010
0100
,
0001
0001
1000
0001
,
2000
0000
3000
0000
,
1000
1000
0001
1000
,
0002
0000
0003
0000
,
0100
0010
0100
0010
,
0100
1000
0100
0001
,
1000
0000
0100
0000
,
0001
0000
0020
0000
,
0000
0000
0000
0030
,
1000
0100
0001
0100
,
1000
1000
1100
0000
,
0001
0100
1000
0100
,
0001
0001
0101
0000
,
0010
0000
0100
0000
,
1000
0000
0010
0100
,
0010
0000
1000
0000
,
0001
0000
0020
0030
,
0001
0010
1000
0010
,
0001
0001
0101
0000
,
1000
0010
0001
0010
,
1000
1000
1010
0000
,
0100
0100
0010
0000
,
0001
1000
0010
0001
,
1000
0010
0200
0000
,
0320
0000
0000
0030
,
0001
0010
0100
1000
,
1000
0100
0010
0001
,
0001
0010
0100
1000
,
2002
0000
3003
0000
,
1000
0010
0100
0001
,
0001
0100
0010
1000
,
2002
3003
0220
0330
,
1000
0001
0100
0010
,
0001
1000
0100
1000
,
0010
0100
0010
1000
,
0100
0000
0100
0000
,
0001
0001
1000
0101
;
