#TITLE:Toradora!;
#SUBTITLE:- Yes!;
#ARTIST:Kawashima Ami (Kitamura Eri);
#TITLETRANSLIT:;
#SUBTITLETRANSLIT:;
#ARTISTTRANSLIT:;
#CREDIT:;
#BANNER:Yes! BN.jpg;
#BACKGROUND:Yes! BG1.jpg;
#LYRICSPATH:;
#CDTITLE:Toradora! Character Song Album;
#MUSIC:07 Yes!.mp3;
#OFFSET:-1.480;
#SAMPLESTART:0.020;
#SAMPLELENGTH:12.000;
#SELECTABLE:YES;
#BPMS:0.000=150.000;
#STOPS:;
#BGCHANGES:;
// cache tags:
#FIRSTBEAT:0.000;
#LASTBEAT:634.250;
#SONGFILENAME:Songs/toune 8/Toradora - Yes!/Yes! .sm;
#HASMUSIC:1;
#HASBANNER:1;
#MUSICLENGTH:261.511;
// end cache tags

//---------------dance-single - ----------------
#NOTES:
     dance-single:
     :
     Easy:
     5:
     0.000,0.000,0.000,0.000,0.000,0.000,0.000,0.000,0.000,0.000:
0000
0000
0000
0000
;

//---------------dance-single - ----------------
#NOTES:
     dance-single:
     :
     Medium:
     1:
     0.315,0.546,0.145,0.646,0.388,369.000,38.000,169.000,0.000,1.000:
2002
0000
0000
3003
,
0000
0000
1000
0000
0000
0001
0000
0000
0000
2002
0000
3003
0000
0000
0000
0000
,
1000
0000
0000
0001
0000
0000
2002
0000
0000
3003
0000
0000
0000
0000
1000
0000
,
0000
0001
0000
2002
0000
0000
0000
0000
0000
0000
0000
0000
0000
0000
0000
0000
,
0000
0000
0000
3003
0000
0000
0000
0000
1000
0000
0000
0001
0000
0000
0000
2002
,
0000
3003
0000
0000
0000
0000
0000
0010
0000
0000
1000
0000
0000
0020
0000
0000
,
0000
0030
1000
0000
2002
0000
0000
0000
,
3003
0000
0000
0000
1001
0000
0000
0000
0000
0000
0000
0000
0100
0000
0000
0001
,
0000
0000
0000
0200
0000
0000
0000
0000
0300
0000
0000
0001
0000
1000
0000
0000
,
0001
0000
0000
1000
0000
0000
0000
0000
0000
0000
0000
0000
1000
0000
0000
0000
,
0001
0000
0000
2000
0000
0000
0000
0000
0000
0000
3000
0000
0001
0000
0000
0000
,
2000
0000
0000
0000
0000
0002
0000
0000
0000
0000
0000
0000
0000
0000
0000
0000
,
0000
0000
0000
0000
3003
0000
0000
0020
0000
0000
0000
0000
0030
0000
0200
0000
,
0000
0002
0000
0300
0000
0000
0000
0000
0000
0000
0000
0000
0000
0003
0000
0000
,
0000
0000
0000
0000
0000
2000
0000
0000
0200
3000
0000
0000
0000
0300
0000
0020
,
0000
0000
0000
0000
0000
0030
0000
0000
0000
0000
0000
0000
1001
0000
0000
0000
,
0000
2002
0000
3003
,
0010
0000
0000
2000
0000
0000
3000
0000
0000
0000
0001
0000
,
0000
2000
0000
0000
0000
3000
0000
0000
0020
0000
0000
0030
,
0000
0000
0000
0200
0000
0000
0300
0000
0001
0000
0000
2000
,
0000
3000
0000
0001
,
0000
0000
0000
0000
0000
0100
0000
0000
0000
0000
0000
0000
,
0001
0000
0000
0000
0000
0000
0000
1000
0000
0000
0000
0000
,
0000
0000
0001
0000
0000
0000
0000
1000
0000
0000
2002
0000
,
0000
3003
0000
0010
,
1000
0000
0000
0001
0000
0001
0000
0000
1000
0000
1000
0000
,
0000
0000
0000
0100
0000
0000
0000
0010
0000
0000
0001
0000
,
0000
2000
0000
3001
0000
0000
0200
0000
0000
0300
0000
0010
,
0000
0000
1000
0000
1000
0000
0000
0000
1000
0000
0000
0010
,
0000
0010
0000
0000
0000
0000
0001
0000
0000
0000
1000
0000
,
0000
0001
0000
2002
0000
0000
0000
0000
3003
0000
0000
0000
,
0000
2000
0000
3000
0000
0000
0010
0000
0010
0000
1000
0000
,
0000
0000
0001
0000
0001
0000
0000
0000
0000
1000
0000
1000
,
0000
0002
0000
0000
0000
0000
0000
0000
0000
0000
0003
2000
,
0000
0000
3000
0000
,
2000
0000
0020
0000
,
0000
0000
0000
3030
0000
0000
0000
0000
0000
2000
0000
3000
,
0020
0000
0030
0000
0000
0100
0000
0100
0000
0100
0000
0000
,
0002
0000
0000
0000
0003
2000
0000
0000
0000
3000
0000
0020
,
0000
0000
0030
0000
2000
0000
0000
0000
0000
0000
0000
0000
,
3001
0000
0000
0000
0000
0100
0000
0000
0000
0001
0000
0000
,
0000
0000
0000
0000
2000
0000
0000
0000
0000
0000
0000
0000
0000
0000
0000
0000
3000
0000
0000
0000
0000
0000
0000
0000
0000
0000
0000
0000
0000
0000
0000
0000
0000
0000
0000
0000
0000
0000
0000
1000
0000
0000
0000
0000
0000
0000
0000
0000
,
0000
0001
0000
0000
0000
2000
0000
0000
0000
0000
0000
0020
0000
0000
0000
3030
,
0000
0000
0000
0000
0000
0000
0000
0000
0000
1000
0000
0000
0000
0000
1000
0000
,
0000
0002
0000
0000
0000
0000
0003
0000
0000
0000
1000
0000
0000
1000
0000
0002
,
0000
0000
0000
0000
,
0000
0000
0000
0000
0000
0000
0000
0000
0000
0000
0000
0003
0100
0000
0000
0000
,
0000
0000
0000
0100
0000
0000
0000
0000
0000
0000
0000
0000
0000
0000
0000
0000
0000
0000
0100
0000
0000
0000
0000
0000
0000
0000
0000
0000
0000
0000
0000
0000
0000
0000
2000
0000
0000
0000
3000
0000
0000
0000
0000
0000
0000
0000
0000
0000
,
0000
0001
0000
0000
2000
0000
0000
0000
3000
0000
0000
0000
0000
0000
0002
0003
0000
0000
2000
0000
3000
0000
0000
0000
,
0002
0000
0000
0000
0000
0003
0000
0000
0000
0000
0000
0000
0000
2000
0000
0000
0000
3000
0000
0000
0001
0000
0000
0000
,
0200
0000
0000
0000
0000
0000
0000
0000
0000
0000
0300
0000
0000
0000
0000
0001
0000
0000
0000
0000
0000
0000
0000
0000
,
0000
0000
1000
0000
0000
0001
0000
2000
0000
0000
3000
0000
0000
0000
0000
0000
,
0010
0000
0000
0000
1000
0000
0002
0000
0000
0000
0000
0003
0000
0000
0000
0000
,
2000
0000
0000
0000
0000
0000
0000
0000
0000
0000
0000
0000
0000
0010
0000
0000
,
3010
0000
0000
0000
0000
0000
0000
0000
0000
1000
0000
0000
0000
0001
0200
0000
,
0000
0000
0000
0000
0300
0000
0000
0010
0000
0000
0000
0001
0000
0000
0000
0000
,
0000
0000
0000
2000
0000
0000
3000
0000
0000
0000
0001
0000
2000
0000
3000
0000
,
0000
0002
0003
2000
0000
0000
0000
0000
0000
3000
0000
0000
0000
0000
0002
0000
,
2000
0000
0000
0000
,
0000
0000
0000
0000
0000
0000
0000
0000
0000
0000
0000
3000
0000
0000
0000
0000
,
0000
0000
0003
0000
0000
0000
0000
0000
0000
0000
0000
0000
2000
3000
0000
0002
,
0000
0000
0003
0000
0000
0000
0000
1001
0000
0000
1001
0000
0000
0000
0000
0000
,
0010
0000
0000
0000
1000
0000
0000
0000
0000
0001
0000
0000
0200
0000
0000
0300
,
0000
0000
0000
0000
1000
0000
0000
1000
0000
0000
0000
0000
0000
0000
0010
0000
,
0000
0010
0000
0000
0000
0000
2000
0000
3000
0200
0000
0000
0000
0300
0000
0000
,
0000
0001
0000
0002
0000
0000
0000
0000
2000
0000
0000
0000
0000
0000
0000
0000
,
0000
3003
0000
0000
0000
0000
0000
0000
0000
1000
0000
0000
1000
0000
0000
0000
,
0000
0000
0000
0000
0011
0000
0000
0011
0000
0000
0000
0000
0000
0000
0000
0200
,
0000
0000
0000
0000
0000
0000
0000
0000
0000
0300
0000
0002
0000
0003
0000
2000
,
0000
0000
0000
3000
0000
0000
0000
0000
0000
0000
0000
1000
0000
0000
0001
0000
,
0000
0001
0000
0000
0000
0000
0000
0000
0000
1000
0000
0000
0000
0100
0000
0000
,
0100
0000
0000
0000
0000
0000
0000
0010
0000
0000
0000
1000
0000
0000
0000
0001
,
0000
0000
2000
0000
0000
0000
0000
0000
0000
3000
0020
0000
0000
0000
0030
0000
,
0000
0000
0000
0100
0000
0000
0100
0000
0000
0000
0000
0000
0000
0000
0000
0001
,
0000
0000
0001
0000
0000
0000
0000
0000
0000
0000
2000
0000
3000
0010
0000
0000
,
0000
0200
0000
0000
0000
0000
0000
0000
0000
0002
0000
0000
0000
0000
0000
0000
,
0000
0000
0303
0000
0000
0000
0000
0000
0000
0020
0000
0000
0000
0000
0000
0000
,
0000
0002
0000
0000
,
0033
0000
0000
0000
0000
1000
0000
0000
0000
0001
0000
0000
0000
2000
0000
0000
,
0000
0000
0000
0000
3000
0000
0010
0000
0000
0010
0000
0000
0000
0000
0000
0200
,
0000
0000
0000
0000
0300
0000
0000
0010
0000
0000
0000
0020
0000
0000
0000
0000
,
0000
0000
0030
0000
0000
0000
0000
1000
0000
0000
0010
0000
0000
0000
0001
0000
,
0000
0200
0000
0000
0000
0000
0000
0000
0000
0000
0000
0000
0000
0300
0000
0000
,
0000
0000
0000
2000
0000
0000
0000
3000
0000
0000
0010
0000
0000
0000
0200
0000
,
0000
0000
0000
0000
0300
0002
0000
0003
0000
2000
0000
3000
0000
0000
0000
0000
,
0000
0020
0000
0000
0000
0000
0000
0000
0030
0000
0020
0000
0000
0030
0000
0000
,
1000
0000
0000
0002
0000
0000
0000
0000
0000
0000
0000
0000
0000
0000
0000
0000
,
0000
0000
0000
0000
,
0000
0000
0000
0003
0000
0000
0000
0000
1001
0000
0000
0000
0000
1001
0000
0000
,
0000
0000
1001
0000
0000
0000
0000
0000
0010
0000
0000
0000
0100
0000
0000
0200
,
0000
0000
0000
0300
0000
0000
0000
0000
0001
0000
0000
1000
0020
0000
0000
0000
,
0000
0030
0000
0000
0000
0000
0000
0100
0000
0000
0200
0000
0000
0300
0000
0000
,
0020
0000
0000
0000
0000
0000
0000
0000
0030
0000
0000
0000
0000
0200
0300
0000
,
0020
0000
0030
0000
0000
0020
0000
0000
0000
0030
0000
0000
0100
0000
0000
0010
,
0000
0000
0002
0000
0000
0000
0000
0003
0000
0000
2000
0000
0000
0000
0002
0000
,
0000
0000
0000
0000
0000
0000
0000
0000
0000
0000
0000
3003
0000
0000
0000
0000
,
0110
0000
0000
0110
0000
0000
0000
0020
0000
0000
0030
0000
0000
0000
0000
0100
,
0000
0000
0000
0010
0000
0000
2000
0000
0000
3000
0000
0000
0000
0000
0000
1000
,
0000
0000
0000
0020
0000
0000
0000
0000
0030
0000
0100
0000
0000
1000
0000
0000
,
0000
0010
0000
0000
0100
0000
0000
0020
0000
0000
0000
0000
0000
0000
0000
0000
,
0000
0000
0000
0000
,
0000
0000
0000
0000
0000
0000
0000
0000
0000
0000
0000
0000
0000
0000
0000
0030
,
0000
0000
0000
0000
0000
0000
0000
0000
0000
0000
2000
3000
0000
0200
0000
0300
,
0000
0000
0000
0010
0010
0000
0000
0000
0000
0000
0000
0000
1000
0000
0000
0000
,
0000
0000
0000
0000
0000
0000
0000
0000
0000
1000
0000
0000
0000
0000
0000
0000
,
0000
0000
0000
0010
0000
0000
0000
0000
,
0000
0000
0000
0100
0000
0000
0000
0000
0000
0000
0000
0000
0000
0000
0000
0000
,
0001
0000
0000
0000
0000
0000
0000
0000
0000
0000
0000
0000
0000
0001
0000
0000
,
0000
0000
0000
0000
0000
0100
0000
0000
,
0000
0000
0000
0000
0000
0000
0000
0100
0000
0000
0000
0000
0000
0000
0000
0000
,
0000
0101
0000
0000
,
0000
0010
0000
0000
0000
0000
0000
0000
0000
0000
0000
0000
0000
0000
1000
0000
,
0000
0000
0000
0000
0000
0000
0000
0000
0000
0000
0000
0001
0000
0000
0000
0000
,
0000
0000
1000
0000
,
0000
0000
0000
0000
0000
0010
0000
0000
0000
0000
0000
0000
0000
0000
0000
0000
,
0000
0000
0100
0000
0000
0000
0000
0000
0000
0000
0000
0020
0000
0000
0000
0000
,
0030
0000
0000
0000
0002
0000
0000
0000
0000
0000
0000
0000
0000
0003
0000
0000
,
0000
1001
0000
0000
0000
0000
1001
0000
0000
0000
0000
0000
0010
0000
0000
0000
,
0100
0000
0100
0000
0002
0000
0000
0003
0000
0000
0200
0300
0000
0000
0010
0000
,
2000
0000
3000
0000
0000
0000
1001
0000
2002
0000
3003
0000
0000
0000
0010
2000
,
0000
3000
0000
0000
0000
0000
0010
0000
0000
0100
0000
0000
0000
0000
0000
0100
,
0000
0000
0001
0000
2000
0000
0000
0000
3000
0000
0000
0000
0000
0001
0000
0000
,
1000
0000
0002
0000
0000
0000
0003
0000
0000
0000
0000
0011
0000
1100
0000
0000
,
0000
0020
0000
0000
0000
0000
0000
0000
0000
0000
0000
0000
0000
0031
0000
0001
,
0000
0000
0200
0000
0300
0001
0000
0000
0000
0200
0000
0000
0000
0300
0000
0000
,
2000
3000
0000
0000
0000
0020
0000
0000
0030
0000
0000
2000
0000
3000
0000
0001
,
0000
0000
0200
0000
0000
0300
0000
0000
0000
0002
0000
0003
0000
0000
2000
0000
,
0000
3010
0000
0000
0000
1000
0000
0000
0000
0000
0001
0000
0000
1000
0020
0000
,
0000
0000
0000
0000
,
0000
0000
0000
0000
0000
0002
0000
0000
,
0000
0000
0000
0000
0000
0033
0000
0000
,
0000
1000
0000
0000
0001
0000
0200
0300
0200
0000
0000
0000
0300
0000
0000
0002
,
0000
0003
0000
1000
0000
0002
0003
0002
0000
0000
0000
2003
0000
0000
3000
0000
,
0000
0000
0000
0000
0200
0000
0000
0000
0000
0000
0000
0000
0000
0000
0000
0301
,
0000
0000
0000
0000
0000
0000
0000
2000
0000
0020
3030
0000
0000
0001
0000
0002
,
0000
0000
0000
0000
0003
0000
0000
2000
0000
3000
0100
0000
0000
0002
0003
0000
,
0020
0000
0000
0000
0000
0030
0000
0000
2000
0000
3000
0002
0000
0000
0003
0220
,
0330
0220
0000
0000
0000
0000
0330
0000
0000
0000
0000
0001
0001
0000
1000
1000
,
0000
0000
0020
0000
0000
0030
0000
0000
0000
1000
0001
1000
0002
0000
0000
0000
,
0003
2000
0000
0000
3000
0000
0001
0000
0000
2000
0000
0000
0000
0000
0000
0000
,
0002
0000
0000
0000
0000
0000
0000
0000
0000
0000
3003
1001
0000
0000
0200
0000
,
0000
0000
0000
0000
0000
0000
0000
0000
0000
0000
0000
0000
0000
0002
0000
0000
,
0000
0000
0000
0000
,
0000
0000
0000
0000
0000
0303
0000
0000
,
0000
0000
2000
0000
0000
3002
0000
0000
0223
0330
0220
0330
0220
0000
0000
0330
,
0000
0000
0000
0000
0000
0100
0000
0000
0000
0000
0000
0000
0000
0000
0000
0000
,
0000
0000
0001
0000
0000
0000
0000
0000
0000
0000
0000
0000
0000
0000
0000
1000
,
0000
0000
0000
0101
,
0000
0000
0000
0000
0000
0000
0000
0000
0000
0100
0000
0000
0000
0000
0000
0000
,
0000
0000
0000
1000
0000
0000
0000
0000
,
0000
0000
0000
0100
0000
0000
0000
0000
0000
0000
0000
0000
0000
0000
0000
0000
,
0001
0000
0000
0000
0000
0000
0000
0000
0000
0000
0000
0000
0000
1000
0000
0000
,
0000
0000
0000
0000
0000
0110
0000
0000
,
0000
0000
0000
1001
0000
0000
0000
0000
,
0000
0000
0000
0110
0000
0000
0000
0000
0000
0000
0000
0000
0000
0000
0000
0000
,
0101
0000
0000
0000
0000
0000
0000
0000
0000
0000
0000
0000
0000
1000
0000
0000
,
0000
0000
0000
0000
0000
0001
0000
0000
,
0000
0000
0000
0000
0000
0000
0000
0100
0000
0000
0000
0000
0000
0000
0000
0000
,
0000
0020
0000
0000
0000
0000
0000
0000
0000
0030
0000
0000
0000
0000
0000
0000
;
