#TITLE:Imperium;
#SUBTITLE:;
#ARTIST:Machine Head;
#TITLETRANSLIT:;
#SUBTITLETRANSLIT:;
#ARTISTTRANSLIT:;
#CREDIT:;
#BANNER:imperium-bn.jpg;
#BACKGROUND:imperium-bg.jpg;
#LYRICSPATH:;
#CDTITLE:cdtitle.png;
#MUSIC:01 Imperium.mp3;
#OFFSET:-0.425;
#SAMPLESTART:96.440;
#SAMPLELENGTH:13.840;
#SELECTABLE:YES;
#BPMS:0.000=109.890,0.500=109.890,1.000=100.067,8.500=107.914,9.000=102.763,16.500=98.684,17.000=100.200,24.500=110.294,25.000=101.237,32.500=106.383,33.000=100.942,40.500=105.263,41.000=100.761,48.500=102.740,49.000=102.157,56.500=103.093,57.000=101.180,64.000=97.403,64.500=104.530,65.000=106.762,65.500=104.803,67.500=104.621,69.500=106.195,71.500=103.270,73.500=104.987,75.500=104.530,77.500=105.448,79.500=104.076,81.500=104.621,83.500=104.895,85.500=105.171,87.500=104.348,89.500=104.712,91.500=104.712,93.500=105.914,95.500=101.695,96.500=121.457,97.500=118.577,98.500=119.522,99.500=122.699,100.500=120.482,101.500=125.261,102.500=120.000,103.500=121.212,104.500=122.699,105.500=123.967,106.500=123.203,107.500=122.951,108.500=117.647,109.500=125.523,110.500=117.647,111.500=119.760,112.500=125.523,113.500=120.482,114.500=118.343,115.500=123.711,116.500=119.284,117.500=120.968,118.500=119.760,119.500=116.959,120.500=120.968,121.500=121.951,122.500=118.577,123.500=123.457,124.500=114.943,125.500=122.951,126.500=120.240,127.500=119.760,128.500=123.626,129.250=115.681,130.000=125.000,130.500=122.699,131.500=125.392,133.500=127.119,134.500=123.457,136.500=123.330,138.500=124.052,141.500=123.609,146.500=123.775,150.500=124.384,154.500=125.918,156.500=125.915,156.750=124.002,158.500=122.794,166.500=124.320,174.500=123.967,182.500=124.481,190.500=124.320,198.500=125.033,206.500=123.935,214.500=123.425,222.500=121.611,224.000=116.201,232.000=123.001,239.000=127.651,244.000=125.191,246.500=116.732,254.500=121.319,256.500=119.679,269.500=127.169,286.500=129.415,302.500=131.075,303.500=123.697,318.500=108.303,319.500=123.500,328.500=124.805,352.500=117.001,360.500=123.648,376.500=115.926,383.500=115.860,385.500=120.001,393.500=123.254,401.500=128.154,414.500=140.004,416.000=128.954,417.500=129.136,433.500=100.440,434.167=123.700,437.500=122.200,441.500=122.218,444.000=131.598,447.833=120.578,449.500=120.640,453.500=120.660,469.500=122.904,477.500=122.796,485.500=123.051,517.500=115.002,520.000=121.622,525.500=120.106,533.500=123.408,544.000=211.408,565.500=208.825,573.500=209.465,597.500=211.221,608.000=214.781,629.500=213.200,648.000=212.500,669.500=212.679,672.000=208.999,688.000=209.999,700.000=210.999,708.000=211.999,712.000=110.000,746.500=45.799,753.500=48.499,754.500=45.999,756.500=45.199,757.500=45.799;
#STOPS:;
#BGCHANGES:;
// cache tags:
#FIRSTBEAT:0.000;
#LASTBEAT:763.750;
#SONGFILENAME:Songs/toune 2/Imperium/Imperium.sm;
#HASMUSIC:1;
#HASBANNER:1;
#MUSICLENGTH:401.062;
// end cache tags

//---------------dance-single - ----------------
#NOTES:
     dance-single:
     :
     Hard:
     12:
     0.855,1.000,1.000,0.381,0.788,1764.000,484.000,153.000,0.000,0.000:

0200
0302
0000
0000
0000
0000
0000
0000
,
0000
0000
0000
0003
0000
0000
0000
0000
,
0020
0032
0000
0000
0000
0000
0000
0000
,
0000
0000
0000
0000
0000
0003
0000
0000
,
0200
0300
0002
0000
0000
0000
0000
0000
0000
0000
0000
0000
0000
0000
0000
0000
,
0000
0000
0000
0003
,
0020
0032
0000
0000
0000
0000
0000
0000
,
0000
0000
0000
0000
0000
0003
0000
0000
,
1000
1000
0001
0100
0010
0010
1000
0001
,
0100
0100
0010
1000
0001
0001
0010
0010
,
0100
0100
0010
0001
1000
1000
0100
0010
,
0001
0001
1000
0100
0010
0010
0001
0001
,
0010
0010
0100
1000
0001
0001
0010
0100
,
1000
1000
0001
0010
0100
0100
0010
0010
,
0100
0100
1000
0010
0100
0100
0001
1000
,
0010
0010
0100
0001
1000
1000
0100
0100
,
0011
0011
0100
1000
0001
0010
0100
1000
,
0001
0100
0010
1000
0100
0010
0001
0001
,
1010
1010
0001
0100
0010
1000
0001
0100
,
0010
0100
0001
0010
0100
1000
0010
0010
,
0101
0101
1000
0010
0100
0001
1000
0010
,
0100
0010
1000
0100
1000
0001
0100
0100
,
1100
1100
0010
0001
1000
0100
0010
0001
,
1000
0010
0100
0001
0010
0100
1000
1000
,
0010
1000
0010
1000
0000
0000
0001
0100
0001
0100
0000
0000
0001
0010
0001
0010
,
0000
0000
0100
1000
0100
1000
0000
0000
0001
0010
0100
1000
0010
0100
0001
0010
,
0100
1000
0100
1000
0000
0000
0001
0100
0001
0100
0000
0000
0010
0100
0010
0100
,
0000
0000
0001
0010
0001
0010
0000
0000
0100
1000
0010
0100
0001
0010
0001
1000
,
0100
0010
0100
0010
0000
0000
0001
1000
0001
1000
0000
0000
0010
0100
0010
0100
,
0000
0000
0001
0010
0001
0010
0000
0000
0100
1000
0010
0100
0001
0010
0001
1000
,
0100
0010
0100
0010
0000
0000
0100
1000
0100
1000
0000
0000
0001
1000
0001
1000
,
0000
0000
0001
0100
0001
0100
0000
0000
1000
0010
0100
0001
0010
0100
1000
0100
,
0010
0001
0100
0010
0000
0000
0100
0010
1000
0100
0000
0000
0010
0001
0100
0010
,
0000
0000
1000
0100
0010
0001
0000
0000
1000
0010
0100
0001
0010
0100
1000
0010
,
0100
0001
1000
0010
0000
0000
1000
0010
0100
0001
0000
0000
0010
0100
1000
0010
,
0000
0000
0010
0100
0001
1000
0000
0000
1000
0100
0010
0001
1000
0010
0100
0001
,
0010
0100
1000
0100
0000
0000
1000
0100
0010
0100
0000
0000
0010
0001
0010
0100
,
0000
0000
1000
0010
0100
0010
0000
0000
0100
0001
0010
0100
1000
0010
0100
0001
,
0010
0100
1000
0100
0000
0000
0010
0100
1000
0001
0000
0000
1000
0001
0010
0001
,
0000
0000
1000
0100
0010
0001
0000
0000
0000
0000
0000
0000
0000
0000
0000
0000
,
1001
0100
0010
0001
0100
0010
1010
0100
0010
1000
0001
0010
0001
1000
0010
0100
,
1010
0100
0001
0010
0100
1000
0110
0001
0100
0010
1000
0100
2020
0000
3030
0000
,
1010
0100
0001
0010
0001
0100
0110
0010
1000
0100
0010
0001
0100
0010
1000
0001
,
1000
0100
1000
0001
0100
0001
1000
0010
1000
0001
0010
0001
0100
0010
1000
0100
,
1100
1000
0010
0100
0001
0100
0110
0010
1000
0100
0010
0001
0010
0100
1000
0001
,
0101
0010
1000
0010
0100
0001
0011
0010
0100
1000
0010
0100
0202
0000
0303
0000
,
1001
0010
0100
0001
0010
0001
1001
0010
0100
0010
1000
0100
0010
0001
0100
0010
,
1000
0100
1000
0001
0100
0001
1000
0100
1000
0001
0010
0001
1000
0010
0100
0000
,
2002
0000
3003
2020
0000
3030
2200
3300
,
0000
1010
0110
0101
0011
0110
2002
3003
,
0000
1100
0011
0110
0011
0101
1010
0110
,
0001
0100
0001
1000
0100
1000
0001
0010
0001
1000
0010
1000
0100
0010
0001
0000
,
2020
0000
3030
0220
0000
0330
0202
0303
,
0000
1001
0110
0101
0110
1010
2002
3003
,
0000
0110
1001
0110
1001
1100
0011
1001
,
1000
0100
0010
0001
0100
0010
1000
0100
0010
0001
0100
0010
1000
0001
0100
0000
,
2002
0000
3000
0200
0000
0300
0020
0033
,
2002
0000
0000
0000
0000
0000
0003
0000
0000
0200
0000
0000
0000
0000
0000
0000
3300
0000
0001
0010
0100
1000
0010
0100
,
0101
0001
0010
0100
1100
1000
0010
0100
0101
0001
0010
0100
1100
1000
0010
0100
,
0101
0010
1000
0100
1100
0100
1000
0010
1010
0100
0001
0010
2200
0000
0000
3300
,
1001
1000
0010
1000
1100
0100
0010
0001
0011
0100
1000
0010
0101
0001
0100
0010
,
1000
0100
1000
0001
0100
0001
1000
0100
1000
0001
0100
0001
1000
0100
1000
0000
,
0102
0000
0003
2010
0000
3000
0110
0000
,
1002
0000
0000
0000
0000
0000
0000
0000
0003
0000
0000
0000
2100
0000
0000
0000
0000
0000
0000
0000
3000
0000
0001
1000
0001
0000
1000
0010
1000
0000
0001
1000
,
0010
0000
0000
0220
0000
0000
0000
0000
0000
0000
0000
0000
0000
0000
0000
0000
0000
0000
0330
0000
0000
0001
0010
0100
,
1000
0000
0000
0000
2200
0000
0000
0000
0000
0000
0000
0000
0000
0000
0000
0000
0000
0000
0000
0000
0000
0000
0000
0000
3300
0000
0000
0000
0000
0001
0100
0010
,
1000
0101
0110
1010
,
2002
0000
3003
0000
,
0001
0000
0000
0100
0000
0000
2100
3000
0000
0001
0000
0000
0100
0000
0000
0010
0000
0000
0021
0030
0000
0001
0000
0000
,
1000
0000
0000
0100
0000
0000
0012
0003
0000
1000
0000
0000
0100
0000
0000
1000
0000
0000
0201
0300
0000
1000
0000
0000
,
0010
0000
0000
0100
0000
0000
2100
3000
0000
0001
0000
0000
0100
0000
0000
0001
0000
0000
1200
0300
0000
0001
0010
0100
,
1001
0000
1001
0000
1001
0000
1001
0000
0101
0000
0101
0000
0001
0100
0001
0100
,
0101
0001
1100
0010
0101
0010
1100
0010
,
0101
1000
0110
1000
0101
1000
0110
0001
,
1010
0000
0000
0100
0000
0000
0011
0000
0000
0100
0000
0000
1010
0000
0000
0100
0000
0000
0011
0000
0000
1000
0100
0010
,
1001
1001
0101
0011
1100
1100
1010
0110
,
1000
0001
0100
0010
0000
0000
1000
0001
0100
0010
0000
0000
1000
0001
0100
0010
,
0000
0000
1000
0001
0100
0010
0000
0000
1000
0001
0100
0010
1000
0010
0100
0001
,
0010
0100
1000
0001
0000
0000
0010
0100
1000
0001
0000
0000
0010
0100
1000
0001
,
0000
0000
0010
0100
1000
0001
0000
0000
0000
0000
0000
0000
0000
0000
0000
0000
,
1001
0010
0100
0001
0010
0100
1001
0010
0100
0001
0010
0100
1001
0001
0010
0100
,
1100
0010
0100
0001
0010
0100
1100
0010
0100
0001
0010
0100
2200
0000
3300
0000
,
0101
0010
1000
0100
0010
0001
0101
0010
1000
0100
0010
0001
0101
0010
0100
0001
,
0101
0010
1000
0101
0010
1000
0101
0010
1000
0101
0010
1000
0010
0100
0001
1000
,
1001
1000
0100
1000
0010
1000
1001
0001
0010
0001
0100
0001
1001
0010
0100
1000
,
1100
0100
0010
0100
1000
0100
0110
0100
1000
0100
0010
0001
0022
0000
0033
0000
,
1010
0100
0001
0100
0010
0100
0110
0100
0001
0010
0100
1000
1010
0100
0001
0010
,
1001
0010
0100
1001
0010
0100
1001
0010
0100
1001
0010
0100
1001
1000
0100
0010
,
2002
0000
3003
2002
0000
3003
2002
3003
,
0202
0000
0000
0000
0000
0000
0303
0000
0000
0202
0000
0000
0000
0000
0000
0303
0000
0000
0001
0100
0010
1000
0010
0100
,
0001
0001
0001
0010
0100
0100
0100
1000
0010
0010
0010
0100
0001
0001
1000
1000
,
0001
0001
0010
0100
1000
1000
0001
0100
0010
0010
0100
0001
2002
0000
0000
3003
,
1001
0001
0010
0100
0010
0100
1001
0001
0010
0100
0010
0100
1001
0001
0010
0100
,
1001
0001
0001
0011
0001
0001
0101
0001
0001
1001
0001
0001
0101
0100
0110
0100
,
2001
0000
0000
0010
0000
0000
0001
3000
,
0210
0000
0000
0000
0000
0000
0000
0000
0000
0001
0000
0000
0000
0000
0000
0300
0000
0010
0001
0100
0010
1000
0100
0010
,
1001
0000
0000
1001
0000
0000
0001
0000
0000
0000
0000
0000
0000
0000
0000
0000
0000
0000
0001
0000
0000
1000
0100
0010
,
0101
0000
0000
0101
0000
0000
0100
0000
0000
0000
0000
0000
0000
0000
0000
0000
0000
0000
0100
0000
0000
0001
0100
0010
,
1001
0101
1010
1100
,
0011
0001
0010
0100
1000
1000
0100
0010
,
0101
1010
0001
1010
0101
1010
0001
1100
,
0011
1100
0001
1010
0101
1010
0001
1100
,
0011
0000
0000
1100
0000
0000
0010
0000
0000
1001
0000
0000
0110
0000
0000
1001
0000
0000
0010
0000
0000
1000
0100
0010
,
0001
0000
0001
0000
0010
0000
0100
0000
1000
0000
0010
0000
0100
0001
0100
0001
,
1010
0001
0110
0001
1010
0001
0110
1000
,
1100
0010
0101
0010
1100
0010
0101
1000
,
0110
0000
1000
0000
0101
0000
0010
0000
0101
0000
1000
0000
0110
0000
1000
0001
,
1100
1100
1010
0101
0011
0011
0110
1100
,
1000
0000
0000
0000
0000
0000
0000
0000
0100
0000
0000
0000
0000
0000
0000
0000
0010
0000
0000
0000
0000
0000
0000
0000
0001
0000
0000
0000
0000
0000
0000
0000
0000
0000
0000
0000
0000
0000
0000
0000
0000
0000
0000
0000
0000
0000
0000
0000
1000
0000
0000
0000
0000
0000
0000
0000
0100
0000
0000
0000
0000
0000
0000
0000
0010
0000
0000
0000
0000
0000
0000
0000
0001
0000
0000
0000
0000
0000
0000
0000
0000
0000
0000
0000
0000
0000
0000
0000
0000
0000
0000
0000
0000
0000
0000
0000
0000
0000
0000
0000
0000
0000
1001
0000
0000
0000
0000
0000
0000
0000
0000
0000
0000
0000
0000
0000
0000
0000
0000
0000
0000
0000
0000
0000
0000
0000
0000
0000
0000
0000
0000
0000
0000
0000
0000
0000
0000
0000
0000
0000
0000
0000
0000
0000
1000
0000
0000
0000
0000
0000
0000
0000
0100
0000
0000
0000
0000
0000
0000
0000
0010
0000
0000
0000
0000
0000
0000
0000
0001
0000
0000
0000
0000
0000
0000
0000
0000
0000
0000
0000
0000
0000
0000
0000
0000
0000
0000
0000
0000
0000
0000
0000
,
1000
0000
0000
0000
0000
0000
0000
0000
0100
0000
0000
0000
0000
0000
0000
0000
0010
0000
0000
0000
0000
0000
0000
0000
0001
0000
0000
0000
0000
0000
0000
0000
0000
0000
0000
0000
0000
0000
0000
0000
0000
0000
0000
0000
0000
0000
0000
0000
1000
0000
0000
0000
0000
0000
0000
0000
0100
0000
0000
0000
0000
0000
0000
0000
0010
0000
0000
0000
0000
0000
0000
0000
0001
0000
0000
0000
0000
0000
0000
0000
0000
0000
0000
0000
0000
0000
0000
0000
0000
0000
0000
0000
0000
0000
0000
0000
0000
0000
0000
0000
0000
0000
1001
0000
0000
0000
0000
0000
0000
0000
0000
0000
0000
0000
0000
0000
0000
0000
0000
0000
0000
0000
0000
0000
0000
0000
0000
0000
0000
0000
0000
0000
0000
0000
0000
0000
0000
0000
0000
0000
0000
0000
0000
0000
1000
0000
0000
0000
0000
0000
0000
0000
0100
0000
0000
0000
0000
0000
0000
0000
0010
0000
0000
0000
0000
0000
0000
0000
0001
0000
0000
0000
0000
0000
0000
0000
0000
0000
0000
0000
0000
0000
0000
0000
0000
0000
0000
0000
0000
0000
0000
0000
,
1000
0000
0000
0000
0000
0000
0000
0000
0100
0000
0000
0000
0000
0000
0000
0000
0010
0000
0000
0000
0000
0000
0000
0000
0001
0000
0000
0000
0000
0000
0000
0000
0000
0000
0000
0000
0000
0000
0000
0000
0000
0000
0000
0000
0000
0000
0000
0000
1000
0000
0000
0000
0000
0000
0000
0000
0100
0000
0000
0000
0000
0000
0000
0000
0010
0000
0000
0000
0000
0000
0000
0000
0001
0000
0000
0000
0000
0000
0000
0000
0000
0000
0000
0000
0000
0000
0000
0000
0000
0000
0000
0000
0000
0000
0000
0000
0000
0000
0000
0000
0000
0000
1001
0000
0000
0000
0000
0000
0000
0000
0000
0000
0000
0000
0000
0000
0000
0000
0000
0000
0000
0000
0000
0000
0000
0000
0000
0000
0000
0000
0000
0000
0000
0000
0000
0000
0000
0000
0000
0000
0000
0000
0000
0000
1000
0000
0000
0000
0000
0000
0000
0000
0100
0000
0000
0000
0000
0000
0000
0000
0010
0000
0000
0000
0000
0000
0000
0000
0001
0000
0000
0000
0000
0000
0000
0000
0000
0000
0000
0000
0000
0000
0000
0000
0000
0000
0000
0000
0000
0000
0000
0000
,
1000
0100
1000
0010
1000
0001
0100
0010
1000
0100
1000
0010
0100
0001
0010
0001
,
1000
0000
0000
0000
0000
0000
0000
0000
0010
0000
0000
0000
0000
0000
0000
0000
0100
0000
0000
0000
0000
0000
0000
0000
0001
0000
0000
0000
0000
0000
0000
0000
0000
0000
0000
0000
0000
0000
0000
0000
0000
0000
0000
0000
0000
0000
0000
0000
1000
0000
0000
0000
0000
0000
0000
0000
0010
0000
0000
0000
0000
0000
0000
0000
0100
0000
0000
0000
0000
0000
0000
0000
0001
0000
0000
0000
0000
0000
0000
0000
0000
0000
0000
0000
0000
0000
0000
0000
0000
0000
0000
0000
0000
0000
0000
0000
0000
0000
0000
0000
0000
0000
1001
0000
0000
0000
0000
0000
0000
0000
0000
0000
0000
0000
0000
0000
0000
0000
0000
0000
0000
0000
0000
0000
0000
0000
0000
0000
0000
0000
0000
0000
0000
0000
0000
0000
0000
0000
0000
0000
0000
0000
0000
0000
1000
0000
0000
0000
0000
0000
0000
0000
0010
0000
0000
0000
0000
0000
0000
0000
0100
0000
0000
0000
0000
0000
0000
0000
0001
0000
0000
0000
0000
0000
0000
0000
0000
0000
0000
0000
0000
0000
0000
0000
0000
0000
0000
0000
0000
0000
0000
0000
,
1000
0000
0000
0000
0000
0000
0000
0000
0010
0000
0000
0000
0000
0000
0000
0000
0100
0000
0000
0000
0000
0000
0000
0000
0001
0000
0000
0000
0000
0000
0000
0000
0000
0000
0000
0000
0000
0000
0000
0000
0000
0000
0000
0000
0000
0000
0000
0000
1000
0000
0000
0000
0000
0000
0000
0000
0010
0000
0000
0000
0000
0000
0000
0000
0100
0000
0000
0000
0000
0000
0000
0000
0001
0000
0000
0000
0000
0000
0000
0000
0000
0000
0000
0000
0000
0000
0000
0000
0000
0000
0000
0000
0000
0000
0000
0000
0000
0000
0000
0000
0000
0000
1001
0000
0000
0000
0000
0000
0000
0000
0000
0000
0000
0000
0000
0000
0000
0000
0000
0000
0000
0000
0000
0000
0000
0000
0000
0000
0000
0000
0000
0000
0000
0000
0000
0000
0000
0000
0000
0000
0000
0000
0000
0000
1000
0000
0000
0000
0000
0000
0000
0000
0010
0000
0000
0000
0000
0000
0000
0000
0100
0000
0000
0000
0000
0000
0000
0000
0001
0000
0000
0000
0000
0000
0000
0000
0000
0000
0000
0000
0000
0000
0000
0000
0000
0000
0000
0000
0000
0000
0000
0000
,
1000
0000
0000
0000
0000
0000
0000
0000
0010
0000
0000
0000
0000
0000
0000
0000
0100
0000
0000
0000
0000
0000
0000
0000
0001
0000
0000
0000
0000
0000
0000
0000
0000
0000
0000
0000
0000
0000
0000
0000
0000
0000
0000
0000
0000
0000
0000
0000
1000
0000
0000
0000
0000
0000
0000
0000
0010
0000
0000
0000
0000
0000
0000
0000
0100
0000
0000
0000
0000
0000
0000
0000
0001
0000
0000
0000
0000
0000
0000
0000
0000
0000
0000
0000
0000
0000
0000
0000
0000
0000
0000
0000
0000
0000
0000
0000
0000
0000
0000
0000
0000
0000
1001
0000
0000
0000
0000
0000
0000
0000
0000
0000
0000
0000
0000
0000
0000
0000
0000
0000
0000
0000
0000
0000
0000
0000
0000
0000
0000
0000
0000
0000
0000
0000
0000
0000
0000
0000
0000
0000
0000
0000
0000
0000
1000
0000
0000
0000
0000
0000
0000
0000
0010
0000
0000
0000
0000
0000
0000
0000
0100
0000
0000
0000
0000
0000
0000
0000
0001
0000
0000
0000
0000
0000
0000
0000
0000
0000
0000
0000
0000
0000
0000
0000
0000
0000
0000
0000
0000
0000
0000
0000
,
1001
0000
0101
0000
1010
0000
1001
0000
0011
0000
1100
0000
,
1000
0100
0010
0001
0000
0000
0001
0010
0100
1000
0000
0000
1001
0000
0000
0000
0000
0000
1000
0010
0100
0001
0000
0000
,
0001
0100
0010
1000
0000
0000
1000
0100
0010
0001
0000
0000
1001
0000
0000
0000
0000
0000
0001
0100
0010
1000
0000
0000
,
0001
0010
0100
1000
0000
0000
0001
0100
0010
1000
0000
0000
1001
0000
0000
0000
0000
0000
0001
1000
0001
1000
0000
0000
,
0101
0000
1010
0000
0101
0000
0011
0000
1100
0000
0011
0000
,
1000
0100
1000
0000
1000
0010
1000
0000
1000
0100
1000
0000
1000
0001
1000
0000
,
1000
0100
1000
0000
1000
0010
1000
0000
0001
0100
0001
0000
0001
0010
0001
0000
,
1000
0100
1000
0000
1000
0010
1000
0000
1000
0100
1000
0000
1000
0010
1000
0000
,
1001
0000
0101
0000
0011
0000
1100
0000
1010
0000
0101
0000
,
1000
0100
1000
0000
1000
0010
1000
0000
1000
0100
1000
0000
1000
0001
1000
0000
,
1000
0100
1000
0000
1000
0010
1000
0000
0001
1000
0001
0000
0001
0100
0001
0000
,
1000
0100
1000
0000
1000
0001
1000
0000
1000
0100
1000
0000
1000
0001
1000
0000
,
1001
0000
0101
0000
0101
0000
1100
0000
0101
0000
0101
0000
,
2002
0000
0000
0000
0000
3003
2020
3030
,
2002
0000
0000
0000
0000
3003
0202
0303
,
2002
0000
0000
0000
0000
3003
0220
0330
,
1001
0000
0101
0000
0011
0000
1100
0000
1010
0000
0101
0000
,
2002
0000
0000
0000
0000
3003
0022
0033
,
2002
0000
0000
0000
0000
3003
2200
3300
,
2002
0000
0000
0000
0000
3003
2002
3003
,
0110
0000
0101
0000
1001
0000
1010
0000
1100
0000
0011
0000
,
1001
0101
0000
0011
0000
0101
0000
0011
,
0000
0101
0000
0011
0000
0101
0000
0011
,
0000
0101
0000
0011
0000
0101
0000
0011
,
0000
0101
0000
0011
0000
1001
0000
0101
,
2020
0000
0000
0000
0000
0000
3030
1010
,
2002
0000
0000
0000
0000
0000
3003
1001
,
0022
0000
0000
0000
0000
0000
0033
0011
,
0220
0000
0000
0000
0000
0000
0330
0000
0001
0010
0001
0010
0100
1000
0100
1000
,
0001
0001
1001
0001
0001
0011
0001
0001
,
1100
0000
1010
0000
1001
0000
2020
3030
,
1000
1000
1001
1000
1000
1100
1000
1000
,
1010
0101
0011
0101
,
0012
0100
1000
0100
0100
1000
0100
0103
,
1100
1001
0101
1001
,
2100
0100
0010
0100
0100
0001
0100
3100
,
0001
0010
0100
1000
0001
0010
0100
1000
,
1100
1100
1010
1100
1100
1001
1100
1100
,
0011
0000
0110
0000
1100
0000
0220
0330
,
1100
1100
0110
1100
1100
0011
1100
1100
,
1001
0000
0101
0000
1010
0000
0202
0303
,
1001
1001
0011
1001
1001
0101
1001
1001
,
0110
0000
0101
0000
0011
0000
0202
0303
,
1001
1001
1010
1001
1001
1100
1001
1001
,
0001
0100
0010
1000
0001
0100
0010
1000
,
1001
0101
0011
0101
1001
1100
1001
0101
,
0110
0000
1001
0000
0101
0000
2020
3030
,
1001
1010
1100
1010
1001
0011
1001
1010
,
0110
0000
1001
0000
0101
0000
2020
3030
,
0110
1100
0011
1100
0110
0011
0110
1100
,
1001
0000
0110
0000
1100
0000
0022
0033
,
1001
1010
0101
1010
1001
0101
1001
1010
,
1100
0010
0001
0100
0010
1000
0100
0010
,
1001
1010
1100
1010
1001
0011
1001
1010
,
0110
0000
1001
0000
1010
0000
0202
0303
,
1001
0101
0011
0101
1001
1100
1001
0101
,
0110
0000
1001
0000
1010
0000
0202
0303
,
0110
0011
1100
0011
0110
1100
0110
0011
,
1001
0000
0110
0000
0011
0000
2200
3300
,
1001
0101
1010
0101
1001
1010
1001
0101
,
0011
0100
1000
0010
0100
0001
0010
0100
,
1001
0010
0100
0010
0001
0100
0010
1000
,
0101
0001
0010
0100
0010
0100
1000
0001
,
1000
0000
0001
0000
0000
0000
0001
0000
1000
0100
0010
0001
1000
0100
0010
0001
1000
0000
0010
0000
0000
0000
0100
0000
0001
0010
0100
1000
0001
0010
0100
1000
,
0001
0000
0010
0000
0000
0000
0010
0000
0001
0100
0010
1000
0001
0100
0010
1000
0001
0000
0000
0101
0000
0000
1001
0000
1010
0000
0000
1001
0000
0000
0101
0000
,
0001
0000
1000
0000
0000
0000
1000
0000
0001
0010
0100
1000
0001
0100
0010
1000
0001
0000
0100
0000
0000
0000
0100
0000
0001
0010
0100
1000
0010
0100
0001
1000
,
0010
0000
0100
0000
0000
0000
0100
0000
0010
1000
0100
0010
0001
0100
0010
1000
0001
0000
0000
0011
0000
0000
0110
0000
1100
0000
0000
0110
0000
0000
0011
0000
,
0101
0000
0100
0000
0000
0000
0010
0000
1000
0010
0100
0001
0010
0001
0100
0010
1000
0000
0100
0000
0000
0000
0100
0000
1000
0100
0010
0001
0100
0010
1000
0001
,
0100
0000
0010
0000
0000
0000
0010
0000
0100
0001
0010
0100
0010
0100
1000
0010
0100
0000
0000
0110
0000
0000
0101
0000
1001
0000
0000
0011
0000
0000
0110
0000
,
1100
0000
1000
0000
0000
0000
1000
0000
0001
0010
0001
0100
0010
1000
0100
0010
0001
0000
1000
0000
0000
0000
0001
0000
1000
0100
0010
0001
1000
0010
0100
0001
,
1000
0000
0100
0000
0000
0000
0100
0000
0010
0001
0010
0100
1000
0001
0100
0010
1000
0000
0000
0000
0000
0000
0000
1100
0000
0000
0000
0000
0000
0000
1100
0000
,
0000
0000
1001
0000
0000
0000
0000
0000
0000
1001
0000
0000
0000
0000
0000
0000
1001
0000
0000
0000
2020
3030
2020
3030
1000
0000
0001
0000
1000
0100
0010
0001
,
1000
0100
0010
0001
0022
0033
0022
0033
0001
0000
1000
0000
0001
0010
0100
1000
0001
0010
0100
1000
1001
0000
1001
0000
0100
0000
0010
0000
0001
0100
0010
1000
,
0001
0100
0010
1000
1010
0000
0000
1010
0000
0000
1010
0000
0101
0000
0000
0101
0000
0000
0101
0000
0110
0000
0110
0000
0001
0000
1000
0000
1000
0100
1000
0001
,
1000
0100
1000
0001
0101
0000
0101
0000
0001
0000
0100
0000
0001
0010
0001
0100
0001
1000
0001
0100
0022
0033
0022
0033
1000
0000
0100
0000
0010
0100
1000
0100
,
0010
1000
0001
0100
2002
0000
3003
2002
0000
3003
2002
3003
0202
0000
0303
2020
0000
3030
0220
0330
2002
3003
2002
0000
0000
0000
0000
0000
0000
0000
3003
0000
;
