#TITLE:The Riddle;
#SUBTITLE:;
#ARTIST:Gigi D'Agostino;
#TITLETRANSLIT:;
#SUBTITLETRANSLIT:;
#ARTISTTRANSLIT:;
#CREDIT:;
#BANNER:RiddleBAN.png;
#BACKGROUND:RiddleBG.png;
#LYRICSPATH:;
#CDTITLE:;
#MUSIC:The Riddle.ogg;
#OFFSET:-0.040;
#SAMPLESTART:24.560;
#SAMPLELENGTH:15.000;
#SELECTABLE:YES;
#BPMS:0.000=127.010;
#STOPS:;
#BGCHANGES:;
// cache tags:
#FIRSTBEAT:17.000;
#LASTBEAT:280.000;
#SONGFILENAME:Songs/Rodd's Revival/The Riddle (Rodd Steps)/The Riddle (Rodd Steps).sm;
#HASMUSIC:1;
#HASBANNER:1;
#MUSICLENGTH:133.954;
// end cache tags

//---------------dance-single - RODD Steps----------------
#NOTES:
     dance-single:
     RODD Steps:
     Challenge:
     11:
     0.789,0.862,0.112,0.396,0.732,672.000,15.000,53.000,0.000,0.000:

0000
0000
0000
0000
,
0000
0000
0000
0000
,
0000
0000
0000
0000
,
0000
0000
0000
0000
,
0000
0000
0000
0000
0100
0000
0010
0100
0010
0100
0010
0100
0010
0000
0001
0010
,
0001
0010
0001
0010
0001
0000
0100
0001
0100
0001
0100
0001
0100
0000
0010
1000
,
0100
0010
0001
0010
0100
0000
1000
0001
0100
0010
1000
0001
0100
0000
0010
1000
,
0100
0010
0100
1000
0001
0000
0100
0010
0100
0001
1000
0100
0010
0000
0001
0100
,
0010
0100
0001
1000
0100
0000
0010
0001
0100
0010
1000
0001
0100
0000
0010
0100
,
0001
1000
0100
1000
0100
0000
0010
0001
0010
0001
0100
0010
0100
0000
0001
1000
,
0100
0010
0001
0010
0100
0000
1000
0001
1000
0001
1000
0001
1000
0000
0001
0100
,
0010
1000
0001
0100
0010
0000
1000
0100
0010
0001
0010
0100
1000
0000
0001
0100
,
0010
0100
0001
1000
0100
0010
0100
1000
0001
0100
0010
1000
0100
0010
0100
1000
,
0001
0000
0000
0100
0000
0000
0020
0000
0000
0000
0000
0000
1030
0000
0000
0100
0000
0000
0010
0001
0010
0001
0000
0000
,
0100
0010
2000
0000
3100
0010
0002
0000
,
0103
0000
0000
0010
0000
0000
0200
0000
0000
0000
0000
0000
0302
0000
0000
0000
0000
0000
1003
0100
1000
0100
0000
0000
,
0010
0001
0200
0000
0310
1000
0200
0000
,
0310
0000
0000
0001
0000
0000
2000
0000
0000
0000
0000
0000
3001
0000
0000
0100
0000
0000
0010
0100
0010
0100
0000
0000
,
0010
1000
0002
0000
1003
0100
0020
0000
,
0031
0000
0000
0100
0000
0000
0020
0000
0000
0000
0000
0000
2030
0000
0000
0000
0000
0000
3100
0010
0100
0010
0000
0000
,
0001
0000
0000
0100
0000
0000
0010
0000
0000
0100
0000
0000
0001
0000
0000
1000
0000
0000
1001
0000
0000
0001
1000
0001
,
1000
0000
1100
0000
0110
0000
0010
0001
0100
0000
0010
1000
0100
0000
0010
0001
,
0100
0000
0100
0010
1000
0000
1000
0100
0010
0000
0010
0001
0100
0000
0100
0010
,
0100
0000
0001
1000
0100
0000
0010
0001
0100
0000
0010
1000
0010
0000
1000
0100
,
1000
0000
0100
0010
0100
0000
0010
0001
0010
0000
0001
0100
0010
0000
0010
1000
,
0100
0000
0100
0010
0001
0000
0100
0010
1000
0000
0100
0010
0100
0000
0010
0001
,
0010
0000
0001
0100
0001
0000
0100
0010
0100
0000
0010
1000
0010
0000
1000
0100
,
1000
0000
0000
0100
0000
0000
0020
0000
0000
0000
0000
0000
0031
0000
0000
0000
0000
0000
0100
0001
0100
0001
0000
0000
,
0010
0100
1000
0000
0001
0100
0010
0000
,
0100
0000
0000
0000
0000
0000
0001
0000
0000
0000
0000
0000
1000
0000
0100
0000
1000
0000
0100
0000
0000
0000
0000
0000
0010
0000
0000
0000
0000
0000
0100
0000
0000
0000
0000
0000
0010
0000
0000
0000
0000
0000
0001
0000
0000
0100
0000
0000
,
0010
0110
1010
1000
0100
0010
0001
0100
,
0010
1000
0200
0000
0001
0000
0010
0000
,
1000
0000
0320
0000
0031
0100
0010
1000
,
0200
0000
0320
0000
0000
0031
0100
0010
,
1000
0100
0020
0000
0000
0031
0200
0300
,
0110
1010
1100
1001
,
1100
0000
0120
0000
0031
0100
1000
0100
,
0010
1000
0002
0000
1000
0000
0010
0000
,
0100
0000
0000
0000
0000
0000
0013
0000
0000
0100
0000
0000
1000
0000
0000
0001
0000
0000
0100
0000
0000
0010
0100
0010
,
0100
0010
1010
1000
0100
0010
0001
0100
,
0010
0100
0002
0000
1003
0100
0020
0000
,
0031
0100
0020
0000
1030
0100
0010
0001
,
0020
2030
3200
0302
,
0013
1000
0200
0000
0310
0001
1000
0001
,
0100
0010
2000
0000
3100
0010
0002
0000
,
1003
0001
0200
0000
0310
1000
0100
0001
,
0100
0000
0000
0010
0000
0000
0001
0000
0000
0001
0000
0000
0100
0000
0000
0100
0000
0000
0110
0000
0000
0010
1000
0010
,
1000
0000
1010
0000
1000
0000
0100
0010
0001
0010
0100
1000
0001
0000
0100
0010
,
0100
0010
0100
0010
0100
0000
0010
1000
0010
1000
0100
0010
0001
0000
0010
0100
,
1000
0100
0010
0001
0100
0000
0010
1000
0010
1000
0010
1000
0010
0000
1000
0100
,
1000
0100
0010
0001
0020
0000
0031
0000
0200
0000
2300
0000
3200
0000
0301
0000
,
0010
0100
1000
0002
0103
0020
1030
0200
,
0310
0002
0013
0200
1300
0002
0103
2000
,
3100
0002
0013
2000
3010
0002
0103
0020
,
0130
0002
1003
0200
0310
0200
1300
0020
,
1030
0000
0000
0200
0000
0000
0310
0000
0000
0200
0000
0000
0310
0000
0000
0001
0000
0000
0010
0000
0000
0001
0100
0001
,
0100
0000
0101
0000
0100
0010
1000
0100
0010
0001
0010
0100
1000
0001
0100
0010
,
1000
0100
1000
0001
0100
0010
0100
0001
1000
0100
0010
0001
0010
0100
1000
0001
,
0100
0010
1000
0001
0100
0010
0100
0001
1000
0100
1000
0001
0100
0010
1000
0010
,
1000
0100
1000
0100
0010
0001
0100
0010
1000
0100
0010
0100
1000
0001
0100
0010
,
0100
0001
0010
0100
0010
0001
0100
0010
1000
0001
0100
0010
1000
0100
0010
0001
,
0010
0100
0010
0001
0010
0100
1000
0100
0010
0100
1000
0001
0100
0010
1000
0100
,
0010
0100
1000
0001
0100
0010
0100
0001
0100
0010
0100
0001
1000
0100
0010
0001
,
0010
0100
1000
0001
0100
0010
0100
0010
0100
0010
1000
0010
1000
0010
1000
0100
,
1000
0100
0010
0100
0010
0001
0010
0001
0100
0001
0100
0010
0100
0010
1000
0100
,
0010
0100
1000
0001
0100
0010
1000
0001
0100
0010
0100
0001
1000
0100
0010
0001
,
1000
0100
0010
0001
0100
0000
0010
0000
1000
0000
0100
0000
0010
0000
0001
0000
,
0100
1000
0100
0010
1000
0100
0001
0100
,
0010
0001
0100
0010
0100
0001
1000
0100
,
0010
0001
1000
0000
0001
0000
0100
0000
,
0010
0000
0000
0000
;
