#TITLE:The legend of Jumping;
#SUBTITLE:;
#ARTIST:DJ Tepples;
#TITLETRANSLIT:;
#SUBTITLETRANSLIT:;
#ARTISTTRANSLIT:;
#CREDIT:;
#BANNER:jumping-banner.png;
#BACKGROUND:jumping-bg.png;
#LYRICSPATH:;
#CDTITLE:cdtitle.png;
#MUSIC:jumping.ogg;
#OFFSET:-0.200;
#SAMPLESTART:57.720;
#SAMPLELENGTH:12.000;
#SELECTABLE:YES;
#BPMS:0.000=125.000,88.000=250.000,292.000=240.000,292.250=230.000,292.500=220.000,292.750=210.000,293.000=200.000,293.250=190.000,293.500=180.000,293.750=170.000,294.000=160.000,294.250=150.000;
#STOPS:88.000=0.480
,90.000=0.480
,296.000=5.000
;
#BGCHANGES:;
// cache tags:
#FIRSTBEAT:16.000;
#LASTBEAT:295.000;
#SONGFILENAME:Songs/plaguemix series/Jumping/jumping.sm;
#HASMUSIC:1;
#HASBANNER:1;
#MUSICLENGTH:100.000;
// end cache tags

//---------------dance-single - lgt----------------
#NOTES:
     dance-single:
     lgt:
     Easy:
     4:
     0.214,0.369,0.740,0.020,0.000,74.000,74.000,2.000,0.000,0.000:






0000
0000
0000
0000
,
0000
0000
0000
0000
,
0000
0000
0000
0000
,
0000
0000
0000
0000
,
1001
0000
0000
0000
,
1001
0000
0000
0000
,
0110
0000
0000
0000
,
1001
0000
0000
0000
,
1001
1001
0000
0000
,
1001
1001
0000
0000
,
1100
0000
0000
0000
,
1010
0000
0000
0000
,
0101
0000
0000
0000
,
0011
0011
0000
0000
,
1100
0000
0000
0000
,
1010
0000
0000
0000
,
0011
0000
0000
0000
,
0101
0000
0000
0000
,
1100
0000
0000
0000
,
1010
0000
0000
0000
,
0011
0000
0000
0000
,
0101
0000
0000
0000
,
1010
0000
0011
0000
,
1100
0000
0000
0000
,
0101
0000
0000
0000
,
1001
0000
0000
0000
,
0110
0000
0000
0000
,
0101
0000
0000
0000
,
1100
0000
0000
0000
,
0011
0000
0000
0000
,
1001
0000
0000
0000
,
0101
0000
0000
0000
,
1001
0000
0000
0000
,
0110
0000
0000
0000
,
1010
0000
0000
0000
,
0110
0000
0000
0000
,
1010
0000
0000
0000
,
0101
0000
0000
0000
,
1001
0000
0000
0000
,
0011
0000
0000
0000
,
1010
0000
0000
0000
,
0101
0000
0000
0000
,
1010
0000
0000
0000
,
0101
0000
0000
0000
,
0011
0000
0000
0000
,
1100
0000
0000
0000
,
0011
0000
0000
0000
,
0110
0000
0000
0000
,
1100
0000
0000
0000
,
1010
0000
0000
0000
,
1001
0000
0000
0000
,
0011
0000
0000
0000
,
1010
0000
0000
0000
,
0101
0000
0000
0000
,
1100
0000
0000
0000
,
1001
0000
0000
0000
,
0110
0000
0000
0000
,
1010
0000
0000
0000
,
0101
0000
0000
0000
,
1100
0000
0000
0000
,
0011
0000
0000
0000
,
0110
0000
0000
0000
,
0101
0000
0000
0000
,
1001
0000
0000
0000
,
0110
0000
0000
0000
,
0011
0000
0000
0000
,
0110
0000
0000
0000
,
0101
0000
0000
0000
,
1001
0000
0000
0000
,
0110
0000
0000
0000
,
1010
0000
0000
0000
,
0011
0000
0000
0000
,
0101
0000
0000
0000
,
2200
0000
0000
3300
,;

//---------------dance-single - std----------------
#NOTES:
     dance-single:
     std:
     Medium:
     7:
     0.380,0.369,1.000,0.020,0.000,132.000,132.000,2.000,0.000,0.000:



0000
0000
0000
0000
,
0000
0000
0000
0000
,
0000
0000
0000
0000
,
0000
0000
0000
0000
,
1001
0000
0000
0000
,
1001
0000
0000
0000
,
0110
0000
0000
0000
,
1001
0000
0000
0000
,
1001
1001
0000
0000
,
1001
1001
0000
0000
,
1100
0000
0000
0000
,
1010
0000
0000
0000
,
0101
0000
0000
0000
,
0011
0011
0000
0000
,
1100
0000
1010
0000
,
0011
0000
0101
0000
,
1100
0000
1010
0000
,
0011
0000
0101
0000
,
1100
0000
0101
0000
,
0011
0000
1010
0000
,
1100
0000
0101
0000
,
0011
0000
1010
0000
,
1100
0000
0011
0000
,
1100
0000
1001
0000
,
0011
0000
0110
0000
,
1001
0000
1100
0000
,
1001
0000
0101
0000
,
1010
0000
1100
0000
,
0101
0000
1001
0000
,
1100
0000
0101
0000
,
1100
0000
0011
0000
,
1100
0000
0110
0000
,
0011
0000
0101
0000
,
1010
0000
0101
0000
,
0110
0000
0101
0000
,
1010
0000
0101
0000
,
0110
0000
1001
0000
,
0110
0000
1100
0000
,
0011
0000
1001
0000
,
0101
0000
1010
0000
,
1100
0000
0011
0000
,
1100
0000
0011
0000
,
1100
0000
1010
0000
,
0101
0000
1010
0000
,
1001
0000
1010
0000
,
0011
0000
0101
0000
,
1010
0000
0101
0000
,
0011
0000
0110
0000
,
1010
0000
1100
0000
,
1010
0000
0110
0000
,
1001
0000
0101
0000
,
0110
0000
1100
0000
,
0101
0000
0011
0000
,
1001
0000
0110
0000
,
0011
0000
1100
0000
,
0101
0000
1010
0000
,
0110
0000
1010
0000
,
0011
0000
1100
0000
,
0110
0000
1001
0000
,
1010
0000
0011
0000
,
0101
0000
0110
0000
,
1001
0000
0110
0000
,
0011
0000
1100
0000
,
1001
0000
0011
0000
,
1010
0000
0011
0000
,
0110
0000
1010
0000
,
0011
0000
1010
0000
,
0101
0000
1100
0000
,
0110
0000
0101
0000
,
1100
0000
0011
0000
,
1001
0000
0110
0000
,
1001
0000
1100
0000
,
1010
0000
0110
0000
,
2200
0000
0000
3300
,;

//---------------dance-single - hvy----------------
#NOTES:
     dance-single:
     hvy:
     Hard:
     10:
     0.700,0.664,1.000,0.020,0.040,244.000,244.000,2.000,0.000,0.000:

0000
0000
0000
0000
,
0000
0000
0000
0000
,
0000
0000
0000
0000
,
0000
0000
0000
0000
,
1001
0000
0000
0000
,
1001
0000
0000
0000
,
0110
0000
0000
0000
,
1001
0000
0000
0000
,
1001
1001
0000
0000
,
1001
1001
0000
0000
,
1100
0000
0000
0000
,
1010
0000
0000
0000
,
0101
0000
0000
0000
,
0011
0011
0000
0000
,
1100
0000
0000
0011
0000
0000
1100
0000
0000
0000
0000
0000
1001
0000
0000
0000
,
1010
0000
0000
0101
0000
0000
1010
0000
0000
0000
0110
0000
0000
0000
0000
0000
,
0011
0000
0000
1100
0000
0000
0011
0000
0000
0000
0000
0000
1001
0000
0000
0000
,
0101
0000
0000
1010
0000
0000
0101
0000
0000
0000
0110
0000
0000
0000
0000
0000
,
1100
0000
0000
0011
0000
0000
1100
0000
0000
0000
0000
0000
1001
0000
0000
0000
,
1010
0000
0000
0101
0000
0000
1010
0000
0000
0000
0110
0000
0000
0000
0000
0000
,
0011
0000
0000
1100
0000
0000
0011
0000
0000
0000
0000
0000
1001
0000
0000
0000
,
0101
0000
0000
1010
0000
0000
0101
0000
0000
0000
0110
0000
0000
0000
0000
0000
,
1010
0000
0011
0000
,
1100
0000
1001
0000
,
0101
0000
0110
0000
,
1001
1001
0101
0011
,
1100
1010
0110
0011
,
0110
0011
1100
0110
,
1001
0110
0101
0110
,
1100
0110
1001
0110
,
0101
1001
0101
1001
,
0101
0110
1001
1010
,
1100
0101
0110
1010
,
0110
1001
1010
1001
,
0011
1100
0110
0101
,
0110
0011
1001
0011
,
1100
0011
1001
1100
,
0110
1100
0110
0011
,
1100
1010
0101
0110
,
1001
0110
1100
1010
,
0101
1001
1010
0110
,
1001
0101
1010
0110
,
1100
1010
1001
1100
,
0110
1100
1010
0011
,
1010
0101
1001
0110
,
1001
0110
1100
1010
,
1001
0110
1010
1100
,
0101
0110
1001
0101
,
1100
0101
1100
1001
,
1010
1100
0011
0110
,
1100
1001
0101
0110
,
0101
1010
1001
0110
,
0011
0101
1010
0011
,
1100
1001
0110
1010
,
0101
1010
0101
0011
,
0110
0011
1010
0101
,
1010
1001
0101
1010
,
1001
0110
0011
1100
,
0110
0101
1001
0101
,
0011
1100
1001
0110
,
0011
1010
0011
1100
,
1010
1001
0101
1010
,
0101
0110
1010
1100
,
1001
1010
0101
0011
,
0101
0011
0101
1010
,
0101
1100
0011
1100
,
0011
0101
1010
0101
,
0011
1001
0110
0101
,
1001
0101
0110
0011
,
0101
0011
1100
1001
,
1010
0101
1100
1001
,
0011
0101
1010
0101
,
1010
0011
1010
0110
,
2200
0000
0000
3300
,;
