#TITLE:Airplanes;
#SUBTITLE:Feint Remix;
#ARTIST:B.O.B;
#TITLETRANSLIT:;
#SUBTITLETRANSLIT:;
#ARTISTTRANSLIT:;
#CREDIT:DDRHOUSEHQ;
#BANNER:../Banner.png;
#BACKGROUND:BG.jpg;
#LYRICSPATH:;
#CDTITLE:../CDTitleDDR.png;
#MUSIC:Airplanes (Feint Remix) - B.O.B.ogg;
#OFFSET:-0.128;
#SAMPLESTART:41.942;
#SAMPLELENGTH:21.240;
#SELECTABLE:YES;
#BPMS:0.000=178.000;
#STOPS:;
#BGCHANGES:;
// cache tags:
#FIRSTBEAT:0.000;
#LASTBEAT:840.000;
#SONGFILENAME:Songs/Index Fusion/Airplanes (Feint Remix) - [ddrhousehq]/Airplanes (Feint Remix) - B.O.B.sm;
#HASMUSIC:1;
#HASBANNER:1;
#MUSICLENGTH:285.936;
// end cache tags

//---------------dance-single - ----------------
#NOTES:
     dance-single:
     :
     Challenge:
     17:
     1.000,1.000,0.259,0.077,1.000,2179.000,74.000,22.000,0.000,0.000:

1001
0100
0010
0001
,
1000
0010
1000
0001
,
1100
0001
0100
0011
,
1001
0010
1000
0110
,
0101
1000
0001
0010
,
0100
1000
1100
1010
,
1001
0010
1000
0011
,
1100
0001
1000
1100
,
1010
0001
0100
0010
,
1000
0001
0101
0010
,
1100
0010
1000
0101
,
1001
0100
0011
0101
,
1001
0001
0100
0001
,
0010
0001
1001
0110
,
1001
0001
0100
1010
,
0101
0010
1000
0100
1000
0000
0001
0000
,
0100
0000
0000
0010
0000
0000
0001
1000
,
0001
0000
0000
0100
0000
0001
1000
0000
,
0010
1000
0000
0002
0000
0000
0000
0003
,
0000
0000
1000
0100
0010
0001
0100
0010
,
1000
0001
0100
0001
,
1000
0010
1000
0001
,
0100
0000
0010
0000
1000
0001
0100
0000
,
0000
0001
0100
0010
1000
0000
0010
0000
,
1000
0000
0000
0001
0000
0000
0100
0010
,
1000
0000
0000
0001
0000
1000
0010
0000
,
0001
1000
0000
0020
0000
0000
0000
0030
,
0000
0000
0001
0100
0001
1000
0010
1000
,
0001
0100
0001
0100
,
0010
1000
0001
1000
,
0100
0000
0010
0000
0001
1000
0010
0000
,
2000
0010
0100
0010
0001
0000
3010
0000
,
1000
0001
0100
0010
1000
0001
1000
0010
1000
0001
1000
0001
0010
0001
0100
0010
,
1000
0001
1000
0100
0010
0001
1000
0001
0100
0010
0100
0001
1000
0010
1000
0001
,
0010
0100
1000
0010
1000
0001
0100
0001
1000
0010
1000
0001
0100
0010
1000
0010
,
0100
0001
0100
0001
1000
0010
0100
0001
1000
0001
0100
0010
1000
0100
1000
0001
,
0100
0001
1000
0010
0100
0001
1000
0100
0010
0001
1000
0010
1000
0001
0010
0100
,
1000
0010
1000
0001
0100
0010
1000
0100
1000
0001
0100
0010
1000
0001
1000
0100
,
0010
0001
0100
0001
1000
0010
1000
0001
0010
0000
0001
0000
0100
0000
0000
0000
,
0000
0010
1000
0001
1000
0000
0100
0000
,
0010
0001
1000
0010
0100
0001
0010
0100
1000
0001
1000
0010
1000
0010
0100
0001
,
0100
0010
1000
0100
0010
0001
0100
0010
1000
0001
0100
0001
0100
0001
1000
0010
,
0100
0001
1000
0001
1000
0001
0100
0010
1000
0010
1000
0001
1000
0100
1000
0001
,
0100
0001
1000
0010
1000
0100
0010
0100
0010
0100
1000
0010
1000
0001
1000
0010
,
0100
0001
0010
0100
1000
0001
0100
0001
0010
0100
1000
0100
0010
0001
1000
0010
,
0100
0000
0000
0000
0000
0000
0000
0000
0000
0000
0001
0000
0000
0000
0000
0000
0000
0000
0000
1000
0000
0000
0000
0000
0000
0000
0000
0000
0000
0100
0000
0000
0000
0000
0000
0000
0000
0000
0010
0000
0000
0000
0000
0000
0000
0000
0000
0000
0001
0000
0000
0000
0000
0000
0000
0000
0000
0000
1000
0000
0000
0000
0000
0000
0000
0000
0000
0010
0000
0000
0000
0000
0000
0000
0000
0000
0000
1000
0000
0000
0000
0000
0000
0000
0000
0000
0001
0000
0000
0000
0000
0000
0000
0000
0000
0000
0100
0000
0000
0000
0000
0000
0000
0000
0000
0000
0010
0000
0000
0000
0000
0000
0000
0000
0000
1000
0000
0000
0000
0000
0000
0000
0000
0000
0000
0001
0000
0000
0000
0000
0000
0000
0000
0000
1000
0000
0000
0000
0000
0000
0000
0000
0000
0000
0100
0000
0000
0000
0000
0000
0000
0000
0000
0000
0010
0000
0000
0000
0000
0000
0000
0000
0000
0001
0000
0000
0000
0000
0000
0000
0000
0000
0000
0010
0000
0000
0000
0000
0000
0000
0000
0000
0001
0000
0000
0000
0000
0000
0000
0000
0000
0000
,
0100
0000
0000
0000
0000
0000
0000
0000
0000
0000
0010
0000
0000
0000
0000
0000
0000
0000
0000
1000
0000
0000
0000
0000
0000
0000
0000
0000
0000
0010
0000
0000
0000
0000
0000
0000
0000
0000
0100
0000
0000
0000
0000
0000
0000
0000
0000
0000
0001
0000
0000
0000
0000
0000
0000
0000
0000
0000
0100
0000
0000
0000
0000
0000
0000
0000
0000
0001
0000
0000
0000
0000
0000
0000
0000
0000
0000
1000
0000
0000
0000
0000
0000
0000
0000
0000
0001
0000
0000
0000
0000
0000
0000
0000
0000
0000
0100
0000
0000
0000
0000
0000
0000
0000
0000
0000
0010
0000
0000
0000
0000
0000
0000
0000
0000
0100
0000
0000
0000
0000
0000
0000
0000
0000
0000
0010
0000
0000
0000
0000
0000
0000
0000
0000
1000
0000
0000
0000
0000
0000
0000
0000
0000
0000
0100
0000
0000
0000
0000
0000
0000
0000
0000
0000
0010
0000
0000
0000
0000
0000
0000
0000
0000
0001
0000
0000
0000
0000
0000
0000
0000
0000
0000
0100
0000
0000
0000
0000
0000
0000
0000
0000
0001
0000
0000
0000
0000
0000
0000
0000
0000
0000
,
1000
0000
0000
0000
0000
0000
0000
0000
0000
0000
0010
0000
0000
0000
0000
0000
0000
0000
0000
1000
0000
0000
0000
0000
0000
0000
0000
0000
0000
0100
0000
0000
0000
0000
0000
0000
0000
0000
0010
0000
0000
0000
0000
0000
0000
0000
0000
0000
0001
0000
0000
0000
0000
0000
0000
0000
0000
0000
1000
0000
0000
0000
0000
0000
0000
0000
0000
0010
0000
0000
0000
0000
0000
0000
0000
0000
0000
1000
0000
0000
0000
0000
0000
0000
0000
0000
0010
0000
0000
0000
0000
0000
0000
0000
0000
0000
0100
0000
0000
0000
0000
0000
0000
0000
0000
0000
0001
0000
0000
0000
0000
0000
0000
0000
0000
0100
0000
0000
0000
0000
0000
0000
0000
0000
0000
0001
0000
0000
0000
0000
0000
0000
0000
0000
0100
0000
0000
0000
0000
0000
0000
0000
0000
0000
0010
0000
0000
0000
0000
0000
0000
0000
0000
0000
1000
0000
0000
0000
0000
0000
0000
0000
0000
0001
0000
0000
0000
0000
0000
0000
0000
0000
0000
1000
0000
0000
0000
0000
0000
0000
0000
0000
0001
0000
0000
0000
0000
0000
0000
0000
0000
0000
,
0100
0001
0010
0100
1000
0010
0100
0001
1000
0010
1000
0001
1000
0100
0010
0001
,
0100
0001
0100
0001
0010
0100
1000
0001
0100
0010
1000
0001
1000
0010
0100
0001
,
1000
0010
1000
0001
1000
0100
0010
0001
0010
0001
0100
0010
0100
0001
1000
0001
,
0100
0001
0010
0100
1000
0001
0100
0010
1000
0010
1000
0001
0100
0001
1000
0010
,
0100
0001
1000
0001
0010
0100
1000
0010
1000
0010
1000
0100
1000
0010
0100
0001
,
1000
0001
0100
0001
0100
0001
1000
0010
1000
0010
0100
0001
0010
0100
1000
0001
,
0100
0010
1000
0010
1000
0100
1000
0001
0100
0010
1000
0100
0010
0001
1000
0001
,
0100
0001
0010
0100
1000
0010
0100
0001
0100
0001
0010
0001
1000
0010
1000
0010
,
1000
0001
0100
0010
1000
0001
0100
0010
1000
0001
1000
0001
0100
0010
1000
0010
,
0100
0001
1000
0100
0010
0001
1000
0010
1000
0100
1000
0001
0100
0010
1000
0001
,
0100
0001
1000
0100
1000
0010
1000
0100
1000
0001
1000
0001
0010
0100
1000
0010
,
0100
0001
1000
0010
1000
0001
0100
0001
0010
0001
1000
0100
0010
0001
0100
0010
,
1000
0001
0010
0001
0100
0001
1000
0001
0010
0100
1000
0010
1000
0010
1000
0100
,
0010
0001
1000
0001
1000
0010
0100
0001
1000
0010
0100
0001
1000
0010
1000
0010
,
1000
0001
0100
0010
1000
0001
0100
0001
1000
0010
0100
0001
1000
0001
0010
0000
,
0100
0100
0010
0010
,
0001
0000
0000
0000
0001
0100
0010
1000
0001
1000
0100
0010
0001
0100
0010
1000
,
0010
1000
0001
0010
0001
0100
0001
1000
0001
0010
0100
1000
0001
0100
0010
1000
,
0100
1000
0010
1000
0001
0100
0001
1000
0010
0100
0001
0100
0010
0100
0001
0010
,
0100
1000
0010
1000
0001
0100
0010
1000
0001
0010
0001
0010
0001
0100
0001
1000
,
0001
0100
0001
1000
0010
0100
0001
0010
0100
1000
0100
0010
0001
0100
0010
1000
,
0001
1000
0010
0100
0001
0010
0001
0100
0001
1000
0100
1000
0001
0100
0001
0010
,
0100
1000
0010
1000
0001
1000
0100
1000
0010
0100
0001
0100
0001
0010
0100
1000
,
0100
0010
0100
1000
0100
0010
0001
1000
0100
1000
0010
1000
0001
1000
0100
0010
,
0001
1000
0001
0100
0010
0100
0001
0010
0100
0010
0001
1000
0010
1000
0100
0010
,
0001
0100
0010
1000
0010
1000
0100
1000
0010
0100
0001
0100
0010
1000
0001
0100
,
0001
0010
0100
1000
0010
1000
0001
0100
0010
1000
0010
1000
0001
0100
0010
1000
,
0001
0100
0001
0010
0001
1000
0100
0010
0001
1000
0010
0100
0001
1000
0010
1000
,
0001
0100
0010
1000
0001
0100
0001
0100
0001
0010
0100
1000
0010
1000
0001
0100
,
0001
0000
0000
0000
0000
0000
0000
0000
0000
0000
1000
0000
0000
0000
0000
0000
0000
0000
0000
0001
0000
0000
0000
0000
0000
0000
0000
0000
0000
0100
0000
0000
0000
0000
0000
0000
0000
0000
0010
0000
0000
0000
0000
0000
0000
0000
0000
0000
1000
0000
0000
0000
0000
0000
0000
0000
0000
0000
0100
0000
0000
0000
0000
0000
0000
0000
0000
0010
0000
0000
0000
0000
0000
0000
0000
0000
0000
0001
0000
0000
0000
0000
0000
0000
0000
0000
0100
0000
0000
0000
0000
0000
0000
0000
0000
0000
0001
0000
0000
0000
0000
0000
0000
0000
0000
0000
1000
0000
0000
0000
0000
0000
0000
0000
0000
0100
0000
0000
0000
0000
0000
0000
0000
0000
0000
1000
0000
0000
0000
0000
0000
0000
0000
0000
0010
0000
0000
0000
0000
0000
0000
0000
0000
0000
1000
0000
0000
0000
0000
0000
0000
0000
0000
0000
0001
0000
0000
0000
0000
0000
0000
0000
0000
0100
0000
0000
0000
0000
0000
0000
0000
0000
0000
0010
0000
0000
0000
0000
0000
0000
0000
0000
1000
0000
0000
0000
0000
0000
0000
0000
0000
0000
,
0001
0000
0000
0000
0000
0000
0000
0000
0000
0000
0100
0000
0000
0000
0000
0000
0000
0000
0000
0001
0000
0000
0000
0000
0000
0000
0000
0000
0000
0010
0000
0000
0000
0000
0000
0000
0000
0000
0001
0000
0000
0000
0000
0000
0000
0000
0000
0000
1000
0000
0000
0000
0000
0000
0000
0000
0000
0000
0100
0000
0000
0000
0000
0000
0000
0000
0000
0010
0000
0000
0000
0000
0000
0000
0000
0000
0000
0001
0000
0000
0000
0000
0000
0000
0000
0000
1000
0000
0000
0000
0000
0000
0000
0000
0000
0000
0010
0000
0000
0000
0000
0000
0000
0000
0000
0000
1000
0000
0000
0000
0000
0000
0000
0000
0000
0001
0000
0000
0000
0000
0000
0000
0000
0000
0000
0100
0000
0000
0000
0000
0000
0000
0000
0000
0010
0000
0000
0000
0000
0000
0000
0000
0000
0000
1000
0000
0000
0000
0000
0000
0000
0000
0000
0000
0001
0000
0000
0000
0000
0000
0000
0000
0000
0100
0000
0000
0000
0000
0000
0000
0000
0000
0000
0001
0000
0000
0000
0000
0000
0000
0000
0000
1000
0000
0000
0000
0000
0000
0000
0000
0000
0000
,
0010
0000
0000
0000
0000
0000
0000
0000
0000
0000
1000
0000
0000
0000
0000
0000
0000
0000
0000
0001
0000
0000
0000
0000
0000
0000
0000
0000
0000
0100
0000
0000
0000
0000
0000
0000
0000
0000
0010
0000
0000
0000
0000
0000
0000
0000
0000
0000
1000
0000
0000
0000
0000
0000
0000
0000
0000
0000
0001
0000
0000
0000
0000
0000
0000
0000
0000
0100
0000
0000
0000
0000
0000
0000
0000
0000
0000
0001
0000
0000
0000
0000
0000
0000
0000
0000
0100
0000
0000
0000
0000
0000
0000
0000
0000
0000
0010
0000
0000
0000
0000
0000
0000
0000
0000
0000
0100
0000
0000
0000
0000
0000
0000
0000
0000
0001
0000
0000
0000
0000
0000
0000
0000
0000
0000
1000
0000
0000
0000
0000
0000
0000
0000
0000
0010
0000
0000
0000
0000
0000
0000
0000
0000
0000
1000
0000
0000
0000
0000
0000
0000
0000
0000
0000
0100
0000
0000
0000
0000
0000
0000
0000
0000
0010
0000
0000
0000
0000
0000
0000
0000
0000
0000
0001
0000
0000
0000
0000
0000
0000
0000
0000
1000
0000
0000
0000
0000
0000
0000
0000
0000
0000
,
0010
0100
0001
1000
0010
1000
0001
0010
0100
1000
0100
1000
0001
0100
0010
1000
,
0001
1000
0100
0010
0001
0100
0010
1000
0001
0010
0001
0100
0001
1000
0001
0100
,
0010
0100
0010
1000
0001
0100
0010
1000
0001
0010
0100
1000
0001
0100
0001
1000
,
0001
0010
0001
0100
0010
1000
0001
1000
0100
0010
0001
0100
0010
1000
0001
0100
,
0001
0100
0010
1000
0010
1000
0001
0100
0010
1000
0001
0100
0001
0010
0001
0010
,
0100
0010
0001
1000
0100
0010
0001
0100
0001
0100
0010
0100
0001
0100
0010
1000
,
0100
0010
0001
0100
0001
1000
0010
0100
0001
0010
0100
1000
0010
0000
0000
0000
,
0000
0001
1000
0010
0100
0000
0001
0000
,
0100
0010
1000
0010
1000
0100
0010
0001
0100
0010
1000
0001
0100
0001
0010
0001
,
0100
0010
1000
0100
1000
0001
1000
0010
0100
0001
0010
0100
1000
0001
0100
0001
,
0010
0001
1000
0100
0010
0001
0100
0001
0010
0100
1000
0010
0100
0001
0100
0010
,
0100
0010
0100
0001
0010
0100
1000
0001
0100
0001
1000
0100
1000
0010
1000
0001
,
0100
0010
1000
0001
0010
0100
1000
0010
0100
0001
0100
0001
0010
0001
1000
0010
,
1000
0000
0000
0000
0000
0000
0000
0000
0000
0000
0100
0000
0000
0000
0000
0000
0000
0000
0000
0010
0000
0000
0000
0000
0000
0000
0000
0000
0000
0001
0000
0000
0000
0000
0000
0000
0000
0000
0100
0000
0000
0000
0000
0000
0000
0000
0000
0000
0010
0000
0000
0000
0000
0000
0000
0000
0000
0000
1000
0000
0000
0000
0000
0000
0000
0000
0000
0001
0000
0000
0000
0000
0000
0000
0000
0000
0000
1000
0000
0000
0000
0000
0000
0000
0000
0000
0010
0000
0000
0000
0000
0000
0000
0000
0000
0000
1000
0000
0000
0000
0000
0000
0000
0000
0000
0000
0001
0000
0000
0000
0000
0000
0000
0000
0000
0100
0000
0000
0000
0000
0000
0000
0000
0000
0000
0010
0000
0000
0000
0000
0000
0000
0000
0000
0100
0000
0000
0000
0000
0000
0000
0000
0000
0000
0010
0000
0000
0000
0000
0000
0000
0000
0000
0000
1000
0000
0000
0000
0000
0000
0000
0000
0000
0010
0000
0000
0000
0000
0000
0000
0000
0000
0000
0100
0000
0000
0000
0000
0000
0000
0000
0000
0001
0000
0000
0000
0000
0000
0000
0000
0000
0000
,
1000
0000
0000
0000
0000
0000
0000
0000
0000
0000
0100
0000
0000
0000
0000
0000
0000
0000
0000
0010
0000
0000
0000
0000
0000
0000
0000
0000
0000
0001
0000
0000
0000
0000
0000
0000
0000
0000
0100
0000
0000
0000
0000
0000
0000
0000
0000
0000
0001
0000
0000
0000
0000
0000
0000
0000
0000
0000
0100
0000
0000
0000
0000
0000
0000
0000
0000
0010
0000
0000
0000
0000
0000
0000
0000
0000
0000
1000
0000
0000
0000
0000
0000
0000
0000
0000
0010
0000
0000
0000
0000
0000
0000
0000
0000
0000
1000
0000
0000
0000
0000
0000
0000
0000
0000
0000
0001
0000
0000
0000
0000
0000
0000
0000
0000
0100
0000
0000
0000
0000
0000
0000
0000
0000
0000
0010
0000
0000
0000
0000
0000
0000
0000
0000
1000
0000
0000
0000
0000
0000
0000
0000
0000
0000
0100
0000
0000
0000
0000
0000
0000
0000
0000
0000
0010
0000
0000
0000
0000
0000
0000
0000
0000
0001
0000
0000
0000
0000
0000
0000
0000
0000
0000
0100
0000
0000
0000
0000
0000
0000
0000
0000
0001
0000
0000
0000
0000
0000
0000
0000
0000
0000
,
0010
0000
0000
0000
0000
0000
0000
0000
0000
0000
0001
0000
0000
0000
0000
0000
0000
0000
0000
0100
0000
0000
0000
0000
0000
0000
0000
0000
0000
0010
0000
0000
0000
0000
0000
0000
0000
0000
0100
0000
0000
0000
0000
0000
0000
0000
0000
0000
0010
0000
0000
0000
0000
0000
0000
0000
0000
0000
1000
0000
0000
0000
0000
0000
0000
0000
0000
0001
0000
0000
0000
0000
0000
0000
0000
0000
0000
0100
0000
0000
0000
0000
0000
0000
0000
0000
0010
0000
0000
0000
0000
0000
0000
0000
0000
0000
1000
0000
0000
0000
0000
0000
0000
0000
0000
0000
0001
0000
0000
0000
0000
0000
0000
0000
0000
0010
0000
0000
0000
0000
0000
0000
0000
0000
0000
0001
0000
0000
0000
0000
0000
0000
0000
0000
0100
0000
0000
0000
0000
0000
0000
0000
0000
0000
0001
0000
0000
0000
0000
0000
0000
0000
0000
0000
1000
0000
0000
0000
0000
0000
0000
0000
0000
0010
0000
0000
0000
0000
0000
0000
0000
0000
0000
1000
0000
0000
0000
0000
0000
0000
0000
0000
0100
0000
0000
0000
0000
0000
0000
0000
0000
0000
,
2001
0100
0001
0010
,
0100
0001
0100
3010
,
0201
0010
0310
0011
,
1200
1000
1300
0011
,
1002
0010
0100
0010
,
1000
1003
1100
0110
,
0021
0100
1030
1100
,
0210
0001
0310
0101
,
2010
0100
0010
0100
,
0001
0010
0100
3001
,
0120
0100
1030
1010
,
2001
0100
3010
1010
,
0102
1000
0100
0010
,
1000
0103
0011
0110
,
2100
0010
3100
0011
,
0210
0001
0310
1100
,
0000
0001
0100
0010
1000
0000
0010
0000
,
0100
0000
0001
1000
0200
0000
0300
0010
,
0001
1000
0010
1000
0001
0000
0000
0001
,
0010
0100
1000
0000
0001
0000
0000
0001
,
0100
0010
1000
0100
0010
0001
0100
0001
,
0010
0001
1000
0000
0100
0000
0000
0010
,
0001
0100
0010
1000
0100
0010
0001
1000
,
0001
0100
0001
0000
1000
0000
0000
0001
,
0100
0010
1000
0001
0100
0010
0100
0001
,
0100
0001
1000
0000
0000
0001
0100
0010
,
2000
0000
3000
0000
0001
0000
0100
0010
1000
0000
0001
0000
0100
0000
0000
0000
,
0010
1000
0001
0000
0000
0001
0100
0001
,
0010
0001
1000
0010
0100
0001
0010
0100
,
1000
0001
0010
0000
0002
0000
0003
0100
,
0001
0000
0010
0000
1000
0010
0100
0001
,
0010
0000
0000
0000
0100
0000
1000
0000
0200
0000
0000
0000
0300
0001
1000
0010
,
0100
0001
1000
0010
1000
0100
0010
0001
0100
0001
0010
0001
1000
0100
0010
0001
,
0100
0010
0100
0001
1000
0010
0100
0001
1000
0010
1000
0001
0100
0010
1000
0001
,
0100
0001
0010
0100
1000
0010
0100
0001
1000
0010
1000
0100
1000
0010
1000
0001
,
1000
0001
1000
0010
0100
0001
0100
0001
0010
0100
1000
0010
1000
0010
1000
0010
,
0100
0010
0100
0001
0100
0001
0100
0001
1000
0010
0100
0001
1000
0010
0100
0001
,
1000
0010
0100
0001
0010
0100
1000
0010
1000
0010
1000
0001
1000
0001
0100
0001
,
1000
0001
0010
0100
1000
0001
0100
0001
0010
0001
1000
0100
0010
0001
1000
0010
,
0100
0001
1000
0001
0100
0001
0010
0001
1000
0010
1000
0100
1000
0001
0100
0010
,
1000
0001
0100
0010
1000
0100
0010
0001
0100
0001
0010
0001
1000
0010
1000
0100
,
0010
0001
1000
0010
0100
0010
0100
0001
1000
0010
0100
0001
1000
0010
1000
0100
,
1000
0001
0010
0100
1000
0010
0100
0001
1000
0010
1000
0100
1000
0001
0010
0001
,
0100
0001
1000
0010
0100
0001
1000
0010
0100
0001
1000
0001
0010
0100
1000
0001
,
0100
0001
0010
0001
1000
0010
0100
0001
1000
0001
1000
0001
0100
0001
0010
0001
,
1000
0100
0010
0001
0100
0010
1000
0001
0100
0001
0010
0001
1000
0010
0100
0000
,
0001
0100
0010
1000
0100
0010
0001
1000
,
0001
1000
0001
0000
0100
0000
0010
0000
,
0001
0100
0010
1000
0001
1000
0100
1000
0010
1000
0001
0100
0010
1000
0001
0100
,
0001
0010
0001
0100
0001
1000
0001
1000
0100
0010
0001
0100
0001
0010
0100
1000
,
0001
0100
0010
0100
0001
0100
0010
1000
0001
0100
0001
1000
0100
1000
0010
1000
,
0001
1000
0001
1000
0010
0100
0001
0100
0001
0100
0010
0100
0010
1000
0010
1000
,
0010
1000
0100
1000
0001
1000
0100
0010
0001
0100
0010
1000
0001
1000
0001
0100
,
0010
1000
0001
0100
0001
0010
0001
1000
0010
0100
0001
0100
0001
0010
0001
0100
,
0001
0010
0001
1000
0001
0100
0010
1000
0100
0010
0001
0100
0010
0000
0000
0000
,
0000
1000
0100
0010
0001
0000
0010
0000
,
0001
1000
0010
1000
0001
0100
0001
0010
0100
1000
0010
1000
0001
1000
0100
0010
,
0001
0100
0010
1000
0001
1000
0100
1000
0010
1000
0001
0100
0001
0010
0001
0100
,
0010
0100
0010
1000
0010
1000
0001
0100
0010
1000
0001
1000
0100
0010
0001
0100
,
0010
1000
0001
0100
0010
1000
0001
0010
0100
1000
0001
0100
0001
0010
0001
1000
,
0010
1000
0001
0100
0010
1000
0001
0100
0001
0100
0001
0010
0100
1000
0001
0100
,
0010
1000
0001
0100
0010
1000
0001
0100
0001
0010
0001
1000
0001
1000
0010
0100
,
0001
0000
0000
0000
0000
0000
0000
0000
0000
0000
0100
0000
0000
0000
0000
0000
0000
0000
0000
0010
0000
0000
0000
0000
0000
0000
0000
0000
0000
1000
0000
0000
0000
0000
0000
0000
0000
0000
0001
0000
0000
0000
0000
0000
0000
0000
0000
0000
0010
0000
0000
0000
0000
0000
0000
0000
0000
0000
0100
0000
0000
0000
0000
0000
0000
0000
0000
1000
0000
0000
0000
0000
0000
0000
0000
0000
0000
0001
0000
0000
0000
0000
0000
0000
0000
0000
0100
0000
0000
0000
0000
0000
0000
0000
0000
0000
0001
0000
0000
0000
0000
0000
0000
0000
0000
0000
0010
0000
0000
0000
0000
0000
0000
0000
0000
0001
0000
0000
0000
0000
0000
0000
0000
0000
0000
1000
0000
0000
0000
0000
0000
0000
0000
0000
0100
0000
0000
0000
0000
0000
0000
0000
0000
0000
0010
0000
0000
0000
0000
0000
0000
0000
0000
0000
0001
0000
0000
0000
0000
0000
0000
0000
0000
0100
0000
0000
0000
0000
0000
0000
0000
0000
0000
0010
0000
0000
0000
0000
0000
0000
0000
0000
1000
0000
0000
0000
0000
0000
0000
0000
0000
0000
,
0010
0000
0000
0000
0000
0000
0000
0000
0000
0000
1000
0000
0000
0000
0000
0000
0000
0000
0000
0100
0000
0000
0000
0000
0000
0000
0000
0000
0000
1000
0000
0000
0000
0000
0000
0000
0000
0000
0001
0000
0000
0000
0000
0000
0000
0000
0000
0000
0100
0000
0000
0000
0000
0000
0000
0000
0000
0000
0001
0000
0000
0000
0000
0000
0000
0000
0000
0010
0000
0000
0000
0000
0000
0000
0000
0000
0000
0001
0000
0000
0000
0000
0000
0000
0000
0000
1000
0000
0000
0000
0000
0000
0000
0000
0000
0000
0010
0000
0000
0000
0000
0000
0000
0000
0000
0000
1000
0000
0000
0000
0000
0000
0000
0000
0000
0100
0000
0000
0000
0000
0000
0000
0000
0000
0000
0010
0000
0000
0000
0000
0000
0000
0000
0000
0001
0000
0000
0000
0000
0000
0000
0000
0000
0000
0100
0000
0000
0000
0000
0000
0000
0000
0000
0000
0010
0000
0000
0000
0000
0000
0000
0000
0000
1000
0000
0000
0000
0000
0000
0000
0000
0000
0000
0001
0000
0000
0000
0000
0000
0000
0000
0000
1000
0000
0000
0000
0000
0000
0000
0000
0000
0000
,
0001
0000
0100
0000
0010
0000
1000
0000
0001
0000
0100
0000
0001
0000
1000
0001
1000
0000
0100
0000
0010
0000
0001
0000
0100
0000
0001
0000
1000
0000
0010
0000
,
1000
0000
0100
0000
0010
0000
0001
0000
1000
0000
0010
0000
1000
0000
0001
0100
0001
0000
1000
0000
0010
0000
0100
0000
0001
0000
0010
0000
0100
0000
1000
0000
,
0010
0000
1000
0000
0100
0000
1000
0000
0001
0000
0100
0000
0010
0000
1000
0100
1000
0000
0001
0000
0100
0000
0001
0000
1000
0000
0100
0000
0010
0000
0001
0000
,
1000
0000
0010
0000
1000
0000
0100
0000
1000
0000
0001
0000
1000
0000
0010
1000
0010
0000
0100
0000
0010
0000
0100
0000
0010
0000
1000
0000
0001
0000
1000
0000
,
0010
0000
1000
0000
0100
0000
1000
0000
0001
0000
0010
0000
0001
0010
0001
0000
0100
0000
0010
0000
1000
0000
0001
0000
0100
0000
0001
0000
1000
0000
0010
0000
,
0100
0000
0010
0000
1000
0000
0001
0000
0100
0000
0010
0000
1000
0001
1000
0001
1000
0000
0010
0000
0100
0000
0001
0000
0010
0000
0100
0000
1000
0000
0001
0000
,
0100
0000
0010
0000
1000
0000
0010
0000
1000
0000
0001
0000
0100
0001
1000
0000
0001
0000
1000
0000
0010
0000
0100
0000
0001
0000
0100
0000
0001
0000
0010
0000
,
0001
0000
1000
0000
0010
0000
1000
0000
0001
0000
0100
0000
0010
0100
0010
0000
1000
0000
0001
0000
0010
0000
0100
0000
1000
0000
0001
0000
0100
0000
0010
0000
,
1000
0000
0001
0000
1000
0000
0010
0000
1000
0000
0001
0000
1000
0100
1000
0000
0001
0000
0010
0000
0100
0000
1000
0000
0001
0000
1000
0000
0001
0000
0100
0000
,
0001
0000
0010
0000
0100
0000
1000
0000
0001
0000
0100
0000
0001
1000
0010
0000
0100
0000
0001
0000
1000
0000
0010
0000
1000
0000
0001
0000
0100
0000
0010
0000
,
1000
0000
0001
0000
1000
0000
0001
0000
1000
0000
0010
0000
1000
0100
1000
0000
0100
0000
0010
0000
0001
0000
0100
0000
0001
0000
0010
0000
0001
0000
0100
0000
,
0010
0000
0100
0000
0010
0000
1000
0000
0001
0000
0100
0000
0001
1000
0001
0000
1000
0000
0010
0000
0100
0000
0001
0000
1000
0000
0100
0000
1000
0000
0001
0000
,
1000
0000
0000
0000
0000
0000
0000
0000
0000
0000
0100
0000
0000
0000
0000
0000
0000
0000
0000
1000
0000
0000
0000
0000
0000
0000
0000
0000
0000
0010
0000
0000
0000
0000
0000
0000
0000
0000
0100
0000
0000
0000
0000
0000
0000
0000
0000
0000
0001
0000
0000
0000
0000
0000
0000
0000
0000
0000
0010
0000
0000
0000
0000
0000
0000
0000
0000
0100
0000
0000
0000
0000
0000
0000
0000
0000
0000
1000
0000
0000
0000
0000
0000
0000
0000
0000
0001
0000
0000
0000
0000
0000
0000
0000
0000
0000
0100
0000
0000
0000
0000
0000
0000
0000
0000
0000
0010
0000
0000
0000
0000
0000
0000
0000
0000
1000
0000
0000
0000
0000
0000
0000
0000
0000
0000
0001
0000
0000
0000
0000
0000
0000
0000
0000
1000
0000
0000
0000
0000
0000
0000
0000
0000
0000
0001
0000
0000
0000
0000
0000
0000
0000
0000
0000
0100
0000
0000
0000
0000
0000
0000
0000
0000
0010
0000
0000
0000
0000
0000
0000
0000
0000
0000
1000
0000
0000
0000
0000
0000
0000
0000
0000
0001
0000
0000
0000
0000
0000
0000
0000
0000
0000
,
0100
0000
0000
0000
0000
0000
0000
0000
0000
0000
0001
0000
0000
0000
0000
0000
0000
0000
0000
0010
0000
0000
0000
0000
0000
0000
0000
0000
0000
0100
0000
0000
0000
0000
0000
0000
0000
0000
0010
0000
0000
0000
0000
0000
0000
0000
0000
0000
0001
0000
0000
0000
0000
0000
0000
0000
0000
0000
1000
0000
0000
0000
0000
0000
0000
0000
0000
0001
0000
0000
0000
0000
0000
0000
0000
0000
0000
1000
0000
0000
0000
0000
0000
0000
0000
0000
0100
0000
0000
0000
0000
0000
0000
0000
0000
0000
0010
0000
0000
0000
0000
0000
0000
0000
0000
0000
0001
0000
0000
0000
0000
0000
0000
0000
0000
1000
0000
0000
0000
0000
0000
0000
0000
0000
0000
0100
0000
0000
0000
0000
0000
0000
0000
0000
1000
0000
0000
0000
0000
0000
0000
0000
0000
0000
0100
0000
0000
0000
0000
0000
0000
0000
0000
0000
1000
0000
0000
0000
0000
0000
0000
0000
0000
0001
0000
0000
0000
0000
0000
0000
0000
0000
0000
0010
0000
0000
0000
0000
0000
0000
0000
0000
0001
0000
0000
0000
0000
0000
0000
0000
0000
0000
,
0010
0000
0000
0000
0000
0000
0000
0000
0000
0000
0001
0000
0000
0000
0000
0000
0000
0000
0000
0010
0000
0000
0000
0000
0000
0000
0000
0000
0000
0100
0000
0000
0000
0000
0000
0000
0000
0000
0010
0000
0000
0000
0000
0000
0000
0000
0000
0000
0001
0000
0000
0000
0000
0000
0000
0000
0000
0000
1000
0000
0000
0000
0000
0000
0000
0000
0000
0010
0000
0000
0000
0000
0000
0000
0000
0000
0000
0100
0000
0000
0000
0000
0000
0000
0000
0000
0001
0000
0000
0000
0000
0000
0000
0000
0000
0000
0100
0000
0000
0000
0000
0000
0000
0000
0000
0000
0010
0000
0000
0000
0000
0000
0000
0000
0000
0100
0000
0000
0000
0000
0000
0000
0000
0000
0000
0001
0000
0000
0000
0000
0000
0000
0000
0000
1000
0000
0000
0000
0000
0000
0000
0000
0000
0000
0010
0000
0000
0000
0000
0000
0000
0000
0000
0000
1000
0000
0000
0000
0000
0000
0000
0000
0000
0001
0000
0000
0000
0000
0000
0000
0000
0000
0000
1000
0000
0000
0000
0000
0000
0000
0000
0000
0010
0000
0000
0000
0000
0000
0000
0000
0000
0000
,
0100
0000
0000
0000
0000
0000
0000
0000
0000
0000
0001
0000
0000
0000
0000
0000
0000
0000
0000
1000
0000
0000
0000
0000
0000
0000
0000
0000
0000
0001
0000
0000
0000
0000
0000
0000
0000
0000
0100
0000
0000
0000
0000
0000
0000
0000
0000
0000
0010
0000
0000
0000
0000
0000
0000
0000
0000
0000
1000
0000
0000
0000
0000
0000
0000
0000
0000
0010
0000
0000
0000
0000
0000
0000
0000
0000
0000
1000
0000
0000
0000
0000
0000
0000
0000
0000
0010
0000
0000
0000
0000
0000
0000
0000
0000
0000
0100
0000
0000
0000
0000
0000
0000
0000
0000
0000
0001
0000
0000
0000
0000
0000
0000
0000
0000
1000
0000
0000
0000
0000
0000
0000
0000
0000
0000
0100
0000
0000
0000
0000
0000
0000
0000
0000
0010
0000
0000
0000
0000
0000
0000
0000
0000
0000
0001
0000
0000
0000
0000
0000
0000
0000
0000
0000
0010
0000
0000
0000
0000
0000
0000
0000
0000
0001
0000
0000
0000
0000
0000
0000
0000
0000
0000
0100
0000
0000
0000
0000
0000
0000
0000
0000
0010
0000
0000
0000
0000
0000
0000
0000
0000
0000
,
2000
0000
0000
0000
,
0000
0000
0100
0000
,
0010
0000
0000
0000
,
0100
0000
0010
0100
,
0001
0000
0000
0000
,
0000
0000
0001
0010
,
0100
0000
0000
0010
,
0001
0000
0010
0001
,
0100
0000
0000
0000
,
0000
0000
0010
0000
,
0001
0000
0000
0100
,
0010
0000
0001
0100
,
0001
0000
0000
0000
,
0000
0000
0010
0100
,
0010
0000
0000
0100
,
0010
0000
0001
3000
,
1001
1000
0100
0010
,
0001
0010
0100
1000
,
0011
1000
0100
1100
,
0011
0100
0010
0101
,
1010
1000
0010
0100
,
0001
1000
0011
0101
,
1001
0001
0100
1010
,
1100
0010
1000
0110
,
0011
1000
0010
0100
,
0001
0100
0001
1000
,
1100
0100
0001
1100
,
0011
1000
0010
0110
,
0101
1000
0010
0100
,
0001
0010
1100
1010
,
1001
1000
0100
1001
,
0101
0100
0010
0110
,
2002
0000
0000
0000
,
0000
0000
0000
0000
,
3003
0000
0000
0000
;

//---------------dance-single - ----------------
#NOTES:
     dance-single:
     :
     Hard:
     12:
     0.654,1.000,0.259,0.101,0.220,1206.000,74.000,29.000,0.000,0.000:
1001
0100
0010
1000
,
0100
0010
0001
0100
,
1010
0001
0010
1100
,
0101
1000
0001
0110
,
1100
0001
0010
0100
,
1000
0001
0011
0101
,
1001
0100
0001
1010
,
0110
0001
1000
0110
,
1010
0001
0100
0010
,
0001
1000
0101
0001
,
1100
0001
0100
1001
,
0101
0001
1100
1010
,
1001
0001
0100
0001
,
1000
0010
1001
0110
,
1001
0010
1000
0101
,
1001
0100
1000
0001
0100
0000
0001
0000
,
1000
0000
0000
0100
0000
0000
0010
1000
,
0010
0000
0000
0100
0000
0001
1000
0000
,
0010
1000
0000
0002
0000
0000
0000
0003
,
0000
0000
0010
0100
0001
1000
0001
1000
,
0010
0001
1000
0100
,
0010
0001
0100
0001
,
0010
0000
1000
0000
0001
0100
0001
0000
,
0000
0001
0100
0010
0100
0000
1000
0000
,
0001
0000
0000
0010
0000
0000
0100
0001
,
1000
0000
0000
0001
0000
0100
0001
0000
,
0100
0010
0000
0200
0000
0000
0000
0300
,
0000
0000
0001
0100
0010
1000
0010
1000
,
0001
1000
0100
0010
,
0001
0010
0100
1000
,
0010
0000
0100
0000
0001
0100
0001
0000
,
0200
0010
0001
0010
0001
0000
0301
0000
,
0100
0010
1000
0100
1000
0001
0100
0001
,
0100
0010
0100
0001
0100
0001
1000
0100
,
1000
0100
0000
0020
0000
0000
0000
0000
,
0030
0000
0001
0010
0100
1000
0001
0100
,
0001
0100
0010
1000
,
0100
0010
0001
0100
,
0010
0000
1000
0000
0001
0010
0001
0000
,
0000
1000
0001
0100
0001
0000
1000
0000
,
0001
0100
0010
1000
0001
0100
0010
1000
,
0001
0100
0001
1000
0010
0100
0001
0010
,
0100
1000
0000
2000
0000
0000
0000
0000
,
3000
0000
0010
1000
0001
1000
0010
0100
,
0001
1000
0100
0010
,
0001
1000
0010
1000
0001
0010
0100
1000
0010
0100
0010
0100
0001
0010
0100
1000
,
0100
0010
0001
1000
0010
0100
0010
1000
0001
0100
0010
1000
0001
0100
0001
1000
,
0010
1000
0100
0010
0001
1000
0100
1000
0010
0100
0001
1000
0100
0010
0001
0100
,
0001
0100
0010
1000
0100
0000
0001
1000
,
0001
1000
0010
1000
0100
0000
0000
0001
,
0100
0001
1000
0010
0100
0000
1000
0000
,
0010
0100
0001
1000
0010
0000
0000
0001
,
0100
0001
1000
0001
0010
0100
1000
0001
,
0100
0000
0001
1000
0010
0000
1000
0000
,
0000
0001
0100
0010
0100
0000
0001
0010
,
0100
0000
1000
0001
0100
0000
0010
0000
,
0000
0001
1000
0001
0100
0010
1000
0001
,
0100
0001
0010
0100
1000
0000
1000
0000
,
0000
0010
1000
0001
1000
0000
0001
0100
,
0010
0000
1000
0100
0010
0000
0001
0000
,
0000
0001
0100
0010
1000
0010
1000
0001
,
1000
0000
0010
0100
0010
0000
1000
0100
,
1000
0100
1000
0001
0010
0001
0100
0010
,
1000
0001
0100
0010
,
0010
0000
0000
0001
1000
0001
0100
0010
,
1000
0001
1000
0000
0010
0000
0000
0001
,
0100
0001
1000
0010
0100
0000
0001
0000
,
0010
0100
0010
0000
1000
0000
0000
0000
,
0000
1000
0100
0010
0001
0000
1000
0000
,
0010
0100
0001
0100
0010
0000
1000
0010
,
1000
0000
0001
0000
0100
0000
0001
0100
,
0010
0000
1000
0000
0010
0000
0000
0001
,
1000
0100
0010
0001
,
1000
0100
1000
0000
0010
0000
0000
0001
,
1000
0000
0010
0000
0001
1000
0100
0000
,
1000
0000
0100
0000
1000
0000
0000
0010
,
1000
0000
0001
0000
0100
0000
0010
1000
,
0001
0010
0100
1000
0010
0100
0001
0100
0001
1000
0010
0100
0001
1000
0100
0010
,
0001
0100
0010
1000
0100
0010
0100
1000
0100
0010
0001
1000
0100
0010
0001
1000
,
0010
0100
0001
1000
0100
0010
0001
1000
0100
0000
0000
0000
1000
0000
0000
0000
,
0001
0100
0010
1000
0010
1000
0001
0010
,
0001
0100
0010
1000
0100
0010
0001
0100
,
0010
1000
0000
2000
0000
0000
0000
3000
,
0000
0000
0001
0100
0010
0100
0001
1000
,
0010
1000
0010
0100
,
0001
1000
0010
1000
,
0010
0000
0100
0000
0001
0100
0010
0000
,
0000
0001
1000
0010
1000
0000
0001
0000
,
1000
0010
0100
0001
0100
0001
1000
0010
,
0100
0001
1000
0001
0100
0010
1000
0001
,
0100
0001
0000
0200
0000
0000
0000
0300
,
0000
0000
0001
0100
0001
1000
0100
0010
,
0001
0010
1000
0100
,
0001
0100
0010
0100
,
0010
1000
0001
0100
0001
1000
0100
1000
0010
0100
0001
1000
0001
0100
0010
1000
,
0100
0010
0001
0100
0010
1000
0001
0010
0100
1000
0010
0100
0001
0100
0001
0000
,
2001
0100
0010
0001
,
0010
0100
3001
0010
,
0201
0010
0301
0011
,
0012
0100
1003
1100
,
2010
0100
0001
0100
,
0010
3001
1001
0101
,
2001
0100
3010
1010
,
0201
0010
0301
0110
,
2100
0010
0100
0001
,
0010
0100
0001
3010
,
0201
0010
0301
1100
,
0012
0100
1003
0101
,
2010
0100
0001
0100
,
0010
3100
0011
0110
,
0201
0010
0301
0110
,
2100
0001
3010
1001
,
0000
0001
0100
0001
0010
0000
1000
0000
,
0001
0000
0100
0001
0020
0000
0030
0001
,
1000
0100
0010
0001
1000
0000
0000
0001
,
0010
0100
1000
0000
0010
0000
0000
1000
,
0001
0010
0001
1000
0010
0100
0010
1000
,
0001
0100
0010
0000
1000
0000
0000
0001
,
0100
0010
1000
0100
1000
0001
0100
0010
,
1000
0001
1000
0000
0001
0000
0000
0100
,
0001
1000
0001
1000
0010
0100
0001
0100
,
0001
1000
0100
0000
0000
0001
1000
0001
,
0200
0000
0000
0300
0001
0000
0010
0001
1000
0000
0100
0000
1000
0000
0000
0000
,
0001
0100
0010
0000
0000
0001
0100
0010
,
1000
0001
1000
0010
0100
0001
1000
0100
,
0001
1000
0100
0000
0002
0000
0003
0100
,
0010
0000
1000
0000
0001
0010
0100
1000
,
0010
0000
0000
0000
1000
0000
0001
0000
2000
0000
0000
3000
0100
0000
1000
0000
,
0010
0100
0001
0100
0010
0000
0001
1000
,
0001
0100
0010
0000
1000
0000
0000
0001
,
0100
0010
1000
0010
1000
0001
0100
0010
,
1000
0001
1000
0000
0010
0000
0000
0001
,
0100
0010
1000
0001
0100
0001
1000
0100
,
1000
0000
0001
0000
0100
0000
0000
0001
,
0100
0010
1000
0001
1000
0010
1000
0000
,
0001
0000
0000
0000
0100
0001
1000
0010
0100
0000
0000
0000
0000
0000
0001
0000
,
0100
0010
1000
0010
1000
0000
0000
0001
,
0100
0010
1000
0010
1000
0000
0000
0001
,
0100
0000
0010
0000
1000
0000
0001
0000
0200
0000
0000
0300
0001
0000
0100
0000
,
0010
1000
0001
0000
0100
0000
0000
0001
,
1000
0000
0000
1000
0000
0000
1000
0000
0000
0000
0010
0000
0001
0000
0100
0000
,
0001
0000
0000
0001
0000
0000
0001
0000
0000
0000
0000
0000
0000
0000
0001
0000
,
0100
0001
0100
0010
1000
0100
0010
0001
,
0100
0010
1000
0000
0001
0000
1000
0000
,
0010
1000
0001
0100
0010
1000
0010
0100
,
0001
0100
0001
1000
0010
0100
0001
0100
,
0010
1000
0000
0002
0000
0000
0000
0003
,
0000
0000
0001
1000
0010
0100
0001
0010
,
0001
1000
0001
0100
,
0010
1000
0001
0010
,
0100
0000
1000
0000
0010
0100
0001
0000
,
0000
0001
0100
0001
0010
0000
0100
0000
,
0001
0100
0001
0010
0001
0100
0010
1000
,
0001
0100
0001
0100
0010
0100
0001
0100
,
0001
1000
0000
0002
0000
0000
0000
0003
,
0000
0000
0100
0001
0100
0010
1000
0001
,
1000
0001
0010
0100
,
1000
0001
0100
0010
,
1000
0001
0100
0010
1000
0001
1000
0001
0100
0010
1000
0001
0100
0001
1000
0010
,
0100
0001
1000
0100
1000
0100
1000
0001
0100
0010
1000
0001
0100
0001
0100
0010
,
1000
0000
0001
0000
0100
0000
0001
0100
0001
0000
1000
0000
0010
0000
0100
0000
,
0001
0000
0010
0000
0100
0000
1000
0100
1000
0000
0001
0000
0100
0000
0010
0000
,
1000
0000
0001
0000
0100
0000
0001
1000
0001
0000
0100
0000
0010
0000
1000
0000
,
0001
0000
0100
0000
0010
0000
0100
0010
0100
0000
0001
0000
1000
0000
0010
0000
,
0100
0000
0001
0000
0100
0000
0001
1000
0100
0000
0001
0000
1000
0000
0010
0000
,
0100
0000
0001
0000
1000
0000
0010
1000
0001
1000
0100
0010
0001
0000
1000
0000
,
0010
0000
1000
0000
0001
0000
0010
0001
0010
0000
0001
0000
1000
0000
0010
0000
,
0100
0000
0001
0000
0010
0000
0100
1000
0100
0000
0010
0000
0001
0000
1000
0000
,
0010
0000
0100
0000
0001
0000
0100
0010
1000
0000
0001
0000
0100
0000
0010
0000
,
1000
0000
0001
0000
0100
0000
0001
1000
0010
0000
1000
0000
0001
0000
0100
0000
,
0010
0000
1000
0000
0001
0000
0100
0001
1000
0000
0100
0000
1000
0000
0001
0000
,
0100
0000
0010
0000
1000
0000
0001
1000
0001
0000
1000
0000
0010
0000
0100
0000
,
0001
1000
0010
0100
0010
0100
0001
1000
0010
1000
0001
1000
0010
0100
0001
0010
,
0100
1000
0010
1000
0001
0100
0001
1000
0010
0100
0010
1000
0001
0010
0001
1000
,
0010
0100
0001
1000
0100
0010
0001
1000
0010
0100
0001
0100
0001
0010
0001
1000
,
0100
0010
0001
1000
0010
0100
0001
0100
0010
1000
0001
1000
0100
0010
0001
1000
,
0002
0000
0000
0000
,
0000
0000
0010
0000
,
0010
0000
0000
0000
,
0100
0000
0010
0100
,
1000
0000
0000
0000
,
0000
0000
1000
0100
,
0010
0000
0000
0100
,
1000
0000
0100
0010
,
1000
0000
0000
0000
,
0000
0000
0100
0000
,
0010
0000
0000
1000
,
0010
0000
0010
1000
,
0010
0000
0000
0000
,
0000
0000
0100
0010
,
1000
0000
0000
0100
,
0010
0000
0010
1003
,
1001
0100
0010
0001
,
1000
0001
0100
0010
,
1100
0001
1000
0110
,
0011
1000
0010
1100
,
0011
1000
0010
0100
,
0001
1000
0011
0101
,
1001
0001
1000
1010
,
1100
0010
1000
0011
,
0101
1000
0010
1000
,
0001
0100
0010
1000
,
0101
1000
0010
1001
,
0110
1000
0010
1100
,
1010
0001
1000
0100
,
0010
0001
1100
1010
,
1001
0100
0001
1100
,
1001
0100
0010
1001
,
2002
0000
0000
0000
,
0000
0000
0000
0000
,
3003
0000
0000
0000
;

//---------------dance-single - ----------------
#NOTES:
     dance-single:
     :
     Medium:
     8:
     0.484,0.551,0.178,0.063,0.007,900.000,51.000,18.000,0.000,0.000:
1001
1000
0100
0010
,
0001
0010
0100
1000
,
1001
0010
0100
0110
,
1001
0001
0010
0011
,
0101
0001
0010
0100
,
1000
0001
1001
1010
,
1100
1000
0100
1100
,
1010
0001
0100
0101
,
0011
0001
0010
0100
,
1000
0100
0110
0001
,
0011
1000
0001
1010
,
0101
0100
1001
0101
,
0011
1000
0010
1000
,
0001
1000
1001
0110
,
1001
0100
0001
0011
,
1000
0100
0010
0100
1000
0000
0001
0000
,
1000
0000
0000
0100
0000
0000
1000
0001
,
1000
0000
0000
0010
0000
1000
0100
0000
,
1000
0001
0000
0200
0000
0000
0000
0300
,
0000
0000
0001
0100
0010
1000
0001
0010
,
0001
1000
0010
1000
,
0010
0100
0010
1000
,
0010
0000
1000
0000
0010
0100
0010
0000
,
0000
0010
1000
0001
1000
0000
0100
0000
,
0001
0000
0000
1000
0000
0000
0100
0010
,
1000
0000
0000
0001
0000
0100
0010
0000
,
1000
0001
0000
0002
0000
0000
0000
0003
,
0000
0000
0010
1000
0100
1000
0010
1000
,
0001
0001
0010
0100
,
1000
0001
0010
0100
,
1000
0000
0100
0000
0010
0001
0010
0000
,
0002
1000
0010
1000
0010
0000
1000
0000
,
0103
0000
0000
1000
0000
0000
1000
0100
,
1000
0000
0000
0001
0000
0100
0001
0000
,
0100
0010
0000
2000
0000
0000
0000
3000
,
0000
0000
0001
1000
0100
0010
1000
0100
,
1000
0010
0100
0001
,
0010
0100
1000
0001
,
0100
0000
0010
0000
0100
0001
1000
0000
,
0000
0001
1000
0010
1000
0000
0001
0000
,
0010
0000
0000
0100
0000
0000
0100
0001
,
0100
0000
0000
0001
0000
0100
0010
0000
,
0001
1000
0000
2000
0000
0000
0000
0000
,
3000
0000
1000
0001
0010
0001
0010
0100
,
1000
0001
0100
0010
,
0001
1000
0100
0001
,
0100
0000
0010
0000
0001
1000
0001
0000
,
0000
1001
0000
0000
,
0001
0100
0010
1000
0100
0000
0001
1000
,
0010
0100
0001
0010
0001
0000
0000
0100
,
0001
0100
0010
1000
0001
0000
0100
0000
,
0001
1000
0010
0100
0010
0000
0000
0001
,
0010
0100
1000
0010
0100
0001
1000
0100
,
1000
0000
0001
1000
0100
0000
1000
0000
,
0000
0010
1000
0001
0100
0000
0001
0100
,
0010
0000
0100
0001
0100
0000
0010
0000
,
0000
0001
0100
0001
1000
0001
1000
0010
,
1000
0001
0010
0100
1000
0000
1000
0000
,
0000
0100
0001
1000
0001
0000
0010
1000
,
0001
0000
1000
0001
0010
0000
0001
0000
,
0000
0001
1000
0010
1000
0001
0100
0010
,
1000
0000
0010
1000
0001
0000
0100
0001
,
1000
0010
0100
0001
1000
0010
1000
0100
,
1000
0001
0010
0010
,
0000
0000
0000
0010
1000
0001
0010
0001
,
0100
0010
1000
0000
0001
0000
0000
1000
,
0001
0100
0010
0100
0001
0000
1000
0000
,
0100
1000
0001
0000
1000
0000
0000
0000
,
0000
0001
0100
0010
1000
0000
0010
0000
,
0001
1000
0100
1000
0100
0000
0001
0100
,
0010
0000
0001
0000
0100
0000
1000
0001
,
1000
0000
0010
0000
0100
0000
0000
0010
,
1000
0001
0100
0010
,
0001
0100
0001
0000
0010
0000
0000
0001
,
1000
0000
0100
0000
0001
0100
0001
0000
,
0100
0000
0010
0000
1000
0000
0000
0100
,
0001
0000
0010
0000
1000
0000
0001
0100
,
0001
0000
0000
1000
0000
0000
0001
0000
0000
0000
0100
0000
0001
0000
0010
0000
,
0001
0000
1000
0000
0100
1000
0010
0100
,
0001
0000
0010
0100
0001
0000
0100
0000
,
0010
0000
0000
1000
0000
0000
0001
0100
,
0010
0000
0000
0001
0000
0100
0001
0000
,
1000
0001
0000
0200
0000
0000
0000
0300
,
0000
0000
0001
0100
0001
1000
0010
1000
,
0001
0100
0001
1000
,
0100
0010
1000
0001
,
0100
0000
0001
0000
0100
1000
0100
0000
,
0000
0001
0100
0010
0100
0000
0001
0000
,
0100
0000
0000
0010
0000
0000
0001
0010
,
0100
0000
0000
1000
0000
0010
1000
0000
,
0001
0100
0000
0002
0000
0000
0000
0003
,
0000
0000
0001
0100
0001
0010
0100
1000
,
0100
0001
0010
0100
,
1000
0100
0010
0001
,
0100
0000
0010
0000
0001
0010
0001
0000
,
0100
0001
1000
0000
0001
0010
0100
0000
,
2000
0000
0000
0000
,
0000
0000
0000
0000
,
0100
0000
0000
0100
,
0001
0000
0000
0001
,
0010
0000
0000
0000
,
0000
0000
0010
0001
,
0100
0000
0000
0100
,
0001
0000
0000
0010
,
0001
0000
0000
0000
,
0000
0000
0000
0000
,
0100
0000
0000
0100
,
0010
0000
0000
0001
,
0100
0000
0000
0000
,
0000
0000
0010
0100
,
0001
0000
0000
0100
,
3001
0000
0000
1001
,
0000
0001
0100
0001
0010
0000
1000
0000
,
0001
0000
0010
0100
2000
0000
3000
0001
,
0100
0010
0001
0100
0001
0000
0000
0010
,
0100
0001
1000
0000
0001
0000
0000
0010
,
1000
0001
0100
0010
0100
0001
1000
0100
,
0010
0001
1000
0000
0010
0000
0000
0001
,
1000
0001
1000
0001
1000
0001
1000
0010
,
0100
0001
1000
0000
1000
0000
0000
0010
,
0100
0010
0100
0001
0100
0010
1000
0010
,
1000
0001
1000
0000
0000
0001
1000
0010
,
0200
0000
0300
0000
0001
0000
1000
0010
1000
0000
0001
0000
1000
0000
0000
0000
,
0010
0100
0001
0000
0000
0001
1000
0010
,
1000
0001
0100
0001
1000
0010
0100
0001
,
1000
0010
1000
0000
2000
0000
3000
0001
,
0100
0000
0010
0000
0001
0100
0010
1000
,
0010
0000
0000
0000
0001
0000
0100
0000
0002
0000
0000
0003
0000
0000
0010
0000
,
0100
0001
1000
0010
1000
0000
0001
0100
,
0010
1000
0001
0000
1000
0000
0000
0010
,
0100
0001
0100
0001
1000
0100
0010
0001
,
0100
0010
1000
0000
0100
0000
0000
0001
,
0100
0010
1000
0010
0100
0001
0010
0100
,
1000
0000
0001
0000
0100
0000
0000
0001
,
0100
0001
1000
0010
0100
0010
1000
0000
,
0001
0000
0100
0001
1000
0000
0000
0100
,
0001
0010
0001
1000
0010
0000
0000
0100
,
0001
0010
0001
1000
0010
0000
0000
0001
,
0010
0000
0100
0000
1000
0000
0001
0000
2000
0000
0000
3000
0010
0000
0100
0000
,
0001
0100
0010
0000
1000
0000
0000
1000
,
0010
0000
0000
0010
0000
0000
0010
0000
0000
0000
1000
0000
0100
0000
1000
0000
,
0001
0000
0000
0001
0000
0000
0001
0000
0000
0000
0000
0000
0000
0000
0100
0000
,
0010
1000
0010
0100
0001
1000
0010
0100
,
0010
1000
0001
0000
0100
0000
0010
0000
,
1000
0000
0000
0001
0000
0000
0001
0100
,
0010
0000
0000
0100
0000
0010
1000
0000
,
0001
1000
0000
0002
0000
0000
0000
0003
,
0000
0000
0001
0010
0100
1000
0010
1000
,
0001
1000
0100
0010
,
0001
0010
0001
0010
,
0100
0000
0010
0000
1000
0001
0100
0000
,
0000
0100
0010
0100
0001
0000
1000
0000
,
0010
0000
0000
0001
0000
0000
0100
0001
,
1000
0000
0000
0100
0000
0001
1000
0000
,
0001
0010
0000
2000
0000
0000
0000
0000
,
3000
0000
0001
0100
0010
1000
0010
0100
,
0001
0100
0001
1000
,
0010
0100
1000
0010
,
0100
0000
1000
0000
0001
0010
0001
0000
,
0010
1000
0001
0000
0100
0001
1000
0000
,
0010
0000
1000
0000
0000
0001
1000
0000
,
0010
0000
1000
0000
0000
0010
1000
0000
,
0001
0000
1000
0000
0000
0100
0001
0000
,
0010
0000
0100
0000
0000
1000
0010
0000
,
0100
0000
0001
0000
0000
0001
0010
0000
,
0100
0000
1000
0000
0000
1000
0100
0000
,
0010
0000
0001
0000
0000
0010
0100
0000
,
0010
0000
0100
0000
0000
0100
0010
0000
,
1000
0000
0001
0000
0000
0001
0100
0000
,
0010
0000
0100
0000
0000
0001
0100
0000
,
0001
0000
1000
0000
0000
0001
0010
0000
,
0100
0000
0010
0000
0000
0001
1000
0000
,
0001
0000
0010
0000
0000
0100
0001
0000
,
0010
0000
1000
0000
0000
0100
1000
0000
,
0001
0000
1000
0000
0000
0010
1000
0000
,
0100
0000
0001
0000
0000
0010
1000
0000
,
2000
0000
0000
0000
,
0000
0000
0100
0000
,
0010
0000
0000
0000
,
0100
0000
0010
0100
,
0001
0000
0000
0000
,
0000
0000
0010
0100
,
0001
0000
0000
0001
,
0100
0000
0010
0001
,
0100
0000
0000
0000
,
0000
0000
0010
0000
,
0100
0000
0000
0100
,
0001
0000
0100
0001
,
0010
0000
0000
0000
,
0000
0000
0010
0100
,
0001
0000
0000
0001
,
0100
0000
0010
3001
,
1001
0100
0010
0001
,
0010
0100
1000
0010
,
1100
0010
0100
1001
,
0101
1000
0100
1010
,
1001
0100
0010
1000
,
0001
0100
0011
0101
,
1001
1000
0010
1100
,
0011
0100
1000
0101
,
0011
0100
1000
0010
,
1000
0001
0100
0001
,
0110
1000
0001
1100
,
0101
1000
0001
0110
,
1100
0010
1000
0100
,
0010
0001
1100
1010
,
1001
0100
0001
1100
,
0101
1000
0001
0110
,
2002
0000
0000
0000
,
0000
0000
0000
0000
,
3003
0000
0000
0000
;

//---------------dance-single - ----------------
#NOTES:
     dance-single:
     :
     Edit:
     1:
     1.000,1.000,0.259,0.077,1.000,3163.000,74.000,22.000,0.000,0.000:
1001
1000
1000
1000
,
1000
1000
1000
1000
,
1001
1000
1000
1001
,
1001
1000
1000
1001
,
1001
1000
1000
1000
,
1000
1000
1001
1001
,
1001
1000
1000
1001
,
1001
1000
1000
1001
,
1001
1000
1000
1000
,
1000
1000
1001
1000
,
1001
1000
1000
1001
,
1001
1000
1001
1001
,
1001
1000
1000
1000
,
1000
1000
1001
1001
,
1001
1000
1000
1001
,
1001
1000
1000
1000
1000
0000
1000
0000
,
1000
0000
0000
1000
0000
0000
1000
1000
,
1000
0000
0000
1000
0000
1000
1000
0000
,
1000
1000
0000
2000
0000
0000
0000
0000
,
3000
0000
1000
1000
1000
1000
1000
1000
,
1000
1000
1000
1000
,
1000
1000
1000
1000
,
1000
0000
1000
0000
1000
1000
1000
0000
,
0000
1000
1000
1000
1000
0000
1000
0000
,
1000
0000
0000
1000
0000
0000
1000
1000
,
1000
0000
0000
1000
0000
1000
1000
0000
,
1000
1000
0000
2000
0000
0000
0000
0000
,
3000
0000
1000
1000
1000
1000
1000
1000
,
1000
1000
1000
1000
,
1000
1000
1000
1000
,
1000
0000
1000
0000
1000
1000
1000
0000
,
2000
0001
0001
0001
0001
0000
3001
0000
,
1000
1000
1000
1000
1000
1000
1000
1000
1000
1000
1000
1000
1000
1000
1000
1000
1000
1000
1000
1000
1000
1000
1000
1000
,
1000
1000
1000
1000
1000
1000
1000
1000
1000
1000
1000
1000
1000
1000
1000
1000
1000
1000
1000
1000
1000
1000
1000
1000
,
1000
1000
1000
1000
1000
1000
1000
1000
1000
1000
1000
1000
1000
1000
1000
1000
1000
1000
1000
1000
1000
1000
1000
1000
,
1000
1000
1000
1000
1000
1000
1000
1000
1000
1000
1000
1000
1000
1000
1000
1000
1000
1000
1000
1000
1000
1000
1000
1000
,
1000
1000
1000
1000
1000
1000
1000
1000
1000
1000
1000
1000
1000
1000
1000
1000
1000
1000
1000
1000
1000
1000
1000
1000
,
1000
1000
1000
1000
1000
1000
1000
1000
1000
1000
1000
1000
1000
1000
1000
1000
1000
1000
1000
1000
1000
1000
1000
1000
,
1000
1000
1000
1000
1000
1000
1000
1000
1000
1000
1000
1000
1000
1000
1000
1000
1000
1000
1000
1000
1000
1000
1000
1000
,
1000
1000
1000
1000
1000
0000
1000
0000
,
1000
1000
1000
1000
1000
1000
1000
1000
1000
1000
1000
1000
1000
1000
1000
1000
1000
1000
1000
1000
1000
1000
1000
1000
,
1000
1000
1000
1000
1000
1000
1000
1000
1000
1000
1000
1000
1000
1000
1000
1000
1000
1000
1000
1000
1000
1000
1000
1000
,
1000
1000
1000
1000
1000
1000
1000
1000
1000
1000
1000
1000
1000
1000
1000
1000
1000
1000
1000
1000
1000
1000
1000
1000
,
1000
1000
1000
1000
1000
1000
1000
1000
1000
1000
1000
1000
1000
1000
1000
1000
1000
1000
1000
1000
1000
1000
1000
1000
,
1000
1000
1000
1000
1000
1000
1000
1000
1000
1000
1000
1000
1000
1000
1000
1000
1000
1000
1000
1000
1000
1000
1000
1000
,
1000
1000
1000
1000
1000
1000
1000
1000
1000
1000
1000
1000
1000
1000
1000
1000
1000
1000
1000
1000
1000
1000
1000
1000
1000
1000
1000
1000
1000
1000
1000
1000
,
1000
1000
1000
1000
1000
1000
1000
1000
1000
1000
1000
1000
1000
1000
1000
1000
1000
1000
1000
1000
1000
1000
1000
1000
1000
1000
1000
1000
1000
1000
1000
1000
,
1000
1000
1000
1000
1000
1000
1000
1000
1000
1000
1000
1000
1000
1000
1000
1000
1000
1000
1000
1000
1000
1000
1000
1000
1000
1000
1000
1000
1000
1000
1000
1000
,
1000
1000
1000
1000
1000
1000
1000
1000
1000
1000
1000
1000
1000
1000
1000
1000
1000
1000
1000
1000
1000
1000
1000
1000
,
1000
1000
1000
1000
1000
1000
1000
1000
1000
1000
1000
1000
1000
1000
1000
1000
1000
1000
1000
1000
1000
1000
1000
1000
,
1000
1000
1000
1000
1000
1000
1000
1000
1000
1000
1000
1000
1000
1000
1000
1000
1000
1000
1000
1000
1000
1000
1000
1000
,
1000
1000
1000
1000
1000
1000
1000
1000
1000
1000
1000
1000
1000
1000
1000
1000
1000
1000
1000
1000
1000
1000
1000
1000
,
1000
1000
1000
1000
1000
1000
1000
1000
1000
1000
1000
1000
1000
1000
1000
1000
1000
1000
1000
1000
1000
1000
1000
1000
,
1000
1000
1000
1000
1000
1000
1000
1000
1000
1000
1000
1000
1000
1000
1000
1000
1000
1000
1000
1000
1000
1000
1000
1000
,
1000
1000
1000
1000
1000
1000
1000
1000
1000
1000
1000
1000
1000
1000
1000
1000
1000
1000
1000
1000
1000
1000
1000
1000
,
1000
1000
1000
1000
1000
1000
1000
1000
1000
1000
1000
1000
1000
1000
1000
1000
1000
1000
1000
1000
1000
1000
1000
1000
,
1000
1000
1000
1000
1000
1000
1000
1000
1000
1000
1000
1000
1000
1000
1000
1000
1000
1000
1000
1000
1000
1000
1000
1000
,
1000
1000
1000
1000
1000
1000
1000
1000
1000
1000
1000
1000
1000
1000
1000
1000
1000
1000
1000
1000
1000
1000
1000
1000
,
1000
1000
1000
1000
1000
1000
1000
1000
1000
1000
1000
1000
1000
1000
1000
1000
1000
1000
1000
1000
1000
1000
1000
1000
,
1000
1000
1000
1000
1000
1000
1000
1000
1000
1000
1000
1000
1000
1000
1000
1000
1000
1000
1000
1000
1000
1000
1000
1000
,
1000
1000
1000
1000
1000
1000
1000
1000
1000
1000
1000
1000
1000
1000
1000
1000
1000
1000
1000
1000
1000
1000
1000
1000
,
1000
1000
1000
1000
1000
1000
1000
1000
1000
1000
1000
1000
1000
1000
1000
1000
1000
1000
1000
0000
0000
1000
0000
0000
,
1000
1000
1000
1000
1000
1000
1000
1000
,
1000
1000
1000
1000
,
1000
0000
0000
0000
0000
0000
0000
0000
0000
1000
1000
1000
1000
1000
1000
1000
1000
1000
1000
1000
1000
1000
1000
1000
,
1000
1000
1000
1000
1000
1000
1000
1000
1000
1000
1000
1000
1000
1000
1000
1000
1000
1000
1000
1000
1000
1000
1000
1000
,
1000
1000
1000
1000
1000
1000
1000
1000
1000
1000
1000
1000
1000
1000
1000
1000
1000
1000
1000
1000
1000
1000
1000
1000
,
1000
1000
1000
1000
1000
1000
1000
1000
1000
1000
1000
1000
1000
1000
1000
1000
1000
1000
1000
1000
1000
1000
1000
1000
,
1000
1000
1000
1000
1000
1000
1000
1000
1000
1000
1000
1000
1000
1000
1000
1000
1000
1000
1000
1000
1000
1000
1000
1000
,
1000
1000
1000
1000
1000
1000
1000
1000
1000
1000
1000
1000
1000
1000
1000
1000
1000
1000
1000
1000
1000
1000
1000
1000
,
1000
1000
1000
1000
1000
1000
1000
1000
1000
1000
1000
1000
1000
1000
1000
1000
1000
1000
1000
1000
1000
1000
1000
1000
,
1000
1000
1000
1000
1000
1000
1000
1000
1000
1000
1000
1000
1000
1000
1000
1000
1000
1000
1000
1000
1000
1000
1000
1000
,
1000
1000
1000
1000
1000
1000
1000
1000
1000
1000
1000
1000
1000
1000
1000
1000
1000
1000
1000
1000
1000
1000
1000
1000
,
1000
1000
1000
1000
1000
1000
1000
1000
1000
1000
1000
1000
1000
1000
1000
1000
1000
1000
1000
1000
1000
1000
1000
1000
,
1000
1000
1000
1000
1000
1000
1000
1000
1000
1000
1000
1000
1000
1000
1000
1000
1000
1000
1000
1000
1000
1000
1000
1000
,
1000
1000
1000
1000
1000
1000
1000
1000
1000
1000
1000
1000
1000
1000
1000
1000
1000
1000
1000
1000
1000
1000
1000
1000
,
1000
1000
1000
1000
1000
1000
1000
1000
1000
1000
1000
1000
1000
1000
1000
1000
1000
1000
1000
1000
1000
1000
1000
1000
,
1000
1000
1000
1000
1000
1000
1000
1000
1000
1000
1000
1000
1000
1000
1000
1000
1000
1000
1000
1000
1000
1000
1000
1000
1000
1000
1000
1000
1000
1000
1000
1000
,
1000
1000
1000
1000
1000
1000
1000
1000
1000
1000
1000
1000
1000
1000
1000
1000
1000
1000
1000
1000
1000
1000
1000
1000
1000
1000
1000
1000
1000
1000
1000
1000
,
1000
1000
1000
1000
1000
1000
1000
1000
1000
1000
1000
1000
1000
1000
1000
1000
1000
1000
1000
1000
1000
1000
1000
1000
1000
1000
1000
1000
1000
1000
1000
1000
,
1000
1000
1000
1000
1000
1000
1000
1000
1000
1000
1000
1000
1000
1000
1000
1000
1000
1000
1000
1000
1000
1000
1000
1000
,
1000
1000
1000
1000
1000
1000
1000
1000
1000
1000
1000
1000
1000
1000
1000
1000
1000
1000
1000
1000
1000
1000
1000
1000
,
1000
1000
1000
1000
1000
1000
1000
1000
1000
1000
1000
1000
1000
1000
1000
1000
1000
1000
1000
1000
1000
1000
1000
1000
,
1000
1000
1000
1000
1000
1000
1000
1000
1000
1000
1000
1000
1000
1000
1000
1000
1000
1000
1000
1000
1000
1000
1000
1000
,
1000
1000
1000
1000
1000
1000
1000
1000
1000
1000
1000
1000
1000
1000
1000
1000
1000
1000
1000
1000
1000
1000
1000
1000
,
1000
1000
1000
1000
1000
1000
1000
1000
1000
1000
1000
1000
1000
1000
1000
1000
1000
1000
1000
1000
1000
1000
1000
1000
,
1000
1000
1000
1000
1000
1000
1000
1000
1000
1000
1000
1000
1000
1000
1000
1000
1000
1000
1000
1000
1000
1000
1000
1000
,
1000
1000
1000
1000
1000
1000
1000
1000
1000
1000
1000
1000
1000
1000
1000
1000
1000
1000
1000
1000
1000
1000
1000
1000
,
1000
1000
1000
1000
1000
1000
1000
1000
1000
1000
1000
1000
1000
1000
1000
1000
1000
1000
1000
1000
1000
1000
1000
1000
,
1000
1000
1000
1000
1000
1000
1000
1000
1000
1000
1000
1000
1000
1000
1000
1000
1000
1000
1000
1000
1000
1000
1000
1000
,
1000
1000
1000
1000
1000
1000
1000
1000
1000
1000
1000
1000
1000
1000
1000
1000
1000
1000
1000
1000
1000
1000
1000
1000
,
1000
1000
1000
1000
1000
1000
1000
1000
1000
1000
1000
1000
1000
1000
1000
1000
1000
1000
1000
1000
1000
1000
1000
1000
,
1000
1000
1000
1000
1000
1000
1000
1000
1000
1000
1000
1000
1000
1000
1000
1000
1000
1000
1000
1000
1000
1000
1000
1000
,
1000
1000
1000
1000
1000
1000
1000
1000
1000
1000
1000
1000
1000
1000
1000
1000
1000
1000
1000
1000
1000
1000
1000
1000
1000
1000
1000
1000
1000
1000
1000
1000
,
1000
1000
1000
1000
1000
1000
1000
1000
1000
1000
1000
1000
1000
1000
1000
1000
1000
1000
1000
1000
1000
1000
1000
1000
1000
1000
1000
1000
1000
1000
1000
1000
,
1000
1000
1000
1000
1000
1000
1000
1000
1000
1000
1000
1000
1000
1000
1000
1000
1000
1000
1000
1000
1000
1000
1000
1000
1000
1000
1000
1000
1000
1000
1000
1000
,
2001
0001
0001
0001
,
0001
0001
0001
3001
,
0201
0001
0301
1001
,
2001
0001
3001
1001
,
0201
0001
0001
0001
,
0001
0301
1001
0101
,
2001
0001
3001
0101
,
0201
0001
0301
1001
,
2001
0001
0001
0001
,
0001
0001
0001
3001
,
0201
0001
0301
1001
,
2001
0001
3001
0101
,
2001
0001
0001
0001
,
0001
3001
1001
1001
,
2001
0001
3001
1001
,
2001
0001
3001
1001
,
0000
1000
1000
1000
1000
0000
1000
0000
,
1000
0000
1000
1000
2000
0000
3000
1000
,
1000
1000
1000
1000
1000
0000
0000
1000
,
1000
1000
1000
0000
1000
0000
0000
1000
,
1000
1000
1000
1000
1000
1000
1000
1000
,
1000
1000
1000
0000
1000
0000
0000
1000
,
1000
1000
1000
1000
1000
1000
1000
1000
,
1000
1000
1000
0000
1000
0000
0000
1000
,
1000
1000
1000
1000
1000
1000
1000
1000
,
1000
1000
1000
0000
0000
1000
1000
1000
,
2000
0000
3000
0000
1000
0000
1000
1000
1000
0000
1000
0000
1000
0000
0000
0000
,
1000
1000
1000
0000
0000
1000
1000
1000
,
1000
1000
1000
1000
1000
1000
1000
1000
,
1000
1000
1000
0000
2000
0000
3000
1000
,
1000
0000
1000
0000
1000
1000
1000
1000
,
1000
0000
0000
0000
0000
0000
0000
0000
0000
0000
0000
0000
1000
0000
0000
0000
0000
0000
1000
0000
0000
0000
0000
0000
2000
0000
0000
0000
0000
0000
0000
0000
0000
3000
0000
0000
1000
0000
1000
0000
1000
0000
1000
0000
1000
0000
1000
0000
,
1000
1000
1000
1000
1000
1000
1000
1000
1000
1000
1000
1000
1000
1000
1000
1000
1000
1000
1000
1000
1000
1000
1000
1000
,
1000
1000
1000
1000
1000
1000
1000
1000
1000
1000
1000
1000
1000
1000
1000
1000
1000
1000
1000
1000
1000
1000
1000
1000
,
1000
1000
1000
1000
1000
1000
1000
1000
1000
1000
1000
1000
1000
1000
1000
1000
1000
1000
1000
1000
1000
1000
1000
1000
,
1000
1000
1000
1000
1000
1000
1000
1000
1000
1000
1000
1000
1000
1000
1000
1000
1000
1000
1000
1000
1000
1000
1000
1000
,
1000
1000
1000
1000
1000
1000
1000
1000
1000
1000
1000
1000
1000
1000
1000
1000
1000
1000
1000
1000
1000
1000
1000
1000
,
1000
1000
1000
1000
1000
1000
1000
1000
1000
1000
1000
1000
1000
1000
1000
1000
1000
1000
1000
1000
1000
1000
1000
1000
,
1000
1000
1000
1000
1000
1000
1000
1000
1000
1000
1000
1000
1000
1000
1000
1000
1000
1000
1000
1000
1000
1000
1000
1000
,
1000
1000
1000
1000
1000
1000
1000
1000
1000
1000
1000
1000
1000
1000
1000
1000
1000
1000
1000
1000
1000
1000
1000
1000
,
1000
1000
1000
1000
1000
1000
1000
1000
1000
1000
1000
1000
1000
1000
1000
1000
1000
1000
1000
1000
1000
1000
1000
1000
,
1000
1000
1000
1000
1000
1000
1000
1000
1000
1000
1000
1000
1000
1000
1000
1000
1000
1000
1000
1000
1000
1000
1000
1000
,
1000
1000
1000
1000
1000
1000
1000
1000
1000
1000
1000
1000
1000
1000
1000
1000
1000
1000
1000
1000
1000
1000
1000
1000
,
1000
1000
1000
1000
1000
1000
1000
1000
1000
1000
1000
1000
1000
1000
1000
1000
1000
1000
1000
1000
1000
1000
1000
1000
,
1000
1000
1000
1000
1000
1000
1000
1000
1000
1000
1000
1000
1000
1000
1000
1000
1000
1000
1000
1000
1000
1000
1000
1000
,
1000
1000
1000
1000
1000
1000
1000
1000
1000
1000
1000
1000
1000
1000
1000
1000
1000
1000
1000
1000
1000
1000
1000
1000
,
1000
1000
1000
1000
1000
1000
1000
1000
1000
1000
1000
1000
1000
1000
1000
1000
1000
1000
1000
1000
1000
1000
1000
1000
,
1000
1000
1000
1000
1000
1000
1000
1000
1000
1000
1000
1000
1000
1000
1000
1000
1000
1000
1000
1000
1000
1000
1000
1000
,
1000
1000
1000
1000
1000
1000
1000
1000
1000
1000
1000
1000
1000
1000
1000
1000
1000
1000
1000
1000
1000
1000
1000
1000
,
1000
1000
1000
1000
1000
1000
1000
1000
1000
1000
1000
1000
1000
1000
1000
1000
1000
1000
1000
1000
1000
1000
1000
1000
,
1000
1000
1000
1000
1000
1000
1000
1000
1000
1000
1000
1000
1000
1000
1000
1000
1000
1000
1000
1000
1000
1000
1000
1000
,
1000
1000
1000
1000
1000
1000
1000
1000
1000
1000
1000
1000
1000
1000
1000
1000
1000
1000
1000
1000
1000
1000
1000
1000
,
1000
1000
1000
1000
1000
1000
1000
1000
1000
1000
1000
1000
1000
1000
1000
1000
1000
1000
1000
1000
1000
1000
1000
1000
,
1000
1000
1000
1000
1000
1000
1000
1000
1000
1000
1000
1000
1000
1000
1000
1000
1000
1000
1000
1000
1000
1000
1000
1000
,
1000
1000
1000
1000
1000
1000
1000
1000
1000
1000
1000
1000
1000
1000
1000
1000
1000
1000
1000
1000
1000
1000
1000
1000
,
1000
1000
1000
1000
1000
1000
1000
1000
1000
1000
1000
1000
1000
1000
1000
1000
1000
1000
1000
1000
1000
1000
1000
1000
,
1000
1000
1000
1000
1000
1000
1000
1000
1000
1000
1000
1000
1000
1000
1000
1000
1000
1000
1000
1000
1000
1000
1000
1000
,
1000
1000
1000
1000
1000
1000
1000
1000
1000
1000
1000
1000
1000
1000
1000
1000
1000
1000
1000
1000
1000
1000
1000
1000
,
1000
1000
1000
1000
1000
1000
1000
1000
1000
1000
1000
1000
1000
1000
1000
1000
1000
1000
1000
1000
1000
1000
1000
1000
,
1000
1000
1000
1000
1000
1000
1000
1000
1000
1000
1000
1000
1000
1000
1000
1000
1000
1000
1000
1000
1000
1000
1000
1000
,
1000
1000
1000
1000
1000
1000
1000
1000
1000
1000
1000
1000
1000
1000
1000
1000
1000
1000
1000
1000
1000
1000
1000
1000
,
1000
1000
1000
1000
1000
1000
1000
1000
1000
1000
1000
1000
1000
1000
1000
1000
1000
1000
1000
1000
1000
1000
1000
1000
1000
1000
1000
1000
1000
1000
1000
1000
,
1000
1000
1000
1000
1000
1000
1000
1000
1000
1000
1000
1000
1000
1000
1000
1000
1000
1000
1000
1000
1000
1000
1000
1000
1000
1000
1000
1000
1000
1000
1000
1000
,
1000
1000
1000
1000
1000
1000
1000
1000
1000
1000
1000
1000
1000
1000
1000
1000
1000
1000
1000
1000
1000
1000
1000
1000
1000
1000
1000
1000
1000
1000
1000
1000
,
1000
0000
1000
0000
1000
0000
1000
0000
1000
0000
1000
0000
1000
0000
1000
0000
1000
0000
1000
0000
1000
0000
1000
1000
1000
0000
1000
0000
1000
0000
1000
0000
1000
0000
1000
0000
1000
0000
1000
0000
1000
0000
1000
0000
1000
0000
1000
0000
,
1000
0000
1000
0000
1000
0000
1000
0000
1000
0000
1000
0000
1000
0000
1000
0000
1000
0000
1000
0000
1000
0000
1000
1000
1000
0000
1000
0000
1000
0000
1000
0000
1000
0000
1000
0000
1000
0000
1000
0000
1000
0000
1000
0000
1000
0000
1000
0000
,
1000
0000
1000
0000
1000
0000
1000
0000
1000
0000
1000
0000
1000
0000
1000
0000
1000
0000
1000
0000
1000
0000
1000
1000
1000
0000
1000
0000
1000
0000
1000
0000
1000
0000
1000
0000
1000
0000
1000
0000
1000
0000
1000
0000
1000
0000
1000
0000
,
1000
0000
1000
0000
1000
0000
1000
0000
1000
0000
1000
0000
1000
0000
1000
0000
1000
0000
1000
0000
1000
0000
1000
1000
1000
0000
1000
0000
1000
0000
1000
0000
1000
0000
1000
0000
1000
0000
1000
0000
1000
0000
1000
0000
1000
0000
1000
0000
,
1000
0000
1000
0000
1000
0000
1000
0000
1000
0000
1000
0000
1000
0000
1000
0000
1000
0000
1000
0000
1000
0000
1000
1000
1000
0000
1000
0000
1000
0000
1000
0000
1000
0000
1000
0000
1000
0000
1000
0000
1000
0000
1000
0000
1000
0000
1000
0000
,
1000
0000
1000
0000
1000
0000
1000
0000
1000
0000
1000
0000
1000
0000
1000
0000
1000
0000
1000
0000
1000
0000
1000
0000
1000
1000
1000
1000
1000
1000
1000
1000
1000
0000
1000
0000
1000
0000
1000
0000
1000
0000
1000
0000
1000
0000
1000
0000
,
1000
0000
1000
0000
1000
0000
1000
0000
1000
0000
1000
0000
1000
0000
1000
0000
1000
0000
1000
0000
1000
0000
1000
1000
1000
0000
1000
0000
1000
0000
1000
0000
1000
0000
1000
0000
1000
0000
1000
0000
1000
0000
1000
0000
1000
0000
1000
0000
,
1000
0000
1000
0000
1000
0000
1000
0000
1000
0000
1000
0000
1000
0000
1000
0000
1000
0000
1000
0000
1000
0000
1000
1000
1000
0000
1000
0000
1000
0000
1000
0000
1000
0000
1000
0000
1000
0000
1000
0000
1000
0000
1000
0000
1000
0000
1000
0000
,
1000
0000
1000
0000
1000
0000
1000
0000
1000
0000
1000
0000
1000
0000
1000
0000
1000
0000
1000
0000
1000
0000
1000
1000
1000
0000
1000
0000
1000
0000
1000
0000
1000
0000
1000
0000
1000
0000
1000
0000
1000
0000
1000
0000
1000
0000
1000
0000
,
1000
0000
1000
0000
1000
0000
1000
0000
1000
0000
1000
0000
1000
0000
1000
0000
1000
0000
1000
0000
1000
0000
1000
1000
1000
0000
1000
0000
1000
0000
1000
0000
1000
0000
1000
0000
1000
0000
1000
0000
1000
0000
1000
0000
1000
0000
1000
0000
,
1000
0000
1000
0000
1000
0000
1000
0000
1000
0000
1000
0000
1000
0000
1000
0000
1000
0000
1000
0000
1000
0000
1000
1000
1000
0000
1000
0000
1000
0000
1000
0000
1000
0000
1000
0000
1000
0000
1000
0000
1000
0000
1000
0000
1000
0000
1000
0000
,
1000
0000
1000
0000
1000
0000
1000
0000
1000
0000
1000
0000
1000
0000
1000
0000
1000
0000
1000
0000
1000
0000
1000
1000
1000
0000
1000
0000
1000
0000
1000
0000
1000
0000
1000
0000
1000
0000
1000
0000
1000
0000
1000
0000
1000
0000
1000
0000
,
1000
1000
1000
1000
1000
1000
1000
1000
1000
1000
1000
1000
1000
1000
1000
1000
1000
1000
1000
1000
1000
1000
1000
1000
1000
1000
1000
1000
1000
1000
1000
1000
,
1000
1000
1000
1000
1000
1000
1000
1000
1000
1000
1000
1000
1000
1000
1000
1000
1000
1000
1000
1000
1000
1000
1000
1000
1000
1000
1000
1000
1000
1000
1000
1000
,
1000
1000
1000
1000
1000
1000
1000
1000
1000
1000
1000
1000
1000
1000
1000
1000
1000
1000
1000
1000
1000
1000
1000
1000
1000
1000
1000
1000
1000
1000
1000
1000
,
1000
1000
1000
1000
1000
1000
1000
1000
1000
1000
1000
1000
1000
1000
1000
1000
1000
1000
1000
1000
1000
1000
1000
1000
1000
1000
1000
1000
1000
1000
1000
1000
,
2000
0000
0000
0000
,
0000
0000
0001
0000
,
0001
0000
0000
0000
,
0001
0000
0001
0001
,
0001
0000
0000
0000
,
0000
0000
0001
0001
,
0001
0000
0000
0001
,
0001
0000
0001
0001
,
0001
0000
0000
0000
,
0000
0000
0001
0000
,
0001
0000
0000
0001
,
0001
0000
0001
0001
,
0001
0000
0000
0000
,
0000
0000
0001
0001
,
0001
0000
0000
0001
,
0001
0000
0001
3001
,
1001
0001
0001
0001
,
0001
0001
0001
0001
,
1001
0001
0001
1001
,
1001
0001
0001
1001
,
1001
0001
0001
0001
,
0001
0001
1001
1001
,
1001
0001
0001
1001
,
1001
0001
0001
1001
,
1001
0001
0001
0001
,
0001
0001
0001
0001
,
1001
0001
0001
1001
,
1001
0001
0001
1001
,
1001
0001
0001
0001
,
0001
0001
1001
1001
,
1001
0001
0001
1001
,
1001
0001
0001
1001
,
2002
0000
0000
0000
,
0000
0000
0000
0000
,
3003
0000
0000
0000
;
