#TITLE:Re-sublimity;
#SUBTITLE:神無月の巫女 ＯＰ;
#ARTIST:KOTOKO;
#TITLETRANSLIT:;
#SUBTITLETRANSLIT:;
#ARTISTTRANSLIT:;
#CREDIT:;
#BANNER:1.png;
#BACKGROUND:2.png;
#LYRICSPATH:Re sublimity.lrc;
#CDTITLE:CDtitle.gif;
#MUSIC:Re sublimity.mp3;
#OFFSET:-0.140;
#SAMPLESTART:49.971;
#SAMPLELENGTH:12.000;
#SELECTABLE:YES;
#DISPLAYBPM:135.000;
#BPMS:0.000=135.040,55.000=271.081,57.000=135.040;
#STOPS:71.000=0.225
,71.500=0.220
;
#BGCHANGES:0.000=Re sublimity.avi=1.000=1=1=0,
192.000=3.PNG=1.000=0=0=1,
99999=-nosongbg-=1.000=0=0=0 // don't automatically add -songbackground-
;
// cache tags:
#FIRSTBEAT:0.000;
#LASTBEAT:202.000;
#SONGFILENAME:Songs/juju step2/resublimity/2.sm;
#HASMUSIC:1;
#HASBANNER:1;
#MUSICLENGTH:89.965;
// end cache tags

//---------------dance-single - Copied from----------------
#NOTES:
     dance-single:
     Copied from:
     Challenge:
     10:
     0.961,0.982,1.000,0.556,0.650,410.000,145.000,50.000,0.000,1.000:
1001
0010
0100
1000
0110
0001
0100
1000
,
0011
1000
0010
1100
0001
0110
1000
0110
,
1010
0001
1000
0100
1001
0000
0110
1001
,
0000
0000
0010
0000
0100
0000
0010
0000
1000
0100
0001
0100
0000
0001
1010
0000
,
0100
0010
0100
1000
1001
0000
1010
0110
,
0000
0000
0100
0000
0100
0000
0100
0000
0001
0000
0010
0100
0000
1000
0100
0000
,
0011
0000
1000
0000
0011
0100
0000
0010
1001
0000
0000
0000
1000
0000
0110
0000
,
0000
0000
0100
0000
0010
0000
0010
0000
1001
0000
0100
1010
0000
0001
1010
0000
,
0011
0000
1000
0000
0011
0100
0000
0010
1001
0000
0000
0000
1000
0000
0101
0000
,
0000
0000
0010
0000
0100
0000
1000
0000
1100
0001
0010
1000
0000
0000
1100
0000
,
0011
0000
0000
1000
0010
0001
1100
0000
0011
0000
1000
0000
0110
0000
0000
0001
,
0110
0000
0000
0001
1000
0010
0101
0000
0110
0000
1000
0000
1001
0000
0200
0320
,
0030
0000
0002
2003
3000
0000
0020
0230
0300
0000
2000
3020
0030
0000
0000
0000
,
0001
0000
0000
0000
1000
0100
0010
0001
1000
0000
0100
0010
0001
0000
0000
0000
1000
0000
0100
0000
0010
0000
0001
0000
1000
0000
0000
0000
0000
0000
0000
0000
,
0000
0000
0000
0000
1001
0000
0000
0011
0000
0100
0000
0001
0010
0100
0001
0010
,
1100
0000
0011
0000
1000
0011
0000
0100
0000
0010
0001
1000
0110
0000
0011
0000
,
0110
0000
0002
0010
0100
1000
0010
0100
1000
0000
0013
0100
0000
0000
0000
0000
,
1010
0000
0101
0000
1010
0000
0000
0110
0000
0000
1001
0000
1010
0000
0101
0000
,
0100
0010
1000
0101
0000
0010
0001
0100
0011
0000
1000
0000
0110
0000
0011
0000
,
1001
0100
0010
1001
0000
1000
0100
0010
1001
0100
0010
0000
0101
0000
2000
0100
,
0010
0001
0100
0010
0001
0000
3001
0110
0000
0000
0000
0000
1100
0000
0011
0000
,
0110
1100
0110
0011
0010
1100
0010
0101
,
1010
0000
0100
0000
1000
0100
0000
1001
0000
0000
0100
0000
1010
0000
0100
0000
,
0011
0000
1000
0000
0100
1000
0010
0001
1100
0000
0010
0000
0101
0000
1000
0000
,
0101
0000
0010
0000
1100
0010
0000
1010
0000
0000
0001
0000
1100
0000
0010
0000
,
1001
0000
0100
0000
0000
0000
0010
0000
0101
0000
0001
1000
0100
0010
1001
0000
,
0100
1000
0100
1000
0100
1000
0100
1002
0003
0000
0000
0000
0010
0100
0000
0000
,
0010
0001
0010
0001
0010
0001
0010
2001
3000
0000
0110
0000
0101
0000
1010
0000
,
2000
3000
2100
0000
3200
0300
0210
0000
0320
0030
0021
0000
0032
0003
2002
3003
,
0110
0000
0000
0110
0000
0000
1001
0000
1001
0000
0100
1000
0010
0100
0001
0010
,
0000
0000
1200
0000
0010
0001
0010
0001
0300
0000
2001
0000
0010
0100
0010
0100
,
3000
0000
0012
0000
1000
0100
1000
0100
0003
0000
0010
0000
0010
0000
0100
1000
,
0100
0010
1001
0000
0100
0000
0011
0000
0100
0000
1001
0000
0100
0000
0110
2001
,
0000
0000
0000
3000
2200
0000
3000
0300
0202
0000
0000
0300
0013
0000
0100
0000
,
1010
0000
0000
0000
0000
0000
0101
0000
1100
0000
0110
0000
0001
0010
1000
2100
,
0010
0000
0001
0000
0100
0000
0010
0001
0010
0000
0000
0010
0000
0000
0100
0000
,
0000
0001
0020
0000
0000
3030
0000
0101
,
0002
0003
0012
0000
0023
0030
0120
0000
0230
0000
0300
1200
0000
0000
2302
0000
,
3003
0000
0100
0000
1000
0000
0001
0110
0000
1000
0001
0100
1000
0000
0001
0110
,
0000
0000
0100
0000
0100
0000
0001
1010
0000
0100
1000
0100
0010
0000
1000
0110
,
0000
0000
0001
0000
0100
0000
0010
0101
0000
1000
0100
0001
1000
0000
0001
0110
,
0000
0000
0110
0000
1001
0000
0110
0000
0000
0001
0110
0000
1000
0000
0010
0101
,
0000
0000
0000
1000
0110
0000
0100
0011
,
0000
0101
0000
0011
1100
1010
0110
1001
,
0000
0101
0200
0000
0000
0000
0000
0000
,
0000
0000
0300
0000
1000
0100
0010
0001
0000
1000
0100
0010
0000
0001
0010
1100
,
0000
0000
0011
0000
0000
0011
0000
0000
0011
0000
0000
0101
0000
1010
0000
0101
,
0000
0000
1100
0000
0000
1100
0000
0000
1100
0000
0010
0000
0100
1010
0000
0000
,
1001
0020
2000
0030
3200
0002
0000
0300
,
0203
2000
0000
0300
3002
0200
0000
0003
,
0320
2000
0000
0000
3030
0000
0000
0000
;

//---------------dance-single - Copied from Copied f----------------
#NOTES:
     dance-single:
     Copied from Copied f:
     Hard:
     8:
     0.699,0.758,0.545,0.445,0.522,351.000,49.000,40.000,0.000,0.000:
0010
1000
0001
1000
,
0100
0000
0010
0010
0001
1000
0001
0100
,
1100
0000
0010
0000
0110
0000
1010
0110
,
0000
0000
0010
0000
0100
0000
0001
0000
1000
0001
1000
0100
0000
0010
0001
0000
,
0110
1000
0100
0100
0011
0000
0110
1001
,
0000
0000
1000
0000
0001
0000
0100
0000
0001
0000
0100
0001
0000
1000
0010
0000
,
0101
0000
0100
0000
0010
0001
0000
1000
0110
0000
0000
0000
0110
0000
0011
0000
,
0000
0000
0010
0000
1000
0000
0001
0000
0100
0000
0010
0101
0000
1000
0010
0000
,
0110
0000
1000
0000
1000
0100
0000
0100
0011
0000
0000
0000
1001
0000
0101
0000
,
0000
0000
0010
0000
0001
0000
0010
0000
0100
0001
1000
0010
0000
0000
0100
0000
,
1100
0000
0000
0100
0010
0100
1000
0000
0100
0000
0010
0000
0001
0000
0000
0100
,
1001
0000
0000
1000
0010
0100
0001
0000
0001
0000
0100
0000
0001
0000
0200
0320
,
0030
0000
0002
2003
3000
0000
0020
0230
0300
0000
2000
3020
0030
0000
0000
0000
,
1000
0000
0000
0000
0001
0010
0100
1000
0001
0000
0010
0100
1000
0000
0000
0000
0001
0000
0010
0000
0100
0000
1000
0000
0001
0000
0000
0000
0000
0000
0000
0000
,
0000
0000
0000
0000
0100
0000
0000
0010
0000
0100
0000
0001
1000
0000
0010
0000
,
0100
0000
0001
0000
1000
0001
0000
0100
0000
0010
0000
1000
0100
0000
0001
0000
,
0100
0000
0020
0000
0000
0000
0000
0000
0000
0000
1030
0200
0000
0000
0000
0000
,
0310
0000
0100
0000
1000
0000
0000
0010
0000
0000
0001
0000
1100
0000
0011
0000
,
0100
0000
0010
0001
0000
0100
0000
0001
0010
0000
0001
0000
0100
0000
0001
0000
,
1000
0001
0000
0100
0000
0010
0000
0001
0100
0000
0001
0000
0010
0000
0200
0000
,
0000
0000
0000
0000
0000
0000
1300
0002
0000
0000
0000
0000
1003
0000
0010
0000
,
1000
0001
0100
0010
1000
0001
0010
0010
,
1001
0000
0010
0000
0001
0100
0000
0001
0000
0000
0010
0000
0100
0000
1000
0000
,
0100
0000
0001
0000
0100
0010
1000
0001
0010
0000
0100
0000
0001
0000
0100
0000
,
1100
0000
0100
0000
0001
0100
0000
0010
0000
0000
0100
0000
0010
0000
1000
0000
,
0100
0000
0001
0000
0000
0000
0100
0000
0001
0000
1000
0000
0010
0001
0100
0000
,
0101
0000
0100
0000
0100
0100
0000
0202
0303
0000
0000
0000
0010
0100
0000
0000
,
1010
0000
0010
0000
0010
0010
0000
2020
3030
0000
0110
0000
0101
0000
1010
0000
,
2000
3200
0320
0032
,
0013
0000
0000
0100
0000
0000
0110
0000
1001
0000
0001
0010
1000
0001
0010
0100
,
0000
0000
1001
0000
0100
0010
0100
0010
0000
0000
0110
0000
0010
0001
0010
0001
,
0000
0000
1001
0000
0001
1000
0001
1000
0000
0000
0100
0000
1000
0000
0001
0010
,
0000
0010
1000
0000
0000
0000
0000
0000
0000
0000
0001
0000
1000
0000
0100
2000
,
0000
0000
0000
3000
0200
0000
0000
0300
0002
0000
0000
0000
0013
0000
0100
0000
,
0010
0000
0000
0000
0000
0000
1001
0000
0100
0000
0010
0000
0001
0000
1000
0210
,
0000
0000
0000
0000
0000
0000
0010
0000
1000
0000
0000
0010
0000
0000
1000
0000
,
0000
0001
2000
0000
0000
3300
0000
1010
,
2000
0000
0000
0000
3200
0000
0000
0000
0320
0000
0000
0001
0030
0000
0001
0000
,
0000
0000
1100
0000
0010
0100
0010
0100
0000
0000
0101
0000
1000
0100
1000
0100
,
0000
0000
0010
0000
0100
0001
0100
0001
0000
0000
0010
0000
0010
0000
1000
0002
,
0000
0000
0000
0103
0000
1000
0100
0010
,
0001
0000
0000
0000
0101
0000
0000
0000
0110
0000
0000
1010
0000
0000
0011
0000
,
0000
0000
0000
1000
0001
0000
1000
1000
,
0000
1100
0000
0011
0100
1010
0010
0101
,
0000
1001
0020
0000
0000
0000
0000
0000
,
0000
0000
0030
0000
1000
0100
0010
0001
0000
1000
0100
0010
0000
0001
0010
0100
,
0000
0000
0010
0000
0000
0001
0000
0000
0001
0000
0000
1000
0000
0010
0000
0100
,
0000
0000
0010
0000
0000
0100
0000
0000
1000
0000
0010
0000
0100
0010
0000
0000
,
0001
0000
0020
0030
0020
0000
0000
0000
0200
0300
0230
0000
0000
0000
0000
0000
,
0302
0003
0002
0000
0000
0000
0000
0000
0203
0300
0200
0000
0000
0000
0000
0000
,
2300
3000
2000
0000
0000
0000
0000
0000
3000
0000
0000
0000
0000
0000
0000
0000
;

//---------------dance-single - Copied from Copied f----------------
#NOTES:
     dance-single:
     Copied from Copied f:
     Medium:
     6:
     0.384,0.503,0.133,0.222,0.039,210.000,12.000,20.000,0.000,0.000:
1000
0000
0100
0000
,
0010
0000
1000
0010
0000
0001
0000
0100
,
0010
0000
0001
0000
,
1000
0000
0001
0100
0000
0100
0000
0010
,
0001
0100
0010
1000
,
0100
0010
0100
0001
,
1100
1100
0010
0100
,
0011
0011
1000
0001
,
1010
1010
0001
0100
,
0101
0101
0010
1000
,
0001
0010
1000
0000
0001
0000
0100
0000
,
1000
0010
0001
0000
0100
0000
1000
0000
,
0001
0100
0001
1000
,
0100
0000
0101
1010
,
0000
0000
1000
0100
,
0010
0000
0001
0100
0010
0000
1000
0000
,
0100
0020
0000
0230
,
0000
0301
0001
0000
,
1000
0000
0100
0000
0010
0100
0010
0000
,
1000
0000
0001
0000
0010
0100
1000
0200
,
0000
0000
0000
0000
0010
0000
0010
0300
,
0100
1000
0010
1000
,
0100
0001
0100
0000
0010
0000
1000
0000
,
0100
0001
0010
0000
0100
0000
0001
0000
,
1000
0100
0010
0000
0100
0000
1000
0000
,
0010
0001
0100
0000
1000
0000
0010
0000
,
0100
0001
0100
1000
,
0010
0100
0001
1000
,
0000
0100
0010
0001
,
0010
0000
0000
0100
0000
0000
0001
0000
1010
0000
0000
0000
0000
0000
0000
0000
,
0000
1000
0001
0010
0000
1000
0010
0010
,
0000
0001
1000
1000
0000
0010
0010
0100
,
0000
0000
0001
0000
0000
0000
0000
0000
0000
0000
1000
0000
0100
0000
0100
2000
,
0000
0000
0000
3000
0200
0000
0000
0300
0002
0000
0000
0000
0013
0000
0100
0000
,
0010
0000
0000
0000
0000
0000
0100
0000
0100
0000
0010
0000
0001
0000
0100
0002
,
0000
0000
0000
0000
0000
0000
0010
0000
0100
0000
0000
0010
0000
0000
0100
0000
,
0000
1000
0020
0000
0000
0033
0000
0100
,
0001
0000
0000
0000
0010
0000
0000
0000
0100
0000
0000
1000
0000
0000
1000
0000
,
0000
0001
0010
0010
0000
0100
0010
1000
,
0000
0000
0010
0000
0100
0000
0100
0000
0000
0000
0010
0000
0010
0000
1000
0002
,
0000
0000
0000
0103
0000
1000
0100
0010
,
0001
0000
0000
0000
0100
0000
0000
0000
0010
0000
0000
1000
0000
0000
0101
0000
,
0000
0000
0000
1000
0100
0000
0100
0010
,
0000
0100
0000
0001
0000
0010
0000
1000
,
0000
0001
2000
0000
0000
0000
0000
0000
,
0000
0000
0000
0000
0000
0000
0000
3000
,
0000
0010
0000
0000
0001
0100
0000
0100
,
0000
0010
0000
0000
1000
0010
0100
0000
,
0001
0200
0320
0030
0002
0203
0300
0000
,
0020
0032
0003
0000
0020
0230
0300
0000
,
0020
2030
3000
0000
0000
0000
0000
0000
;
