#TITLE:Electric Angel;
#SUBTITLE:(Remix);
#ARTIST:Yasuo remixed by Giga feat. Kagamine Rin & Len;
#TITLETRANSLIT:;
#SUBTITLETRANSLIT:;
#ARTISTTRANSLIT:;
#CREDIT:;
#BANNER:Electric Angel (Remix) - bn.png;
#BACKGROUND:Electric Angel (Remix) - bg.png;
#LYRICSPATH:;
#CDTITLE:gpopcdtitle.png;
#MUSIC:Electric Angel (Remix).ogg;
#OFFSET:-0.398;
#SAMPLESTART:155.221;
#SAMPLELENGTH:12.799;
#SELECTABLE:YES;
#DISPLAYBPM:150.000;
#BPMS:0.000=150.000,94.000=300.000,94.250=150.000,94.375=75.000,94.500=50.000,95.000=150.000,174.000=223.881,175.000=150.000,189.000=223.881,189.500=150.000,219.000=225.564,220.000=223.881,220.500=225.564,220.875=150.000,222.000=223.881,223.000=150.000;
#STOPS:174.000=0.044
,174.333=0.044
,174.667=0.044
,189.000=0.033
,189.250=0.033
,219.000=0.067
,219.500=0.067
,220.000=0.033
,220.250=0.033
,220.500=0.067
,222.000=0.033
,222.250=0.033
,222.500=0.033
,222.750=0.033
;
#BGCHANGES:;
// cache tags:
#FIRSTBEAT:16.000;
#LASTBEAT:466.750;
#SONGFILENAME:Songs/Index Tournament 1/[Gpop] Electric Angel (Remix)/Electric Angel.sm;
#HASMUSIC:1;
#HASBANNER:1;
#MUSICLENGTH:188.516;
// end cache tags

//---------------dance-single - Gpop----------------
#NOTES:
     dance-single:
     Gpop:
     Challenge:
     12:
     0.989,1.000,0.074,0.774,0.865,1144.000,14.000,146.000,1.000,0.000:
0000
0000
0000
0000
,
0000
0000
0000
0000
,
0000
0000
0000
0000
,
0000
0000
0000
0000
,
0002
0000
1003
0100
0010
0010
0001
1000
,
0010
0000
0010
0000
0100
0000
0001
1000
0100
0000
0100
0000
1000
0000
0010
0000
,
0100
0001
0010
0100
1000
0001
1000
0010
,
0100
0000
0000
0000
0010
0000
0000
0000
2000
0000
0000
0000
3001
0010
0100
1000
,
0002
0000
0000
0003
0001
0000
1000
0000
0200
0000
0000
0300
0100
0000
1000
0000
,
0001
0100
1000
0100
0020
0000
1030
1000
,
0200
0000
0000
0300
0100
0000
0010
0000
0002
0000
0000
0003
0001
0000
0100
0000
,
0001
0010
0100
0000
0001
0000
0100
0000
1000
0000
0010
0000
0004
0000
0013
1000
,
0200
0000
0000
0300
0100
0000
1000
0000
0020
0000
0000
0030
0010
0000
0100
0001
,
1000
0010
0001
0010
0200
0000
0301
0001
,
2000
0000
0000
3000
1000
0000
0100
0000
0010
0000
0004
0000
0013
0000
0100
0000
,
1000
0000
0000
0010
0000
0000
0001
0000
0000
0010
0000
1000
0001
0000
1000
0001
0000
1000
0100
0000
0010
0001
0000
1000
,
0001
0000
0000
0100
0000
0000
0010
0000
0000
1000
0000
0000
0100
0000
0000
0010
0000
0000
0100
0000
0000
1000
0000
0000
0001
0000
0100
0000
0001
0000
0100
0000
0001
0000
0100
0000
0001
0000
0000
1000
0000
0000
0001
0000
0000
0010
0000
0000
,
0100
0000
0000
1000
0000
0000
0100
0000
0000
1000
0000
0000
0001
0000
0000
1000
0000
0000
0010
0000
0000
1000
0000
0000
0001
0000
1000
0000
0001
0000
1000
0000
0001
0000
1000
0000
0001
0000
0000
0010
0000
0000
0100
0000
0000
1000
0000
0000
,
0001
0000
0000
0010
0000
0000
0001
0000
0000
0100
0000
0000
0010
0000
0000
1000
0000
0000
0100
0000
0000
0010
0000
0000
0001
0000
0010
0000
0001
0000
0010
0000
0001
0000
0010
0000
0001
0000
0000
0100
0000
0000
0010
0000
0000
0100
0000
0000
,
0010
0000
0000
1000
0000
0000
0100
0000
0000
1000
0000
0000
0001
0000
0000
0100
0000
0000
0010
0000
0000
0100
0000
0000
0010
0000
1000
0000
0010
0000
1000
0000
0001
0000
1000
0000
0001
0000
0000
0010
0000
0000
0100
0000
0000
1000
0000
0000
,
0001
0100
0010
1000
0100
0010
0001
1000
0100
0010
0001
0100
0001
0010
0100
1000
,
0001
0010
0001
0100
0001
1000
0010
1000
0100
1000
0001
0100
0010
1000
0100
0010
,
0001
1000
0001
0100
0001
0010
0100
1000
0001
0010
0100
1000
0001
0100
0001
1000
,
0010
0100
0010
0100
0010
0100
0010
0100
0020
0000
0M30
0000
1001
0000
1000
0100
,
0010
0000
0001
0010
0100
0000
1000
0010
0100
0000
0001
0100
0020
0000
2030
0000
,
3200
0000
0320
0000
0032
0000
1003
0010
0100
0000
0001
0100
0010
0000
1000
0100
,
1000
0000
0001
0100
0001
0000
0100
0010
1000
0000
0100
0010
0002
0000
0023
0000
,
0230
0000
2300
0000
3002
0000
0013
0100
1000
0000
0100
0010
0001
0000
0100
0010
,
1000
0000
0001
1000
0100
0000
0010
0001
0100
0000
0010
1000
0002
0000
0023
0000
,
0032
0000
0203
0000
0320
0000
1030
0001
0100
0000
0010
1000
0001
0000
0010
0100
,
1000
0000
0100
0010
0001
0000
0100
0010
1000
0000
0001
0100
0010
0000
0010
0000
,
1000
0000
0010
0100
0001
0000
1000
0000
0001
0000
0100
0010
2000
0000
3001
0000
,
0200
0000
0301
0000
0020
0000
0031
0000
0100
0010
2000
0000
0000
0000
3001
0000
,
0010
0100
1000
0001
0100
0010
0200
0301
,
0020
0000
0130
0000
2000
0000
3001
0000
0100
0001
0020
0000
0000
0000
0130
0000
,
1000
0001
0100
0010
1000
0200
0000
0310
,
0001
0000
2000
0000
0000
0000
3010
0100
0010
1000
0001
0000
0020
0000
0130
0000
,
0020
0031
1000
0001
0100
0010
0100
0001
,
0010
0100
1000
0001
0100
0001
1000
1000
,
0001
0000
0100
0010
0100
0001
1000
0100
0010
0001
0100
0010
2000
0000
0000
3000
,
1000
0001
0100
0001
0020
0000
0000
0030
0010
0000
0100
1000
0001
0000
0100
0000
,
0010
0000
1000
0000
0002
0000
0000
1003
0001
0000
0010
0000
0002
0000
0000
0003
,
0001
0000
0100
0000
0020
0000
0000
0030
0010
0000
1000
0001
0010
0000
0100
0000
,
1000
0000
0000
0000
0000
0000
0001
0000
0000
0000
0000
0000
0100
0000
0000
0000
0000
0000
0001
0000
0000
0000
0000
0000
1000
0000
0000
0000
0001
0000
0000
0000
0100
0000
0000
0000
0020
0000
0000
0000
0000
0000
0000
0000
0000
0030
0000
0000
,
0010
0000
1000
0000
0200
0000
0000
0300
0100
0000
1000
0000
0001
0000
0100
0000
,
0010
0000
1000
0000
0002
0000
0000
0000
1003
0000
0100
0000
2000
0000
0000
3000
,
1000
0001
0010
0400
1300
0001
0100
0001
,
1000
0000
0100
0000
0010
0001
0010
0000
0100
1000
0001
0100
0020
0000
0000
0000
,
0032
0000
0203
0000
1300
0100
1000
0001
,
0100
0010
2000
0000
3001
0010
0200
0000
,
0301
0100
1000
0010
0100
0001
0010
0100
,
1000
0001
0200
0000
0310
1000
0020
0000
,
0031
0010
0002
0000
0023
0000
1030
0100
,
0010
0000
0001
0000
0100
0000
0001
0000
0010
0000
0100
0000
1000
0000
0001
0100
,
0001
0000
1000
0100
1000
0100
0010
0001
1000
0000
0010
0100
0001
0000
0001
0000
,
1000
0100
1000
0000
0040
0000
0130
0000
0004
1003
0100
1000
0001
0000
0100
0010
,
1000
0000
0100
0010
0001
0000
0010
0100
1000
0000
0100
0010
0002
0000
2003
0000
,
3200
0000
0320
0000
0032
0000
0103
0010
1000
0000
0001
0100
0001
0000
0010
0100
,
1000
0000
0010
0100
0001
0000
1000
0100
1000
0000
0001
0100
0020
0000
2030
0000
,
3002
0000
0203
0000
0302
0000
0013
0100
1000
0000
0100
0010
0100
0000
0010
0001
,
0100
0000
0010
1000
0001
0000
0010
0100
1000
0000
0001
0100
0020
0000
2030
0000
,
3002
0000
0023
0000
0230
0000
1300
0001
0010
0000
0100
1000
0001
0000
0100
0010
,
1000
0000
0100
0010
0001
0000
1000
0010
0200
0000
0302
0000
2003
0000
3001
0100
,
0001
0000
1000
0100
1000
0000
0010
0100
0010
1000
0010
1000
0001
0000
0010
0000
,
0100
1000
0000
0001
0100
0000
0010
1000
0001
0000
0010
0000
0200
0000
2300
0000
,
3001
0100
0001
0100
0020
0000
2030
0000
3020
0000
0130
0000
0002
0000
0000
0000
,
1003
0000
0002
0000
1003
0100
1000
0000
0040
0000
0000
0000
0130
0001
1000
0100
,
0010
0001
0010
0100
1000
0001
0100
0000
0004
0000
0003
0000
2000
0000
0000
3001
,
2000
0000
0000
3010
2000
0000
3200
0000
0340
0000
0031
0000
0200
0000
0000
0000
,
0320
0000
1030
0001
0100
0010
1000
0000
0001
0010
0100
0010
0001
1000
0010
0000
,
0400
0000
0000
0301
1000
0010
1000
0001
0010
0000
0004
0000
1003
0010
1000
0001
,
0010
0000
0000
0001
0000
0000
0100
0000
0000
0010
0000
0000
1000
0000
0000
0100
0000
0000
0010
0000
0000
0001
0000
0000
1000
0000
0001
0000
1000
0000
0001
0000
1000
0000
0001
0000
2000
0000
0000
0000
0000
0000
0000
0000
0000
0000
0000
0000
,
3020
0000
0000
0000
0130
0001
0010
0000
0100
0000
1000
0000
0001
0000
0100
0000
,
0001
0020
0000
0130
1000
0001
0200
0300
,
0010
1000
0000
1000
0001
0010
0000
0100
0000
1000
0000
0001
0100
0001
0010
0100
,
1000
0100
0010
0001
0100
0010
1000
0010
0100
0001
1000
0100
2000
0000
3001
0000
,
0100
0010
0200
0301
0010
0100
1000
0001
,
0100
0000
0002
0000
0000
0000
1003
0000
0100
0000
0010
0000
0001
0000
0000
0001
,
0000
0000
0000
1000
0001
0000
0000
0000
0100
0000
0000
0000
0010
0000
0000
0000
1000
0000
0000
0000
0001
0000
0000
0000
0010
0000
0000
0000
0100
0000
1000
0000
,
0100
0000
0010
0001
0010
0000
0001
1000
0001
0100
0010
1000
0001
0010
0100
1000
,
0000
0001
0100
0001
0000
1000
0100
1000
0001
0000
0100
0010
1000
0000
0001
0010
,
0100
0000
0000
0000
1000
0000
0010
0000
0000
0000
0010
0000
0000
0000
0010
0100
0010
0000
1000
0000
0001
0000
0010
0000
0100
0000
0000
0000
1000
0000
0001
0000
,
0100
0000
0100
0010
1000
0000
1000
0100
0010
0000
0002
0000
0103
0010
1000
0001
,
0100
0000
0000
0001
0000
0000
0010
0000
0000
0100
0000
0000
1000
0000
0000
0100
0000
0000
0010
0000
0000
0001
0000
0000
1000
0000
0100
0000
1000
0000
0100
0000
1000
0000
0100
0000
1000
0000
0000
0001
0000
0000
0100
0000
0000
0001
0000
0000
,
0000
0010
0100
1000
0000
0100
0010
0001
1000
0000
0010
0000
0100
0000
0001
1000
,
0100
0000
0000
0000
0010
0000
0001
0000
0000
0000
0001
0000
0000
0000
0001
1000
0001
0000
0100
0000
0010
0000
1000
0000
0100
0000
0000
0000
0010
0000
0001
0000
,
1000
0100
0020
0000
0032
0000
0103
0010
2000
0000
3002
0000
0013
0100
2000
0000
,
3020
0000
0230
0000
0302
0000
1003
0010
1000
0100
0010
0001
2000
0000
0000
0000
,
0010
0000
0000
0000
0010
0000
0000
0000
3010
0000
0100
0000
1002
0000
0000
1003
,
0001
0000
0100
0000
0020
0000
0000
0130
0010
0000
1000
0000
0001
0000
0010
0000
,
1000
0000
0000
0000
0000
0000
0010
0000
0000
0000
0000
0000
0002
0000
0000
0000
0000
0000
0000
0000
0000
0000
0000
0000
1003
0000
0000
0000
0010
0000
1000
0000
0000
0000
0010
0000
1000
0000
0000
0001
0000
0000
0100
0000
0000
0000
0000
0000
,
0001
0000
0010
0000
0100
0000
0010
0001
1000
0000
1000
0010
0100
0000
0100
0000
,
1001
0000
0001
0010
0100
1000
0100
1000
0001
0000
0001
0000
1100
0000
1000
0010
,
0100
0000
0100
0010
1000
0000
1000
0100
0010
0000
0010
0001
2000
0000
3020
0000
,
0032
0000
0023
0000
0230
0000
0301
0010
0100
0000
0100
0010
0001
0000
0001
1000
,
0010
0000
0010
0100
0001
0000
0001
1000
0100
0000
0100
0010
0001
0000
0001
0000
,
1000
0000
0010
0100
0010
0000
1000
0000
0100
0000
0100
0000
0011
0000
0001
1000
,
0100
0000
0100
0010
0001
0000
0001
0100
0010
0000
0010
1000
0002
0000
0203
0000
,
2300
0000
3200
0000
0320
0000
1030
0001
0010
0000
0010
0100
1000
0000
1000
0100
,
0010
0000
0010
0001
0100
0000
0100
0010
1000
0000
1000
0001
0020
0000
0230
0000
,
0302
0000
0203
0000
2300
0000
3001
0100
0010
0000
0010
1000
0001
0000
0001
0010
,
0100
0000
0100
1000
0001
0000
0001
0100
0010
0000
0010
1000
0002
0000
0203
0000
,
0320
0000
0032
0000
0023
0000
1030
0001
0010
0000
0100
1000
0001
0000
0100
0010
,
1000
0000
0001
0010
0100
0000
0010
0001
1000
0000
0010
0100
0001
0000
1000
0100
,
1000
0000
0001
0100
0010
0000
0010
1000
0001
0000
1000
0001
0200
0000
0310
0000
,
2000
0000
3001
0000
0020
0000
0130
0000
1000
0001
0200
0000
0000
0000
0310
0000
,
1000
0001
0010
0100
1000
0001
0200
0301
,
0020
0000
0031
0000
2000
0000
3010
0000
0100
0001
0020
0000
0000
0000
0130
0000
,
1000
0001
1000
0100
0001
0200
0000
1300
,
0001
0000
0020
0000
0000
0000
0031
0100
0001
1000
0010
0000
0200
0000
0310
0000
,
0200
0301
0100
0010
1000
0100
0010
0001
,
0010
0000
0100
0000
1000
0000
0001
0000
0100
0000
0001
0000
1000
0000
0010
0100
,
0010
0000
1000
0001
1000
0100
0010
0001
0100
0010
1000
0001
0100
0000
0001
0100
,
0001
0000
0100
0001
0100
0000
0001
0100
0001
0000
0100
0010
2000
0000
3002
0000
,
1003
0000
0100
1000
0100
0000
1000
0100
1000
0000
1000
0000
2000
0000
3002
0000
,
0013
0000
0001
0010
0001
0000
0010
0001
0010
0000
0001
0010
0200
0000
2300
0000
,
3010
0000
1000
0010
1000
0000
0001
0100
0001
1000
0001
0010
0000
0000
0000
0000
;
