#TITLE:Candy Crack Curtain Call;
#SUBTITLE:;
#ARTIST:t+pazolite;
#TITLETRANSLIT:;
#SUBTITLETRANSLIT:;
#ARTISTTRANSLIT:;
#CREDIT:;
#BANNER:../ban - Jawn2.png;
#BACKGROUND:../Jawn2 - bg.png;
#LYRICSPATH:;
#CDTITLE:../CDa.png;
#MUSIC:Candy Crack Curtain Call.ogg;
#OFFSET:0.009;
#SAMPLESTART:63.102;
#SAMPLELENGTH:16.000;
#SELECTABLE:YES;
#BPMS:0.000=240.000;
#STOPS:;
#BGCHANGES:;
// cache tags:
#FIRSTBEAT:29.000;
#LASTBEAT:548.000;
#SONGFILENAME:Songs/Jimmy Jawns 2/Candy Crack Curtain Call - [Aoreo]/Candy Crack Curtain Call.sm;
#HASMUSIC:1;
#HASBANNER:1;
#MUSICLENGTH:138.500;
// end cache tags

//---------------dance-single - Git Gud @ 240----------------
#NOTES:
     dance-single:
     Git Gud @ 240:
     Hard:
     18:
     1.000,1.000,0.051,0.368,1.000,1244.000,7.000,51.000,3.000,0.000:
0000
0000
0000
0000
,
0000
0000
0000
0000
,
0000
0000
0000
0000
,
0000
0000
0000
0000
,
0000
0000
0000
0000
,
0000
0000
0000
0000
,
0000
0000
0000
0000
,
0000
0000
0001
0000
1000
0100
1000
0001
,
0200
0000
0000
0302
0000
0000
0000
0000
,
0000
0000
0000
0003
,
0020
0000
0000
0230
0000
0000
0000
0000
,
0300
0000
1000
0000
0001
0100
0000
0001
,
0020
0000
0000
0230
0000
0000
0000
0000
,
0000
0000
0000
0300
,
2000
0000
0000
3002
0000
0000
0000
0000
,
0003
0000
0200
0000
0301
0010
0100
1000
,
1001
0001
0100
0010
,
1000
0100
0010
0001
,
1000
0001
0100
0010
,
1000
0100
0010
0001
,
1000
0001
1000
0100
0010
0001
1000
0010
,
0100
0001
1000
0001
0010
0100
1000
0001
,
0100
0001
1000
0001
0010
0100
1000
0001
1000
0010
0100
0001
0100
0010
1000
0001
,
0000
0000
0000
0000
,
1000
0100
1000
0010
0200
0301
0020
0130
,
1000
0001
1000
0100
0010
0001
0100
0001
,
1000
0100
1000
0010
0200
0310
2000
3100
,
0010
0001
1000
0000
0100
1000
0000
0001
,
1000
0100
0010
0001
0200
0301
0020
0130
,
1000
0000
1000
0000
0001
0000
0001
0000
1000
0100
0010
0001
1000
0000
0001
0000
,
0100
0000
0001
0010
0100
0000
1000
0000
0020
0000
0130
0000
0002
0000
0013
0000
,
0100
0100
1000
0000
0000
0000
0000
0000
,
1001
0001
1000
0100
0020
0130
2000
3001
,
0100
0001
0010
0100
1000
0100
0010
0001
,
0100
0001
1000
0010
0200
0301
0020
0130
,
1000
0001
0010
0000
0100
1000
0000
0010
,
0100
0001
1000
0100
0010
0001
0100
0010
,
1000
0001
0010
0100
1000
0010
0100
0010
,
1000
0001
1000
0010
0100
0010
1000
0001
1000
0100
0010
0001
1000
0001
0100
0010
,
1000
0001
0010
0100
0010
0001
1000
0001
0100
0010
1000
0010
0100
0001
1000
0100
,
0020
0000
0000
0032
0000
0000
0000
0000
,
0000
0000
0000
0000
,
2003
0000
0000
3020
0000
0000
0000
0000
,
0030
0000
0200
0000
0301
1000
0000
0100
,
2000
0000
0000
3002
0000
0000
0000
0000
,
0000
0000
0000
0000
,
2003
0000
0000
3020
0000
0000
0000
0000
,
0030
0000
2000
0000
3100
0010
0001
1000
,
0001
0010
0100
1000
0010
0000
0M00
0000
,
1000
0100
0010
0001
0100
0000
00M0
0000
,
0001
0000
0100
0000
0001
0000
0010
0000
0100
0000
1000
0001
1000
0000
0001
0000
,
0100
0010
1000
0100
0010
0000
000M
0000
,
0001
1000
0100
0100
0001
1000
0010
0010
,
0001
1000
0100
0100
0001
1000
0010
0010
,
0001
0000
1000
0100
1000
0000
0001
0100
0010
0000
1000
0001
1000
0000
0100
0010
,
0001
0000
0100
0001
1000
0000
0004
0003
1000
0100
1000
0010
0100
0001
0010
0100
,
1000
0001
0100
0001
1000
0010
0100
0100
,
2000
0000
3010
0000
0200
0300
0002
0000
0013
0000
0100
0000
1000
0000
0010
0000
,
0110
0000
0100
0000
0001
0000
0010
0000
0100
0000
1000
0001
1000
0010
0100
0001
,
1000
0001
0010
0100
1000
0010
1000
0010
,
0110
0100
0001
0010
0100
1000
0010
0100
,
0010
1000
0100
0010
0001
0100
0001
1000
,
0100
0000
1000
0000
0010
0000
0100
0000
0001
1000
0001
0010
0100
1000
0001
0100
,
0000
0000
0010
1000
0100
0000
0010
0000
0001
1000
0100
0010
0002
0000
0000
0000
,
1003
0100
1000
0001
0100
0010
1000
0010
0100
0001
1000
0001
0010
0100
1000
0001
,
1000
0010
0100
0001
0010
0001
1000
0100
0010
0001
0100
0001
1000
0100
0010
0100
,
1000
0010
0100
0001
1000
0001
0010
0100
1000
0010
0100
0010
1000
0001
0100
0001
,
0010
0100
1000
0001
0100
0010
0100
0001
1000
0100
0010
0100
1000
0010
0100
0001
,
1000
0100
0010
0001
0100
0001
1000
0010
0100
0001
1000
0001
0010
0100
1000
0001
,
0100
0010
0100
0001
1000
0100
0010
0100
1000
0001
1000
0100
0010
0001
0100
0001
,
2000
0000
0000
0000
3000
0000
0000
0001
,
0000
1000
0001
1000
0010
0000
0110
0000
,
0100
0001
1000
0001
0010
0100
1000
0001
1000
0010
0100
0001
0100
0010
1000
0001
,
1000
0100
0010
0100
1000
0001
0100
0010
1000
0010
0100
0001
1000
0001
0010
0100
,
1000
0001
1000
0010
0100
0010
1000
0100
0010
0001
0100
0001
1000
0100
1000
0010
,
0100
0010
1000
0001
1000
0100
0010
0001
0100
0001
1000
0010
0100
0010
1000
0001
,
1000
0100
0010
0001
0100
0001
1000
0100
0010
0100
1000
0010
1000
0001
0100
0010
,
1000
0010
0100
0001
1000
0100
1000
0001
0010
0100
0010
0001
1000
0001
1000
0010
,
0200
0000
0000
0300
,
0000
0000
0001
0001
1000
1000
0100
0010
,
0001
1000
0001
0100
0010
1000
0100
0010
0001
0100
0001
1000
0100
0010
0100
1000
,
0010
1000
0001
0100
0010
1000
0010
0100
0001
1000
0100
0010
0100
1000
0001
0100
,
0010
1000
0010
0100
0001
0100
0010
1000
0001
0010
0100
0010
0001
0100
0010
1000
,
0001
1000
0100
0010
0001
0100
0001
1000
0100
0010
0100
1000
0010
0100
0001
1000
,
0001
0010
0100
1000
0001
0100
0010
0100
0001
1000
0100
0010
0001
0100
0001
1000
,
0100
0010
0100
1000
0010
0100
0010
1000
0001
1000
0100
0010
0001
0100
0001
1000
,
0020
0000
0000
0000
0030
0000
0000
1000
,
0000
0001
0100
0001
0010
0000
0100
0000
,
1000
0010
1000
0100
0010
0001
1000
0001
0100
0010
1000
0010
0100
0001
1000
0001
,
0010
0100
1000
0010
0100
0001
0100
0010
1000
0001
0010
0100
0010
0001
0100
0010
,
1000
0010
0100
0001
1000
0100
1000
0010
0100
0001
1000
0001
0010
0100
1000
0010
,
0100
0010
1000
0001
0100
0001
0010
0100
1000
0001
0100
0010
0100
0001
0010
0100
,
1000
0001
0100
0010
0100
0001
1000
0100
0010
0100
1000
0010
0100
0001
0100
0010
,
1000
0100
1000
0001
0100
0001
0010
0100
1000
0001
0100
0010
0100
0001
1000
0100
,
1000
0100
1000
0010
0100
0001
1000
0000
,
0001
0000
0000
0000
0020
0000
0000
0000
0230
0000
0000
0000
1300
0001
0010
0000
,
0100
0000
1000
0000
0010
0000
0100
0000
0001
1000
0001
0000
0010
0000
0100
0000
,
1000
0000
0020
0130
0001
0000
0010
0000
0001
0000
1000
0100
1000
0000
0010
0000
,
0100
0001
1000
0001
0010
0000
0100
1000
0001
1000
0010
0100
0001
0000
1000
0000
,
0001
0000
0100
0001
0000
0000
1000
0000
0100
1000
0010
0000
0200
0301
1000
0000
,
0001
0000
1000
0100
0010
0000
0001
0000
0100
0010
1000
0000
0100
0000
0010
0000
,
0001
0000
2000
3010
0100
0000
0001
0000
0010
0000
0001
0100
0010
0000
1000
0000
,
0010
1000
0100
0000
0010
0000
0001
0000
1000
0100
1000
0001
0100
0000
0004
0003
,
1000
0000
0200
1300
0010
0000
0200
0310
1000
0100
0010
0001
1000
0000
0001
0000
,
1000
0000
0010
0000
0100
0000
0001
0000
0010
0100
1000
0001
1000
0000
0010
0000
,
0100
0000
0002
0103
0010
0000
1000
0000
0100
0000
0010
0001
1000
0000
0010
0000
,
1000
0100
1000
0010
0100
0000
0001
0010
0100
1000
0001
0100
0010
0000
0100
0000
,
0001
0000
0000
0000
1000
0000
0001
0000
0000
0000
0000
0000
1000
0000
0000
0000
0100
0000
1000
0000
0010
0000
0100
0000
0002
0003
1000
0000
0001
0000
0010
0000
,
0100
0000
1000
0010
0100
0000
0001
0000
0100
0001
0010
0000
0100
0000
4000
0000
,
3000
0000
0000
0000
0002
0003
0100
0000
0001
0000
0000
0000
0010
0000
0000
0000
0100
0000
1000
0000
0001
0000
0000
0000
1000
0000
0000
0000
0010
0000
0000
0000
,
0100
0001
0010
0000
0100
0000
1000
0000
0010
1000
0100
0010
0001
1000
0002
0000
,
0000
0003
1001
1000
,
0001
0100
0001
1000
0100
0010
0100
1000
0010
0100
0001
1000
0001
0010
0100
1000
,
0001
1000
0010
0100
0010
1000
0001
0010
0001
0100
0010
1000
0010
0100
0001
1000
,
0100
0010
0100
1000
0001
1000
0010
0100
0001
0010
0100
1000
0001
1000
0010
0100
,
0010
1000
0100
1000
0001
0100
0001
1000
0100
0010
0001
0100
0001
1000
0010
0100
,
0010
1000
0001
0010
0100
1000
0010
0100
0001
0100
0010
1000
0001
0010
0100
0010
,
0001
0100
0010
1000
0010
0100
0001
1000
0100
0010
0001
0100
0001
1000
0010
0100
,
0002
0000
0000
0000
0003
0000
0000
1000
,
0000
0001
0100
0001
0010
0000
0110
0000
,
0100
1000
0010
0100
0001
1000
0001
0100
0010
1000
0001
1000
0100
0010
0001
0100
,
0001
1000
0010
0100
0010
1000
0001
1000
0100
0010
0001
1000
0001
0100
0010
0100
,
0001
1000
0100
0010
0100
1000
0001
1000
0010
0100
0001
0100
0010
1000
0001
0010
,
0001
0100
0010
1000
0010
0100
0001
1000
0100
0010
0001
1000
0001
0100
0010
1000
,
0100
1000
0001
0100
0010
1000
0100
0010
0001
1000
0001
0100
0010
1000
0001
0010
,
0100
0010
0001
0100
0010
1000
0010
0100
0001
1000
0100
0010
0001
1000
0001
0100
,
0010
1000
0001
0010
0001
0100
0010
1000
0010
0100
0001
1000
0100
0010
0001
1000
,
0100
1000
0010
0100
0010
1000
0100
0010
0001
0100
0001
0010
0100
1000
0010
0100
,
0001
0100
0001
1000
0100
0010
0100
1000
,
0001
1000
0010
0100
0001
0010
0001
0100
,
0010
1000
0100
0010
0001
0100
0001
1000
,
0100
0100
0010
0001
1000
0001
0100
0001
,
1000
0100
1000
0010
0100
0001
0010
0100
,
1000
0001
0100
0010
0100
0001
1000
0100
,
0010
0100
1000
0010
0100
0001
1000
0010
,
1000
0100
1000
0010
0100
0001
1000
0100
1000
0001
0010
0100
1000
0001
0100
0010
,
2000
0000
0000
0000
,
3000
0000
0000
0000
;

//---------------dance-single - J. Nero----------------
#NOTES:
     dance-single:
     J. Nero:
     Challenge:
     14:
     1.000,1.000,0.058,0.404,0.711,1028.000,8.000,56.000,3.000,0.000:
0000
0000
0000
0000
,
0000
0000
0000
0000
,
0000
0000
0000
0000
,
0000
0000
0000
0000
,
0000
0000
0000
0000
,
0000
0000
0000
0000
,
0000
0000
0000
0000
,
0000
0000
0001
0000
1000
0100
1000
0001
,
0200
0000
0000
0302
0000
0000
0000
0000
,
0000
0000
0000
0003
,
0020
0000
0000
0230
0000
0000
0000
0000
,
0300
0000
1000
0000
0001
0100
0000
0001
,
0020
0000
0000
0230
0000
0000
0000
0000
,
0000
0000
0000
0300
,
2000
0000
0000
3002
0000
0000
0000
0000
,
0003
0000
0200
0000
0301
0010
0100
1000
,
1001
0001
0100
0010
,
1000
0100
0010
0001
,
1000
0001
0100
0010
,
1000
0100
0010
0001
,
1000
0001
1000
0100
0010
0001
1000
0010
,
0100
0001
1000
0001
0010
0100
1000
0001
,
0100
0001
1000
0001
0010
0100
1000
0001
1000
0010
0100
0001
0100
0010
1000
0001
,
0000
0000
0000
0000
,
1000
0100
1000
0010
0200
0301
0020
0130
,
1000
0001
1000
0100
0010
0001
0100
0001
,
1000
0100
1000
0010
0200
0310
2000
3100
,
0010
0001
1000
0000
0100
1000
0000
0001
,
1000
0100
0010
0001
0200
0301
0020
0130
,
1000
0000
1000
0000
0001
0000
0001
0000
1000
0100
0010
0001
1000
0000
0001
0000
,
0100
0000
0001
0010
0100
0000
1000
0000
0020
0000
0130
0000
0002
0000
0013
0000
,
0100
0100
1000
0000
0000
0000
0000
0000
,
1001
0001
1000
0100
0020
0130
2000
3001
,
0100
0001
0010
0100
1000
0100
0010
0001
,
0100
0001
1000
0010
0200
0301
0020
0130
,
1000
0001
0010
0000
0100
1000
0000
0010
,
0100
0001
1000
0100
0010
0001
0100
0010
,
1000
0001
0010
0100
1000
0010
0100
0010
,
1000
0001
1000
0010
0100
0010
1000
0001
1000
0100
0010
0001
1000
0001
0100
0010
,
1000
0001
0010
0100
0010
0001
1000
0001
0100
0010
1000
0010
0100
0001
1000
0100
,
0020
0000
0000
0032
0000
0000
0000
0000
,
0000
0000
0000
0000
,
2003
0000
0000
3020
0000
0000
0000
0000
,
0030
0000
0200
0000
0301
1000
0000
0100
,
2000
0000
0000
3002
0000
0000
0000
0000
,
0000
0000
0000
0000
,
2003
0000
0000
3020
0000
0000
0000
0000
,
0030
0000
2000
0000
3100
0010
0001
1000
,
0001
0010
0100
1000
0010
0000
0M00
0000
,
1000
0100
0010
0001
0100
0000
00M0
0000
,
0001
0000
0100
0000
0001
0000
0010
0000
0100
0000
1000
0001
1000
0000
0001
0000
,
0100
0010
1000
0100
0010
0000
000M
0000
,
0001
1000
0100
0100
0001
1000
0010
0010
,
0001
1000
0100
0100
0001
1000
0010
0010
,
0001
0000
1000
0100
1000
0000
0001
0100
0010
0000
1000
0001
1000
0000
0100
0010
,
0001
0000
0100
0001
1000
0000
0004
0003
1000
0100
1000
0010
0100
0001
0010
0100
,
1000
0001
0100
0001
1000
0010
0100
0100
,
2000
0000
3010
0000
0200
0300
0002
0000
0013
0000
0100
0000
1000
0000
0010
0000
,
0110
0000
0100
0000
0001
0000
0010
0000
0100
0000
1000
0001
1000
0010
0100
0001
,
1000
0001
0010
0100
1000
0010
1000
0010
,
0110
0100
0001
0010
0100
1000
0010
0100
,
0010
1000
0100
0010
0001
0100
0001
1000
,
0100
0000
1000
0000
0010
0000
0100
0000
0001
1000
0001
0010
0100
1000
0001
0100
,
0000
0000
0010
1000
0100
0000
0010
0000
0001
1000
0100
0010
0002
0000
0000
0000
,
1003
0100
1000
0010
0100
0001
0010
0100
,
1000
0000
0001
0100
0001
0000
1000
0000
0010
0000
0100
0001
0010
0000
0100
0000
,
1000
0001
1000
0010
0100
0000
0001
1000
0001
0010
0100
1000
0001
0000
2000
0000
,
0100
3100
0010
0001
1000
0001
0100
0001
,
0010
0100
1000
0010
1000
0100
0010
0001
,
0010
0000
0100
1000
0001
0000
1000
0000
0010
0000
1000
0100
0010
0000
0001
0000
,
2000
0000
0000
0000
3000
0000
0000
0001
,
0000
1000
0001
1000
0010
0000
0110
0000
,
0100
0001
0010
0100
1000
0001
1000
0010
,
0100
0000
0001
1000
0001
0000
0010
0000
0100
0000
1000
0010
0100
0000
0001
0000
,
0010
0100
1000
0001
1000
0000
0001
0100
0001
0010
0100
1000
0001
0000
0020
0000
,
0000
0000
0130
0000
1000
0000
0010
0000
0100
0001
1000
0001
0010
0100
1000
0001
,
1000
0000
0010
0100
0001
0000
1000
0000
0100
0010
0001
0000
1000
0000
0004
0000
,
1003
0100
0010
0100
1000
0010
0100
0001
,
2000
0000
0000
3000
,
0000
0000
0001
0001
1000
1000
0100
0010
,
0001
0000
1000
0100
1000
0000
0001
0000
0010
0100
1000
0000
0001
0000
0100
0000
,
0001
1000
0001
0010
0100
0000
1000
0000
0001
0000
1000
0010
0100
0000
0010
0000
,
1000
0001
1000
0010
0100
0000
0001
1000
0001
0010
0100
1000
0001
0000
0020
0000
,
0100
0130
1000
0001
0100
0010
1000
0100
,
1000
0000
0010
0100
0001
0000
1000
0000
0100
0000
0010
0001
1000
0000
0001
0000
,
0100
0000
0010
1000
0010
0000
0100
0000
0001
0010
0100
1000
0001
1000
0010
0100
,
0020
0000
0000
0000
0030
0000
0000
1000
,
0000
0001
0100
0001
0010
0000
0100
0000
,
1000
0100
1000
0001
0100
0000
0010
0000
1000
0000
0001
0100
0001
1000
0100
0000
,
0010
0000
0001
1000
0100
0000
0010
0000
0001
0000
1000
0100
1000
0000
0001
0100
,
0001
1000
0100
0010
0001
1000
0100
1000
0010
0100
0001
1000
0001
0010
0100
1000
,
0001
0000
0100
0000
0010
0000
1000
0000
0100
0000
0010
0001
1000
0001
0100
0010
,
1000
0000
0001
1000
0100
0000
0010
0000
0001
1000
0100
0010
0001
1000
0001
0000
,
4000
3000
0010
0000
1000
0000
0100
0000
0010
0000
0001
0100
0001
1000
0010
0000
,
1000
0100
1000
0010
0100
0001
1000
0000
,
0001
0000
0000
0000
0020
0000
0000
0000
0230
0000
0000
0000
1300
0001
0010
0000
,
0100
0000
1000
0000
0010
0000
0100
0000
0001
1000
0001
0000
0010
0000
0100
0000
,
1000
0000
0020
0130
0001
0000
0010
0000
0001
0000
1000
0100
1000
0000
0010
0000
,
0100
0001
1000
0001
0010
0000
0100
1000
0001
1000
0010
0100
0001
0000
1000
0000
,
0001
0000
0100
0001
0000
0000
1000
0000
0100
1000
0010
0000
0200
0301
1000
0000
,
0001
0000
1000
0100
0010
0000
0001
0000
0100
0010
1000
0000
0100
0000
0010
0000
,
0001
0000
2000
3010
0100
0000
0001
0000
0010
0000
0001
0100
0010
0000
1000
0000
,
0010
1000
0100
0000
0010
0000
0001
0000
1000
0100
1000
0001
0100
0000
0004
0003
,
1000
0000
0200
1300
0010
0000
0200
0310
1000
0100
0010
0001
1000
0000
0001
0000
,
1000
0000
0010
0000
0100
0000
0001
0000
0010
0100
1000
0001
1000
0000
0010
0000
,
0100
0000
0002
0103
0010
0000
1000
0000
0100
0000
0010
0001
1000
0000
0010
0000
,
1000
0100
1000
0010
0100
0000
0001
0010
0100
1000
0001
0100
0010
0000
0100
0000
,
0001
0000
0000
0000
1000
0000
0001
0000
0000
0000
0000
0000
1000
0000
0000
0000
0100
0000
1000
0000
0010
0000
0100
0000
0002
0003
1000
0000
0001
0000
0010
0000
,
0100
0000
1000
0010
0100
0000
0001
0000
0100
0001
0010
0000
0100
0000
4000
0000
,
3000
0000
0000
0000
0002
0003
0100
0000
0001
0000
0000
0000
0010
0000
0000
0000
0100
0000
1000
0000
0001
0000
0000
0000
1000
0000
0000
0000
0010
0000
0000
0000
,
0100
0001
0010
0000
0100
0000
1000
0000
0010
1000
0100
0010
0001
1000
0002
0000
,
0000
0003
1001
1000
,
0001
0100
0010
1000
0100
0010
0001
1000
,
0001
0000
0010
0100
1000
0000
0001
0000
0100
0000
0010
1000
0100
0000
0010
0000
,
0001
1000
0001
0100
0010
0000
1000
0001
1000
0010
0100
0001
1000
0000
0200
0000
,
0010
0310
0001
1000
0001
0100
0001
0010
,
0100
1000
0010
0100
0010
1000
0100
0010
,
0001
0000
1000
0010
0100
0000
0001
0000
0010
0000
0100
1000
0001
0000
0100
0000
,
0002
0000
0000
0000
0003
0000
0000
1000
,
0000
0001
0100
0001
0010
0000
0110
0000
,
0100
1000
0010
0100
0010
1000
0100
0010
,
0001
0000
1000
0100
0010
0000
0001
0000
0100
0000
0010
1000
0001
0000
1000
0000
,
0001
0100
0001
0010
0100
0000
1000
0001
1000
0010
0100
0001
1000
0000
0020
0000
,
0000
0000
1030
0000
0100
0000
0010
0000
0001
1000
0001
0010
0100
1000
0001
1000
,
0010
0000
0100
0001
1000
0000
0001
0000
0010
0100
1000
0000
0001
0000
0400
0300
,
0010
1000
0100
0010
0001
0100
0010
1000
,
0001
0100
0001
0100
0010
1000
0010
1000
,
0001
1000
0010
0100
0010
1000
0100
0010
0001
0100
0001
0010
0100
1000
0010
0100
,
0001
0100
0001
1000
0100
0010
0100
1000
,
0001
1000
0010
0100
0001
0010
0001
0100
,
0010
1000
0100
0010
0001
0100
0001
1000
,
0100
0100
0010
0001
1000
0001
0100
0001
,
1000
0100
1000
0010
0100
0001
0010
0100
,
1000
0001
0100
0010
0100
0001
1000
0100
,
0010
0100
1000
0010
0100
0001
1000
0010
,
1000
0100
1000
0010
0100
0001
1000
0100
1000
0001
0010
0100
1000
0001
0100
0010
,
2000
0000
0000
0000
,
3000
0000
0000
0000
;
