#TITLE:Bed Intruder Song;
#SUBTITLE:;
#ARTIST:Auto-tune the News;
#TITLETRANSLIT:;
#SUBTITLETRANSLIT:;
#ARTISTTRANSLIT:;
#CREDIT:;
#BANNER:../fallback - bn.png;
#BACKGROUND:../fallback - bg.png;
#LYRICSPATH:;
#CDTITLE:;
#MUSIC:Bed Intruder Song.ogg;
#OFFSET:0.349;
#SAMPLESTART:43.858;
#SAMPLELENGTH:12.000;
#SELECTABLE:YES;
#BPMS:0.000=152.000;
#STOPS:;
#BGCHANGES:;
// cache tags:
#FIRSTBEAT:15.500;
#LASTBEAT:360.500;
#SONGFILENAME:Songs/Beast Aoreo BEAST!/Bed Intruder Song - [Aoreo]/Bed Intruder.sm;
#HASMUSIC:1;
#HASBANNER:1;
#MUSICLENGTH:144.136;
// end cache tags

//---------------dance-single - J. Nero----------------
#NOTES:
     dance-single:
     J. Nero:
     Challenge:
     9:
     0.652,0.750,0.624,0.069,0.236,558.000,90.000,10.000,0.000,0.000:
0000
0000
0000
0000
,
0000
0000
0000
0000
,
0000
0000
0000
0000
,
0000
0000
0000
0000
0000
0000
0000
0001
,
1001
0000
0000
1000
0100
0000
0010
0000
0001
0000
0010
0000
0000
0000
0001
0000
,
0100
0010
1000
0010
0100
0001
0000
1000
,
1001
0001
0010
0100
1000
0010
0100
0001
,
1000
0000
0000
0001
1000
0000
0000
0000
0001
0000
0000
0010
0100
0000
0000
0000
,
1100
0000
0000
1000
0010
0000
0000
0000
0110
0000
0000
0100
0001
0000
0000
0000
,
1001
0000
0000
1000
0100
0000
0000
0000
0110
0000
0000
0001
0010
0000
0000
0000
,
0000
0000
0100
0000
0100
0000
1000
0100
0000
1000
0000
0000
0020
0000
0130
0001
,
1000
0010
0110
0100
0101
1001
1000
0010
,
0100
0001
1000
0100
0010
0000
0001
0100
,
0001
0000
0000
1000
0001
1000
0010
0100
,
0000
0001
1000
0100
4000
0000
0000
3010
,
0000
0100
0100
0011
0110
0100
1000
0010
,
0100
0001
1000
0100
1000
0000
1010
0000
,
0010
0100
0001
0000
1100
0000
0100
1000
,
0010
0110
0100
1001
,
0001
0100
0010
1100
,
1001
1000
0010
0100
0011
0010
0010
0100
,
1000
0000
0010
0000
0100
0000
0001
1000
0000
0000
0100
0000
1000
0000
0010
0000
,
0200
0000
0300
0000
0001
0001
0100
0100
,
1010
0000
0000
0000
0000
0000
1000
0000
0001
0000
0000
0000
0100
0000
0010
1000
,
0100
1000
0001
0000
0100
0001
0010
0000
,
0100
1000
0010
0100
0000
0000
0001
0000
0100
0010
0000
0000
,
1000
0100
1000
0001
0000
0000
0100
0010
1000
0001
0000
0000
,
0010
0100
1000
0010
0000
0100
0001
0000
0000
1001
0000
0000
,
1010
0000
1000
0010
0010
0000
0100
0001
,
0001
0000
0000
0000
0010
0000
0100
0000
0200
0000
0000
0000
1300
0010
0100
0000
,
0010
0100
0001
1000
0001
0101
0000
0100
,
0010
1000
0100
0010
0001
0100
0000
1010
,
1100
0100
1000
0001
0100
0010
1000
0001
,
1000
0000
0000
0010
0100
0000
0000
0000
0001
0000
0000
0010
0100
0000
0000
0000
,
1100
0000
0000
1000
0010
0000
0000
0000
0110
0000
0000
0100
0001
0000
0000
0000
,
1001
0000
0000
1000
0010
0000
0000
0000
0101
0000
0000
0001
0010
0000
0000
0000
,
0000
0000
0100
0000
1000
0000
0010
0100
0000
0001
0000
0000
2000
0000
3010
0100
,
0001
1000
1100
0100
0011
0101
1010
1000
,
0011
0000
0100
0000
1000
0000
0010
0000
0110
0000
0000
0000
0100
0000
0001
1000
,
0100
0000
1000
0000
0010
0000
0100
0000
0101
0000
0001
0000
1000
0000
0100
1000
,
0010
0100
0001
0010
0400
0000
0000
1300
,
0010
0100
0100
1001
1010
0010
0100
0001
,
1000
0100
1000
0010
0110
0100
0101
0000
,
0001
1000
0100
1000
1100
0000
0010
0100
,
0001
1001
1010
0110
,
0100
0001
1000
0010
0100
0000
0002
0000
,
0000
0000
0000
0003
0000
0000
0000
0000
,
0000
0000
0000
0000
0000
0000
0000
0000
0000
0000
1000
0000
1001
0000
0000
0001
,
0010
0100
1000
0100
0000
1000
0010
0100
,
0001
0100
0010
1000
0000
0001
1001
1000
,
0100
0000
0010
0000
0001
0000
0100
0000
0010
0000
1000
0000
0001
0000
0000
1000
,
0001
0000
0000
0000
1000
0000
0000
0100
0010
0000
0000
0000
0011
0000
0000
0001
,
0100
0000
0000
0000
0110
0000
0000
0010
1000
0000
0000
0000
1001
0000
0000
0001
,
0010
0000
0000
0000
0110
0000
0000
1000
0100
0000
0000
0000
0000
0000
0001
0000
,
1000
0000
0010
1000
0000
0001
0000
0000
0200
0000
0310
1000
0001
0000
0100
0000
,
0110
0010
1010
1001
0001
0100
0010
1000
,
0001
0010
0100
0000
1000
0010
1000
0000
,
0000
0001
1000
0001
0100
0010
0000
1000
,
0001
0010
0004
0000
0000
0103
0000
0010
,
0010
1100
0110
0010
0001
0100
0010
1000
,
0001
0010
0001
0000
0011
0000
0010
0100
,
1000
0000
0110
0000
0010
0100
0001
0000
,
1001
0010
1001
1000
,
0100
0000
0010
0000
0011
0000
1001
0001
,
0100
0010
1100
0100
0100
0010
0001
0100
,
0010
0000
1000
0001
0000
0000
0010
0000
0001
0000
0100
0000
0020
0000
0000
0000
,
0030
0000
1000
1000
0010
0010
0101
0000
,
0000
0000
0001
0000
1000
0000
0000
0000
0010
0000
0100
0001
0010
0000
0001
0000
,
1000
0000
0000
0000
0000
0000
0100
0000
0000
0010
0000
0000
0001
0000
0000
0000
0000
0000
0010
0000
0001
0000
0100
0000
,
0010
0000
0000
1000
0000
0010
0100
0000
0000
0001
0010
0100
,
1000
0000
0000
0010
1000
0001
1000
0000
0000
0010
0100
0010
,
0100
0000
0010
1000
0000
0000
1001
0000
0000
0101
0000
0000
,
0001
0010
0010
0000
0100
1000
1000
0000
,
0010
0000
0100
0000
0200
0000
0000
0000
0301
0100
0010
0000
0100
0000
0010
0000
,
1000
0001
1000
1010
0000
0010
0100
0001
,
0010
0100
0010
0001
0000
0101
0011
0010
,
0001
0000
1000
0000
0010
0000
0100
0000
0001
0000
1000
0000
0001
0000
0000
0100
,
0010
0000
0000
0000
1000
0000
0000
0100
0010
0000
0000
0000
0011
0000
0000
0001
,
0100
0000
0000
0000
0110
0000
0000
0010
1000
0000
0000
0000
1001
0000
0000
0001
,
0100
0000
0000
0000
1010
0000
0000
1000
0100
0000
0000
0000
0000
0000
0010
0000
,
0001
0000
0100
0010
0000
1000
0000
0000
0002
0000
0103
0010
1000
0000
0001
0000
,
0011
0010
1100
1010
0101
0001
1100
0010
,
0001
0000
0100
0000
0110
0000
0000
0000
0010
0000
1000
0001
0010
0000
0001
0000
,
0100
0000
0010
0000
1010
0000
1000
0000
0001
0000
0010
0001
0100
0000
0010
0000
,
1000
0100
0040
0000
0000
0031
0100
0010
,
0010
1001
0101
0100
0010
1000
0001
0010
,
0001
0100
0110
0010
1010
0000
1000
0001
,
0010
0001
0011
0000
0100
0010
1000
0000
,
1001
0000
0101
0000
0110
0000
0010
1000
,
0001
0100
0010
0000
2000
0000
0000
0000
,
0000
3000
0000
0000
0000
0000
0000
0000
;
