#TITLE:Fire In The Sky;
#SUBTITLE:v2;
#ARTIST:2 Eivissa;
#TITLETRANSLIT:;
#SUBTITLETRANSLIT:;
#ARTISTTRANSLIT:;
#CREDIT:;
#BANNER:Fire In The sky-bn.png;
#BACKGROUND:Fire In The sky-bg.png;
#LYRICSPATH:;
#CDTITLE:!joe.png;
#MUSIC:2 eivissa - fire in the sky.mp3;
#OFFSET:-0.120;
#SAMPLESTART:82.000;
#SAMPLELENGTH:12.000;
#SELECTABLE:YES;
#BPMS:0.000=138.000;
#STOPS:;
#BGCHANGES:;
// cache tags:
#FIRSTBEAT:1.000;
#LASTBEAT:295.500;
#SONGFILENAME:Songs/IzzySM Keyboard Mega Pack/Fire In The Sky/Fire In The Sky.sm;
#HASMUSIC:1;
#HASBANNER:1;
#MUSICLENGTH:134.483;
// end cache tags

//---------------dance-single - Copied from----------------
#NOTES:
     dance-single:
     Copied from:
     Hard:
     11:
     0.871,0.934,0.892,0.074,0.781,690.000,120.000,10.000,0.000,0.000:
0000
0000
0001
0010
1100
1000
0011
0100
,
2002
0000
0000
0000
3003
0000
0000
2000
,
0000
0000
0000
0000
0000
0000
0000
3002
,
0000
0000
0000
0000
0000
0003
0000
0000
0000
0000
0000
0000
0000
0000
0000
0000
,
0000
0000
0000
0000
0011
1000
0100
1000
0010
1000
0001
0100
0010
1000
0100
0010
,
0002
0000
0000
0000
,
0000
0000
0000
0000
,
0003
0000
0000
0000
0000
0000
1100
0100
,
0011
0000
0000
0000
0000
0000
1001
0000
0000
0000
0110
0000
0000
0000
0000
0100
,
1000
0000
1100
0000
0001
0000
0010
0100
0001
0000
1000
0000
0010
0000
1010
0001
,
1000
0000
0100
0000
1000
0000
1100
0001
1000
0000
0001
0000
0010
0000
0101
1000
,
0001
0000
0010
0000
0001
0000
0011
1000
0100
0000
1000
0000
0100
0000
1010
0001
,
1000
0000
0010
0000
0100
0000
0001
1000
0010
0000
0100
0000
0010
0000
1001
0010
,
0100
0000
0010
0000
0001
0000
0001
0010
0100
0000
1000
0000
0001
0000
0011
1000
,
0100
0000
1000
0000
0010
0000
0001
0100
0001
0000
0100
0000
0001
0000
0110
0001
,
0100
0000
0001
0000
0100
0000
0010
1000
0001
0000
0001
0000
0100
0000
1100
0001
,
0010
0000
0001
0000
0100
0000
0011
1000
0100
0000
0001
0000
0001
0000
1001
0000
,
0001
0000
0010
0000
0001
0000
1000
0001
1000
0000
0010
0100
0010
0000
0100
0010
,
0100
0000
0001
1000
0001
0000
1000
0001
1000
0000
0010
0100
0010
0000
0100
0010
,
0100
0000
0010
0100
0010
0000
0001
0100
0001
0000
0100
0010
0100
0000
0010
1000
,
0010
0000
0100
0010
0100
0000
0001
1000
0001
0000
0100
0001
0100
0000
0001
0100
,
0010
0000
1000
0010
0100
0000
0001
1000
0100
0000
1000
0001
0010
0000
0001
1000
,
0001
0000
1000
0001
1000
0000
0010
1000
0100
0000
0010
0001
0100
0000
0001
0100
,
0010
0000
1000
0010
0100
0000
0001
0100
0010
0000
1000
0010
0100
0000
0001
1000
,
0001
0000
0100
0010
0100
0000
0001
1000
0001
0000
1000
0001
1000
0000
0010
0100
,
1001
0010
1001
0100
0010
0000
0011
0000
0100
0001
0010
0100
1000
0000
1001
0000
,
0100
0001
0010
0001
1000
0000
0110
0000
0001
1000
0010
0100
0001
0000
0101
0000
,
1000
0100
1000
0001
0010
0000
1001
0000
0001
1000
0100
0010
0100
0000
1100
0000
,
0001
1000
0010
1000
0010
0000
1100
0000
0001
0010
0100
0010
0100
0000
1100
0000
,
0010
0100
0001
1000
0100
0000
1010
0000
0010
1000
0001
0100
0001
0000
1100
0000
,
1000
0100
1000
0001
0010
0000
0110
0000
0010
0001
0010
0100
1000
0000
0011
0000
,
0010
0000
0001
1000
0001
0000
0010
0100
1000
0000
1000
0001
1000
0000
0001
1000
,
0001
0000
0010
0100
1000
0001
0100
0010
1000
0001
0010
0100
0010
0100
1000
0001
,
1000
0010
0110
0100
1100
1000
1010
0010
,
0011
0001
1001
1000
0110
0001
0011
0010
,
0110
0100
1100
1000
1100
0100
0110
0010
,
0011
0000
0001
0000
0100
1000
0010
1000
0001
0010
0100
1000
0100
1000
0001
1000
,
0100
0010
0001
0010
0001
0100
0010
0100
0001
1000
0010
0100
0001
1000
0100
0010
,
0001
1000
0001
0010
0001
0010
0100
1000
0100
0010
0001
1000
0010
0100
0001
0010
,
0001
0000
1000
0000
0100
0000
0010
0001
0000
0000
1100
0000
0011
0000
0001
0100
,
0000
0001
1001
0010
1000
0110
0010
0100
,
1000
0100
0010
0001
0100
0001
1000
0010
0100
0001
1000
0001
0010
0100
1000
0010
,
0100
0001
1000
0010
0100
0001
0100
0010
1000
0001
0100
0001
1000
0010
0100
0002
,
0000
0003
0020
0000
0030
0200
0000
0300
2000
0000
3000
0000
1001
0000
0101
0000
,
0011
0101
1001
1010
1100
1010
1001
0110
,
0100
1000
0010
1000
0001
0100
0010
0100
0001
1000
0010
0100
0001
0010
0100
1000
,
0010
1000
0001
0010
0100
0010
0100
1000
0001
0100
0010
0100
0001
1000
0010
0100
,
0001
0000
1100
0000
0011
0000
1100
1100
0000
0000
0011
0000
1100
0000
0011
0011
,
0000
0000
0001
0010
0100
0000
1000
0100
0010
0000
0001
1000
0001
0100
0010
1000
,
0102
0000
0000
0000
,
0000
0000
0000
0000
,
1003
0000
1100
0000
0011
0000
0011
0010
,
0000
0010
0000
1100
0000
0100
0110
0100
,
1100
0000
1100
0000
0110
0010
0011
1100
,
0000
0000
0000
0110
,
1100
0000
1100
0000
0011
0000
0011
0010
,
0000
0001
0000
1100
0000
0100
0011
0001
,
1100
0000
0000
0000
0110
0000
0000
0000
1000
0001
0100
0010
1000
0001
1000
0000
,
0000
0000
0000
0000
0000
0000
0000
0000
0000
0000
1000
0001
0010
0000
0001
1000
,
0011
0000
1000
0001
0100
0000
0001
1000
0110
0000
0100
0010
1000
0000
0010
1000
,
0101
0000
1000
0001
1000
0000
1000
0001
1100
0000
0010
1000
0100
0000
1000
0001
,
0110
0000
0010
0100
1000
0000
1000
0010
1001
0000
0100
0010
1000
0000
0100
1000
,
0011
0000
0100
1000
0010
0000
1000
0100
0011
0000
0011
0000
1000
0000
0101
0000
,
0100
0001
0100
0010
1000
0001
0100
0010
1000
0100
0010
0001
0100
0010
1000
0100
,
0010
0001
0100
0010
0100
0001
1000
0010
1000
0001
0010
0100
0010
0001
1000
0100
,
1000
0010
0100
0001
1000
0001
1000
0010
1000
0100
0010
0100
1000
0001
1000
0010
,
1001
0000
0000
0000
1000
0001
0010
0001
1000
0100
0010
0000
0000
0000
0000
0000
,
1001
0000
0110
0000
0011
0001
0101
0010
,
1100
0100
0011
0001
0110
0100
1100
0100
,
1000
0001
0100
0001
0010
0001
0100
0001
1000
0010
0100
0001
1100
0000
1100
0000
,
0000
0000
0000
0000
0010
0110
1001
0000
,
1001
1000
0110
0100
0110
1000
1100
0001
,
1001
0100
0101
0010
1100
0001
0110
0001
,
0001
1000
0100
0010
0001
1000
0010
0100
0001
1000
0010
0100
0001
0000
1001
0000
;
