#TITLE:Frictional Nevada;
#SUBTITLE:Hospitality (2006);
#ARTIST:Venetian Snares;
#TITLETRANSLIT:;
#SUBTITLETRANSLIT:;
#ARTISTTRANSLIT:;
#CREDIT:;
#BANNER:nevada-bn.jpg;
#BACKGROUND:nevada-bg.jpg;
#LYRICSPATH:;
#CDTITLE:cdtitle.png;
#MUSIC:Venetian Snares - Hospitality - 01 - Frictional Nevada.mp3;
#OFFSET:-0.030;
#SAMPLESTART:52.300;
#SAMPLELENGTH:12.000;
#SELECTABLE:YES;
#BPMS:0.000=225.000;
#STOPS:;
#BGCHANGES:;
// cache tags:
#FIRSTBEAT:42.000;
#LASTBEAT:446.000;
#SONGFILENAME:Songs/Hard Songs Megapack Volume 9/Frictional Nevada/vnsarescockdump.sm;
#HASMUSIC:1;
#HASBANNER:1;
#MUSICLENGTH:212.924;
// end cache tags

//---------------dance-single - ----------------
#NOTES:
     dance-single:
     :
     Hard:
     14:
     1.000,1.000,1.000,0.075,1.000,1285.000,498.000,16.000,15.000,75.000:
0000
0000
0000
0000
,
0000
0000
0000
0000
,
0000
0000
0000
0000
,
0000
0000
0000
0000
,
0000
0000
0000
0000
,
0000
0000
0000
0000
,
0000
0000
0000
0000
,
0000
0000
0000
0000
,
0000
0000
0000
0000
,
0000
0000
0000
0000
,
0000
0000
0000
0000
0000
0000
0000
0000
1000
0010
0100
0010
1000
0100
0010
0100
,
1000
0001
0010
0100
0010
0001
0100
0010
0100
0001
1000
0001
0100
0001
1000
0010
,
1000
0100
1000
0010
1100
0001
0100
0010
1001
0010
0100
0001
0110
0001
1000
0100
,
1001
0010
1000
0001
0110
0001
0010
0001
1100
0000
0100
0000
0110
0000
0100
0000
,
1001
0010
0100
1000
0011
1000
0101
0010
1001
0100
0010
1000
0011
0100
1001
0010
,
1101
0000
0100
1010
0101
0000
0110
1000
0100
0010
1001
0000
1101
0000
0100
0000
,
1011
0000
0001
0010
1100
0001
0100
1000
0110
0001
0110
0001
1110
0000
0001
0100
,
0011
1000
0101
0000
1001
0010
1100
0000
1010
0000
1100
0001
1000
0100
0011
0000
,
0010
0000
0001
0000
0100
0000
1000
0000
0101
0000
0000
0000
0000
0000
0000
0000
0100
0000
1000
0000
0100
0000
1000
0000
0011
0000
0000
0000
0001
0100
0010
1000
,
0001
0000
0000
0000
0100
0010
0100
0000
1001
0000
0000
0000
1001
0000
0010
0000
1000
0000
0100
0000
1010
0000
0000
0000
0100
0000
0001
0000
1010
0000
0100
0000
,
1001
0000
0001
0001
1000
0100
1010
0101
1010
0001
0110
0001
1100
0000
1100
0000
,
1101
0000
0000
0000
1011
0000
0111
0000
0101
1000
0011
1000
0101
0000
0010
0100
,
1011
0000
0100
0000
1011
0000
1101
0010
0001
1000
0110
0000
1101
0000
0100
0000
,
0111
0000
1010
0100
0011
1000
0110
0001
1110
0000
0100
0010
1101
0000
1000
0010
,
1100
0000
0000
0000
0010
0000
0000
0000
0101
0000
0000
0000
0000
0000
0000
0000
1001
0000
0000
0000
0010
0000
0000
0000
0101
0000
0000
0000
0000
0000
0000
0000
1100
0000
0000
0000
0000
0000
0000
0000
0000
0000
0000
0000
0011
0000
0000
0000
0000
0000
0000
0000
0000
0010
0000
0000
1100
0000
0000
0000
0000
0010
0000
0000
,
1100
0000
0000
0000
0000
0010
0000
0000
1000
0000
0000
0000
0100
0000
0000
0000
0011
0000
0000
0000
0000
0000
0000
0000
0000
0000
0000
0000
0000
0000
0000
0000
0010
0000
0000
0000
0001
0000
0000
0000
0010
0000
0000
0000
0001
0000
0000
0000
1100
0000
0000
0000
0000
0000
0000
0000
1000
0000
0010
0000
0100
0000
0001
0000
,
1000
0000
0000
0000
0001
1000
0001
0000
0110
0000
0000
0000
0000
0000
0010
0000
0001
0000
0010
0000
0101
0000
0000
0000
0100
0000
0010
0000
1001
0000
0100
0000
,
0011
0000
0000
0000
1001
0100
0010
0100
0010
0100
1001
0010
0100
0010
1100
0011
,
1100
0001
1000
0110
1001
0100
0010
0001
0010
0100
1001
0010
0101
1000
0100
1010
,
0101
0010
1000
0010
0100
0001
0110
1000
0010
0100
1011
0100
1001
0010
0100
0011
,
1100
0010
0001
1000
0010
0100
0011
1000
0011
0100
1000
0010
1001
0100
1001
0110
,
1001
0100
0010
1000
0001
0100
1011
0100
1010
0100
0001
1010
0101
0010
1000
0001
,
0010
0100
0011
1100
0011
1000
0011
0100
1001
0010
1000
0010
0100
0001
1010
0100
,
1001
0010
1101
0010
1100
0010
1000
0110
1001
0010
0100
0001
1010
0100
0010
1000
,
0011
0000
0000
0000
0110
1000
0010
1000
0010
1000
0011
0011
0011
0000
1101
0000
,
0110
1000
0001
1100
0011
0100
0001
0010
1000
0100
1001
0010
0101
0000
0000
0000
,
1010
0100
1010
0100
1010
0100
1001
0010
0100
1000
0111
1001
0110
1000
0010
1100
,
0011
1000
0011
0100
0011
0110
1100
1001
0110
1000
0110
0001
0110
1001
0110
1001
,
0110
0000
0000
0000
1100
0000
1100
0000
1100
0010
0001
1000
0111
0000
0000
0000
1100
0000
0010
0000
0001
0000
1100
0000
0011
0000
1000
0000
0101
0000
0010
0000
,
0100
1000
0011
1000
0111
0000
0000
0000
0101
1001
1010
0000
0101
0000
0101
0010
,
1000
0010
1101
0000
1110
0000
1110
0000
0011
0000
0100
0010
1100
1001
0110
1000
,
0101
0000
0000
0000
0010
0001
0100
0010
1000
0000
0100
0000
1001
0000
0010
0000
0101
0000
0000
0000
0011
0000
0010
0000
2001
0000
0000
0000
0111
0000
0000
0000
,
3011
0000
0010
1000
0110
0000
1102
0000
1000
0100
1013
0000
1201
0000
0010
0000
,
0310
0000
0000
0000
0021
0100
1000
0001
0130
0000
1000
0000
0101
0000
1000
0000
0011
0000
0100
0000
0010
0000
1000
0000
0111
0000
0000
0000
1000
0000
0100
0000
,
1001
0000
0000
0000
0011
0000
0000
0000
0000
0000
0100
0000
1000
0000
0100
0000
1011
0000
0000
0000
0001
0010
0100
0001
0110
0000
1000
0000
0110
0000
1000
0000
,
0110
0001
0100
1000
0010
0100
1001
0000
1110
0000
0010
1000
0101
0000
1101
0000
,
1100
0000
0000
0000
0001
0000
0000
0000
1001
0100
0010
0001
1000
0100
0010
0001
0100
0000
1000
0000
0011
0000
1000
0000
0100
0000
0000
0000
0000
0000
0000
0000
,
0110
0000
0000
0000
0000
0000
0000
0000
1001
0000
0000
0000
0100
0000
0000
0000
1011
0000
0000
0000
0000
0000
0000
0000
1010
0000
0000
0000
0000
0000
0000
0000
0100
0000
0000
0000
0000
0000
0000
0000
0101
0000
0000
0000
0010
0000
0000
0000
1000
0000
0000
0000
0000
0100
0000
0000
1000
0000
0000
0000
0010
0000
0000
0000
,
0100
0000
0000
0000
1001
0000
0000
0000
0110
0000
0000
0000
0000
0000
0000
0000
0001
0000
0000
0000
0100
0000
0000
0000
1000
0000
0000
0000
0010
0000
0000
0000
1100
0000
0000
0000
0000
0000
0000
0000
0101
0000
0000
0000
0010
0000
0000
0000
0001
1000
0000
0000
0100
0010
0000
0000
0001
1000
0000
0000
0100
0010
0000
0000
,
1001
0000
0000
0000
1100
0000
0010
0000
1100
0000
0010
0000
1101
0000
0000
0000
0010
0000
0000
0000
1000
0000
1000
0000
0011
0000
0000
0000
0001
0000
0100
1000
,
0010
0000
0000
0000
0001
0000
0000
0000
0100
0000
0000
0000
0010
0000
0000
0000
1001
0000
0000
0000
0110
0000
0000
0000
1000
0000
0000
0000
0001
0000
0000
0000
1010
0000
0000
0000
0000
0000
0000
0000
0011
0000
0000
0000
1000
0000
0000
0000
0111
0000
0000
1000
0000
0000
0001
0000
0000
0010
0000
0000
0100
0000
0000
0000
,
0011
1000
0110
0000
0010
0100
0010
0100
1010
0100
0001
1000
0011
0100
1000
0100
,
0010
0000
0000
0000
0000
0000
0000
0000
0110
0000
0000
0000
0001
0000
1000
0000
0110
0001
1000
0010
0101
0000
0010
0000
0001
0000
0010
0000
1101
0000
0000
0000
,
1100
0000
0100
0010
1001
0100
0010
0000
1110
0000
0011
1000
0101
0000
0110
0010
,
1000
0000
0010
0010
1101
0000
1001
0000
0100
0000
0101
0000
1000
1000
0100
0010
,
0001
0000
0000
0000
1001
0100
0010
0100
1001
0010
0100
0010
1001
0100
0010
0100
,
1010
0000
0000
0000
0000
0000
0000
0000
1010
0000
0000
0000
0000
0000
0000
0000
0001
0000
0000
0000
0000
0000
0000
0000
1000
0000
0000
0000
0102
0003
0000
0000
0010
0000
0000
0000
2000
3000
0000
0000
0100
0000
0000
0000
1020
0030
0000
0000
0101
0000
0000
0000
1000
0000
0000
0000
0100
0000
0000
0000
0010
0000
0000
0000
,
1000
0001
1000
0000
0101
0010
0100
1010
0001
0000
1000
0000
1101
0000
1100
0000
,
0111
0000
0000
0000
0000
0000
0000
0000
0001
0000
0000
0000
0120
0030
0000
0000
1001
0000
0000
0000
0200
0300
0000
0000
0010
0000
0000
0000
0102
0003
0000
0000
1010
0000
0000
0000
0100
0000
0000
0000
1000
0000
0000
0000
0011
0000
0000
0000
0100
0000
0000
0000
1011
0000
0000
0000
0100
0000
0000
0000
0000
0000
0000
0000
,
0011
0000
0000
0000
1000
0000
0000
0000
0001
0000
0000
0000
1100
0000
0000
0000
0010
0000
0000
0000
1000
0000
0000
0000
0111
0000
0000
0000
1000
0000
0000
0000
0110
0000
0000
0000
0001
0000
0000
0000
0110
0000
0000
0000
0001
0000
0000
0000
1110
0000
0000
0000
0000
0000
0000
0000
1000
0000
0000
0000
0210
0300
0000
0000
,
0001
0000
0000
0000
1020
0030
0000
0000
0100
0000
0000
0000
0012
0003
0000
0000
1100
0000
0000
0000
0010
0000
0000
0000
0001
0000
0000
0000
0100
0000
0000
0000
1010
0000
0000
0000
0000
0000
0000
0000
0001
0000
0000
0000
1100
0000
0000
0000
0000
0000
0000
0000
1100
0000
0000
0000
0010
0000
0000
0000
1100
0000
0000
0000
,
1100
0000
0000
0000
1000
0000
0000
0000
0011
0000
0000
0000
0000
0000
0000
0000
1101
0000
0000
0000
0000
0000
0000
0000
1001
0000
0000
0000
0000
0000
0000
0000
0111
0000
0000
0000
0000
0000
0000
0000
0100
0000
0000
0000
2001
3000
0000
0000
0010
0000
0000
0000
1200
0300
0000
0000
0001
0000
0000
0000
0120
0030
0000
0000
,
1001
0000
0000
0000
1101
0010
1000
0011
0100
1001
0101
0010
1000
0111
0000
0000
,
1111
0000
1010
0000
0111
0000
1100
0001
0110
0000
0100
0010
1001
0010
1000
0100
,
1001
0010
0001
0000
0101
1000
0100
1010
0001
0000
0100
0000
1001
0000
1001
0000
,
0111
1000
0001
0110
1000
0010
0001
0010
1100
0000
1100
0010
1100
0001
1100
0010
,
1100
0001
1010
0001
0110
1000
0101
0010
1001
0100
1000
0100
0011
0000
0001
0100
,
1010
0100
1000
0001
0110
1000
0100
0010
1101
0000
0010
1100
0000
0101
0010
0101
,
0101
0100
1010
0000
0110
0000
0110
0000
0001
0000
0011
0100
1000
0010
0100
0010
,
0101
0010
0100
1000
0110
0000
1000
0011
0001
0000
1010
0000
0010
1100
0100
0000
,
1111
0000
0000
0000
1100
0000
0010
0000
1101
0000
0000
0000
0111
0000
0000
0000
0011
0000
1100
0000
0010
0000
0000
0000
0111
0000
0000
0000
0100
0010
0001
1000
,
0101
0010
0101
0010
1001
0000
0000
0010
0001
0000
0100
0000
1001
0000
1000
0000
,
0110
0000
0001
0000
0110
0000
1000
0000
1010
0000
0000
0000
1100
0000
0000
1010
,
0000
0000
0101
0000
0010
1100
0000
0010
1101
0000
0011
1000
0100
0000
1110
0001
,
1000
0100
0001
0010
1101
0000
0000
0010
0100
0000
1000
0000
0100
0010
1000
0010
,
0101
0010
0001
0110
1001
0000
1000
0000
0011
1000
0101
1000
0110
0010
1001
0001
,
1100
0000
0000
0000
0000
0000
0000
0000
1000
0000
0000
0000
0000
0000
0000
0000
0010
0000
0000
0000
0100
0000
0000
0000
1000
0000
0000
0000
0001
0000
0000
0000
1000
0000
0000
0000
0001
0000
0000
0000
0010
0000
0000
0000
0100
0000
0000
0000
1000
0100
0000
0000
0010
0001
0000
0000
1000
0100
0000
0000
0010
0001
0000
0000
,
1100
0000
0010
1000
0101
0000
0100
0010
1000
0100
1000
0010
0101
0010
1000
0010
,
1100
0000
0100
0000
0010
0001
0010
0001
1010
0000
0001
0010
1100
0000
1100
0000
,
0011
0000
1100
0010
0101
1000
0010
1001
0110
0001
1000
0001
0010
0100
0010
0001
,
0110
0000
0100
1000
0011
0000
0001
0010
0101
1010
0101
0010
0001
0000
0011
0100
,
1000
0010
1100
0010
0001
0100
1001
0010
1000
0011
1100
0011
1000
0100
1010
0001
,
0110
0000
0000
0010
1001
0010
1100
0010
0101
0000
1110
0001
0100
0001
0110
1000
,
0111
0000
0000
0000
0011
0100
1000
0010
0101
0000
0010
0000
1101
0000
0010
0000
1001
0000
0000
0000
1010
0000
0000
0000
1100
0000
0000
0000
1001
0000
0000
0000
,
1100
0000
0100
0000
0011
0000
0100
1000
0110
1000
0010
0001
1010
0000
0100
0010
,
0001
0000
0000
0000
1100
0000
0000
0000
1110
0000
0000
0000
0001
0000
0010
0000
0001
0000
0000
0000
0100
0000
0000
0000
1001
0000
0000
0000
1000
0100
0010
0001
,
1100
0000
0011
0101
0010
0001
1000
0100
0100
0000
0101
0000
1010
0000
1000
0000
,
0100
0000
0000
0000
0011
0000
1000
0000
0111
0000
0111
0000
1100
0000
1010
0100
,
0010
1000
0101
0010
0001
0000
1001
0000
0001
0000
0011
0000
0001
0000
1010
0001
,
0100
0001
1110
0000
0110
0000
0110
0000
1001
0010
1100
0011
1000
0100
0010
1000
,
0101
0000
1000
0000
0010
0000
0100
0000
1001
0000
0000
0000
0101
0000
0000
0000
0001
1000
0001
0000
0010
0100
1000
0010
0100
0010
0001
1000
0010
0100
1000
0001
,
0110
0000
0100
1010
0001
0010
1100
0010
0101
1000
0100
0010
1010
0000
0101
0000
,
0010
0110
1000
0000
1110
0011
1001
0000
,
1001
0000
0000
0000
1010
0001
0000
0000
1001
0000
0000
0000
0101
1000
0000
0110
,
1001
0000
1010
0001
1100
0000
1010
0000
,
1000
1001
0001
0101
,
0100
0110
0011
0001
,
1001
0001
0001
0001
,
0011
0000
1100
0000
0011
0000
0100
0000
1001
0000
0010
0000
1001
0000
0110
0000
1001
0010
0100
0001
0100
0010
1000
0001
1010
0000
0110
0000
1001
0000
0001
0000
,
1100
0000
0000
0000
0011
0000
0001
0001
1100
0000
0010
0000
0101
0010
1001
0000
,
1001
0110
1010
0101
0011
1100
0011
0000
1101
0000
1010
0000
1100
0010
0001
0010
,
0000
0000
0000
0000
0000
0000
0000
0000
0000
0000
0000
0000
0000
0000
0000
0000
0001
0000
0000
0000
1000
0000
0000
0000
0001
0000
0000
0000
1000
0000
0000
0000
0110
0000
0000
0000
0000
0000
0000
0000
0000
0001
0000
0000
0110
0000
0000
0000
0000
0000
0000
0000
0000
0001
0000
0000
0110
0000
0000
0000
0000
0000
0000
0000
,
0000
0001
0000
0000
1100
0000
0000
0000
0000
0000
0000
0000
0010
0000
0000
0000
1000
0000
0100
0000
0010
0000
0001
0000
0010
0000
0100
0000
1000
0010
0001
0100
1000
0000
0000
0000
0010
0000
0000
0000
0001
0000
0000
0000
0100
0000
0000
0000
0010
0000
0000
0000
0000
0000
0000
0000
0001
0000
0100
0000
1000
0000
0001
0000
,
0000
0000
1000
0010
0001
1000
0000
0000
0010
0100
1000
0010
0000
0000
1001
0000
0000
0000
1001
0000
0000
0000
0101
0000
0000
0000
0111
0000
1000
0000
0010
0000
,
1000
0000
0000
0000
0001
0000
0000
0100
0000
0000
0010
0000
0000
0100
0000
0000
1000
0000
0000
0100
0000
0000
0010
0000
0000
0001
0000
0000
1000
0100
0010
0000
0001
0000
0100
0000
0010
0000
0001
0000
1000
0000
0000
0000
0100
0000
0000
0000
0010
0000
0000
0000
1100
0000
0000
0000
0000
0000
0000
0000
0001
0000
0000
0000
,
1100
0000
0000
0000
0010
0000
1000
0001
1000
0001
0000
0000
0110
0000
0000
0000
0001
0000
1100
0000
0001
0000
1100
0000
0011
0000
0000
0000
0000
0000
0000
0000
,
0011
0000
1100
0000
1111
1111
1111
1111
,
0111
0000
0000
0000
0110
0000
0000
0000
0011
0000
1000
0000
0010
0000
1101
0000
0000
0000
0110
0000
0001
1000
0000
0000
0010
0000
0001
0100
0000
0000
0001
0000
,
0110
0001
1010
0100
1001
0010
0100
1000
0110
0001
1010
0000
1000
0000
0100
0000
,
0110
0000
0000
0000
0001
0000
0000
0000
1010
0000
0000
0000
0100
0000
0000
0000
1001
0000
0000
0000
0010
0000
0000
0000
0100
0000
0000
0000
1000
0000
0000
0000
0110
0000
0000
0000
1000
0000
0000
0000
0000
0010
0000
0000
0100
0000
0000
0000
0001
0000
0000
0000
0010
0000
0000
0000
0100
0000
0000
0000
0001
0000
0000
0000
,
1000
0000
0000
0000
0MM0
M00M
M00M
000M
0MM0
0MM0
0000
0MM0
0MM0
0000
0000
0000
;

//---------------dance-single - ----------------
#NOTES:
     dance-single:
     :
     Challenge:
     15:
     1.000,1.000,1.000,0.075,1.000,1300.000,498.000,16.000,30.000,75.000:
0000
0000
0000
0000
,
0000
0000
0000
0000
,
0000
0000
0000
0000
,
0000
0000
0000
0000
,
0000
0000
0000
0000
,
0000
0000
0000
0000
,
0000
0000
0000
0000
,
0000
0000
0000
0000
,
0000
0000
0000
0000
,
0000
0000
0000
0000
,
0000
0000
0000
0000
0000
0000
0000
0000
1000
0010
0100
0010
1000
0100
0010
0100
,
1000
0001
0010
0100
0010
0001
0100
0010
0100
0001
1000
0001
0100
0001
1000
0010
,
1000
0100
1000
0010
1100
0001
0100
0010
1001
0010
0100
0001
0110
0001
1000
0100
,
1001
0010
1000
0001
0110
0001
0010
0001
1100
0000
0100
0000
0110
0000
0100
0000
,
1001
0010
0100
1000
0011
1000
0101
0010
1001
0100
0010
1000
0011
0100
1001
0010
,
1101
0000
0100
1010
0101
0000
0110
1000
0100
0010
1001
0000
1101
0000
0100
0000
,
1011
0000
0001
0010
1100
0001
0100
1000
0110
0001
0110
0001
1110
0000
0001
0100
,
0011
1000
0101
0000
1001
0010
1100
0000
1010
0000
1100
0001
1000
0100
0011
0000
,
0010
0000
0001
0000
0100
0000
1000
0000
0101
0000
0000
0000
0000
0000
0000
0000
0100
0000
1000
0000
0100
0000
1000
0000
0011
0000
0000
0000
0001
0100
0010
1000
,
0001
0000
0000
0000
0100
0010
0100
0000
1001
0000
0000
0000
1001
0000
0010
0000
1000
0000
0100
0000
1010
0000
0000
0000
0100
0000
0001
0000
1010
0000
0100
0000
,
1001
0000
0001
0001
1000
0100
1010
0101
1010
0001
0110
0001
1100
0000
1100
0000
,
1101
0000
0000
0000
1011
0000
0111
0000
0101
1000
0011
1000
0101
0000
0010
0100
,
1011
0000
0100
0000
1011
0000
1101
0010
0001
1000
0110
0000
1101
0000
0100
0000
,
0111
0000
1010
0100
0011
1000
0110
0001
1110
0000
0100
0010
1101
0000
1000
0010
,
1100
0000
0000
0000
0010
0000
0000
0000
0101
0000
0000
0000
0000
0000
0000
0000
1001
0000
0000
0000
0010
0000
0000
0000
0101
0000
0000
0000
0000
0000
0000
0000
1100
0000
0000
0000
0000
0000
0000
0000
0000
0000
0000
0000
0011
0000
0000
0000
0000
0000
0000
0000
0000
0010
0000
0000
1100
0000
0000
0000
0000
0010
0000
0000
,
1100
0000
0000
0000
0000
0010
0000
0000
1000
0000
0000
0000
0100
0000
0000
0000
0011
0000
0000
0000
0000
0000
0000
0000
0000
0000
0000
0000
0000
0000
0000
0000
0010
0000
0000
0000
0001
0000
0000
0000
0010
0000
0000
0000
0001
0000
0000
0000
1100
0000
0000
0000
0000
0000
0000
0000
1000
0000
0010
0000
0100
0000
0001
0000
,
1000
0000
0000
0000
0001
1000
0001
0000
0110
0000
0000
0000
0000
0000
0010
0000
0001
0000
0010
0000
0101
0000
0000
0000
0100
0000
0010
0000
1001
0000
0100
0000
,
0011
0000
0000
0000
1001
0100
0010
0100
0010
0100
1001
0010
0100
0010
1100
0011
,
1100
0001
1000
0110
1001
0100
0010
0001
0010
0100
1001
0010
0101
1000
0100
1010
,
0101
0010
1000
0010
0100
0001
0110
1000
0010
0100
1011
0100
1001
0010
0100
0011
,
1100
0010
0001
1000
0010
0100
0011
1000
0011
0100
1000
0010
1001
0100
1001
0110
,
1001
0100
0010
1000
0001
0100
1011
0100
1010
0100
0001
1010
0101
0010
1000
0001
,
0010
0100
0011
1100
0011
1000
0011
0100
1001
0010
1000
0010
0100
0001
1010
0100
,
1001
0010
1101
0010
1100
0010
1000
0110
1001
0010
0100
0001
1010
0100
0010
1000
,
0011
0000
0000
0000
0110
1000
0010
1000
0010
1000
0011
0011
0011
0000
1101
0000
,
0110
1000
0001
1100
0011
0100
0001
0010
1000
0100
1001
0010
0101
0000
0000
0000
,
1010
0100
1010
0100
1010
0100
1001
0010
0100
1000
0111
1001
0110
1000
0010
1100
,
0011
1000
0011
0100
0011
0110
1100
1001
0110
1000
0110
0001
0110
1001
0110
1001
,
0110
0000
0000
0000
1100
0000
1100
0000
1100
0010
0001
1000
0111
0000
0000
0000
1100
0000
0010
0000
0001
0000
1100
0000
0011
0000
1000
0000
0101
0000
0010
0000
,
0100
1000
0011
1000
0111
0000
0000
0000
0101
1001
1010
0000
0101
0000
0101
0010
,
1000
0010
1101
0000
1110
0000
1110
0000
0011
0000
0100
0010
1100
1001
0110
1000
,
0101
0000
0000
0000
0010
0001
0100
0010
1000
0000
0100
0000
1001
0000
0010
0000
0101
0000
0000
0000
0011
0000
0010
0000
2001
0000
0000
0000
0111
0000
0000
0000
,
3011
0000
0010
1000
0110
0000
1102
0000
1000
0100
1013
0000
1201
0000
0010
0000
,
0310
0000
0000
0000
0021
0100
1000
0001
0130
0000
1000
0000
0101
0000
1000
0000
0011
0000
0100
0000
0010
0000
1000
0000
0111
0000
0000
0000
1000
0000
0100
0000
,
1001
0000
0000
0000
0011
0000
0000
0000
0000
0000
0100
0000
1000
0000
0100
0000
1011
0000
0000
0000
0001
0010
0100
0001
0110
0000
1000
0000
0110
0000
1000
0000
,
0110
0001
0100
1000
0010
0100
1001
0000
1110
0000
0010
1000
0101
0000
1101
0000
,
1100
0000
0000
0000
0001
0000
0000
0000
1001
0100
0010
0001
1000
0100
0010
0001
0100
0000
1000
0000
0011
0000
1000
0000
0100
0000
0000
0000
0000
0000
0000
0000
,
0110
0000
0000
0000
0000
0000
0000
0000
1001
0000
0000
0000
0100
0000
0000
0000
1011
0000
0000
0000
0000
0000
0000
0000
1010
0000
0000
0000
0000
0000
0000
0000
0100
0000
0000
0000
0000
0000
0000
0000
0101
0000
0000
0000
0010
0000
0000
0000
1000
0000
0000
0000
0000
0100
0000
0000
1000
0000
0000
0000
0010
0000
0000
0000
,
0100
0000
0000
0000
1001
0000
0000
0000
0110
0000
0000
0000
0000
0000
0000
0000
0001
0000
0000
0000
0100
0000
0000
0000
1000
0000
0000
0000
0010
0000
0000
0000
1100
0000
0000
0000
0000
0000
0000
0000
0101
0000
0000
0000
0010
0000
0000
0000
0001
1000
0000
0000
0100
0010
0000
0000
0001
1000
0000
0000
0100
0010
0000
0000
,
1001
0000
0000
0000
1100
0000
0010
0000
1100
0000
0010
0000
1101
0000
0000
0000
0010
0000
0000
0000
1000
0000
1000
0000
0011
0000
0000
0000
0001
0000
0100
1000
,
0010
0000
0000
0000
0001
0000
0000
0000
0100
0000
0000
0000
0010
0000
0000
0000
1001
0000
0000
0000
0110
0000
0000
0000
1000
0000
0000
0000
0001
0000
0000
0000
1010
0000
0000
0000
0000
0000
0000
0000
0011
0000
0000
0000
1000
0000
0000
0000
0111
0000
0000
1000
0000
0000
0001
0000
0000
0010
0000
0000
0100
0000
0000
0000
,
0011
1000
0110
0000
0010
0100
0010
0100
1010
0100
0001
1000
0011
0100
1000
0100
,
0010
0000
0000
0000
0000
0000
0000
0000
0110
0000
0000
0000
0001
0000
1000
0000
0110
0001
1000
0010
0101
0000
0010
0000
0001
0000
0010
0000
1101
0000
0000
0000
,
1100
0000
0100
0010
1001
0100
0010
0000
1110
0000
0011
1000
0101
0000
0110
0010
,
1000
0000
0010
0010
1101
0000
1001
0000
0100
0000
0101
0000
1000
1000
0100
0010
,
0001
0000
0000
0000
1001
0100
0010
0100
1001
0010
0100
0010
1001
0100
0010
0100
,
1010
0000
0000
0000
0000
0000
0000
0000
1010
0000
0000
0000
0000
0000
0000
0000
0001
0000
0000
0000
0000
0000
0000
0000
1000
0000
0000
0000
0102
0003
0000
0000
0010
0000
0000
0000
2000
3000
0000
0000
0100
0000
0000
0000
1020
0030
0000
0000
0101
0000
0000
0000
1000
0000
0000
0000
0100
0000
0000
0000
0010
0000
0000
0000
,
1000
0001
1000
0000
0101
0010
0100
1010
0001
0000
1000
0000
1101
0000
1100
0000
,
0111
0000
0000
0000
0000
0000
0000
0000
0001
0000
0000
0000
0120
0030
0000
0000
1001
0000
0000
0000
0200
0300
0000
0000
0010
0000
0000
0000
0102
0003
0000
0000
1010
0000
0000
0000
0100
0000
0000
0000
1000
0000
0000
0000
0011
0000
0000
0000
0100
0000
0000
0000
1011
0000
0000
0000
0100
0000
0000
0000
0000
0000
0000
0000
,
0011
0000
0000
0000
1000
0000
0000
0000
0001
0000
0000
0000
1100
0000
0000
0000
0010
0000
0000
0000
1000
0000
0000
0000
0111
0000
0000
0000
1000
0000
0000
0000
0110
0000
0000
0000
0001
0000
0000
0000
0110
0000
0000
0000
0001
0000
0000
0000
1110
0000
0000
0000
0000
0000
0000
0000
1000
0000
0000
0000
0210
0300
0000
0000
,
0001
0000
0000
0000
1020
0030
0000
0000
0100
0000
0000
0000
0012
0003
0000
0000
1100
0000
0000
0000
0010
0000
0000
0000
0001
0000
0000
0000
0100
0000
0000
0000
1010
0000
0000
0000
0000
0000
0000
0000
0001
0000
0000
0000
1100
0000
0000
0000
0000
0000
0000
0000
1100
0000
0000
0000
0010
0000
0000
0000
1100
0000
0000
0000
,
1100
0000
0000
0000
1000
0000
0000
0000
0011
0000
0000
0000
0000
0000
0000
0000
1101
0000
0000
0000
0000
0000
0000
0000
1001
0000
0000
0000
0000
0000
0000
0000
0111
0000
0000
0000
0000
0000
0000
0000
0100
0000
0000
0000
2001
3000
0000
0000
0010
0000
0000
0000
1200
0300
0000
0000
0001
0000
0000
0000
0120
0030
0000
0000
,
1001
0000
0000
0000
1101
0010
1000
0011
0100
1001
0101
0010
1000
0111
0000
0000
,
1111
0000
1010
0000
0111
0000
1100
0001
0110
0000
0100
0010
1001
0010
1000
0100
,
1001
0010
0001
0000
0101
1000
0100
1010
0001
0000
0100
0000
1001
0000
1001
0000
,
0111
1000
0001
0110
1000
0010
0001
0010
1100
0000
1100
0010
1100
0001
1100
0010
,
1100
0001
1010
0001
0110
1000
0101
0010
1001
0100
1000
0100
0011
0000
0001
0100
,
1010
0100
1000
0001
0110
1000
0100
0010
1101
0000
0010
1100
0000
0101
0010
0101
,
0101
0100
1010
0000
0110
0000
0110
0000
0001
0000
0011
0100
1000
0010
0100
0010
,
0101
0010
0100
1000
0110
0000
1000
0011
0001
0000
1010
0000
0010
1100
0100
0000
,
1111
0000
0000
0000
1100
0000
0010
0000
1101
0000
0000
0000
0111
0000
0000
0000
0011
0000
1100
0000
0010
0000
0000
0000
0111
0000
0000
0000
0100
0010
0001
1000
,
0101
0010
0101
0010
1001
0000
0000
0010
0001
0000
0100
0000
1001
0000
1000
0000
,
0110
0000
0001
0000
0110
0000
1000
0000
1010
0000
0000
0000
1100
0000
0000
1010
,
0000
0000
0101
0000
0010
1100
0000
0010
1101
0000
0011
1000
0100
0000
1110
0001
,
1000
0100
0001
0010
1101
0000
0000
0010
0100
0000
1000
0000
0100
0010
1000
0010
,
0101
0010
0001
0110
1001
0000
1000
0000
0011
1000
0101
1000
0110
0010
1001
0001
,
1100
0000
0000
0000
0000
0000
0000
0000
1000
0000
0000
0000
0000
0000
0000
0000
0010
0000
0000
0000
0100
0000
0000
0000
1000
0000
0000
0000
0001
0000
0000
0000
1000
0000
0000
0000
0001
0000
0000
0000
0010
0000
0000
0000
0100
0000
0000
0000
1000
0100
0000
0000
0010
0001
0000
0000
1000
0100
0000
0000
0010
0001
0000
0000
,
1100
0000
0010
1000
0101
0000
0100
0010
1000
0100
1000
0010
0101
0010
1000
0010
,
1100
0000
0100
0000
0010
0001
0010
0001
1010
0000
0001
0010
1100
0000
1100
0000
,
0011
0000
1100
0010
0101
1000
0010
1001
0110
0001
1000
0001
0010
0100
0010
0001
,
0110
0000
0100
1000
0011
0000
0001
0010
0101
1010
0101
0010
0001
0000
0011
0100
,
1000
0010
1100
0010
0001
0100
1001
0010
1000
0011
1100
0011
1000
0100
1010
0001
,
0110
0000
0000
0010
1001
0010
1100
0010
0101
0000
1110
0001
0100
0001
0110
1000
,
0111
0000
0000
0000
0011
0100
1000
0010
0101
0000
0010
0000
1101
0000
0010
0000
1001
0000
0000
0000
1010
0000
0000
0000
1100
0000
0000
0000
1001
0000
0000
0000
,
1100
0000
0100
0000
0011
0000
0100
1000
0110
1000
0010
0001
1010
0000
0100
0010
,
0001
0000
0000
0000
1100
0000
0000
0000
1110
0000
0000
0000
0001
0000
0010
0000
0001
0000
0000
0000
0100
0000
0000
0000
1001
0000
0000
0000
1000
0100
0010
0001
,
1100
0000
0011
0101
0010
0001
1000
0100
0100
0000
0101
0000
1010
0000
1000
0000
,
0100
0000
0000
0000
0011
0000
1000
0000
0111
0000
0111
0000
1100
0000
1010
0100
,
0010
1000
0101
0010
0001
0000
1001
0000
0001
0000
0011
0000
0001
0000
1010
0001
,
0100
0001
1110
0000
0110
0000
0110
0000
1001
0010
1100
0011
1000
0100
0010
1000
,
0101
0000
1000
0000
0010
0000
0100
0000
1001
0000
0000
0000
0101
0000
0000
0000
0001
1000
0001
0000
0010
0100
1000
0010
0100
0010
0001
1000
0010
0100
1000
0001
,
0110
0000
0100
1010
0001
0010
1100
0010
0101
1000
0100
0010
1010
0000
0101
0000
,
0010
0110
1000
0000
1110
0011
1001
0000
,
1001
0000
0000
0000
1010
0001
0000
0000
1001
0000
0000
0000
0101
1000
0000
0110
,
1001
0000
1010
0001
1100
0000
1010
0000
,
1000
1001
0001
0101
,
0100
0110
0011
0001
,
1001
0001
0001
0001
,
0011
0000
0101
0000
1010
0000
0100
0000
1001
0000
0010
0000
1001
0000
0110
0000
1100
0001
0010
0001
0100
0010
1000
0100
1010
0000
0101
0000
1001
0000
0001
0000
,
1100
0000
0000
0000
0011
0000
0001
0001
1100
0000
0010
0000
0101
0010
1001
0000
,
1001
0110
1010
0101
0011
1100
0011
0000
1101
0000
1010
0000
1100
0010
0001
0010
,
0000
0000
0000
0000
0000
0000
0000
0000
0000
0000
0000
0000
0000
0000
0000
0000
0001
0000
0000
0000
1000
0000
0000
0000
0001
0000
0000
0000
1000
0000
0000
0000
0110
0000
0000
0000
0000
0000
0000
0000
0000
0001
0000
0000
0110
0000
0000
0000
0000
0000
0000
0000
0000
0001
0000
0000
0110
0000
0000
0000
0000
0000
0000
0000
,
0000
0001
0000
0000
1100
0000
0000
0000
0000
0000
0000
0000
0010
0000
0000
0000
1000
0000
0100
0000
0010
0000
0001
0000
0010
0000
0100
0000
1000
0010
0001
0100
1000
0000
0000
0000
0010
0000
0000
0000
0001
0000
0000
0000
0100
0000
0000
0000
0010
0000
0000
0000
0000
0000
0000
0000
0001
0010
0100
0001
1000
0100
0010
0000
,
0000
0000
0000
0000
1000
0100
0010
1000
0001
0010
0100
0000
0000
0000
0000
0000
0010
0001
0100
0010
1000
0100
0001
0000
0000
0000
0000
0000
1001
0000
0000
0000
0000
0000
0000
0000
1001
0000
0000
0000
0000
0000
0000
0000
0101
0000
0000
0000
0000
0000
0000
0000
0111
0000
0000
0000
1000
0000
0000
0000
0010
0000
0000
0000
,
1000
0000
0000
0000
0001
0000
0000
0100
0000
0000
0010
0000
0000
0100
0000
0000
1000
0000
0000
0100
0000
0000
0010
0000
0000
0001
0000
0000
1000
0100
0010
0000
0001
0100
0010
1000
0001
0100
0010
0000
1000
0000
0000
0000
0100
0000
0000
0000
0010
0000
0000
0000
1100
0000
0000
0000
0000
0000
0000
0000
0001
0000
0000
0000
,
1100
0000
0000
0000
0000
0000
0000
0000
0010
0000
0000
0000
1000
0010
0100
0001
1000
0010
0100
0000
0000
0000
0000
0000
0110
0000
0000
0000
0000
0000
0000
0000
0001
0000
0000
0000
1100
0000
0000
0000
0001
0000
0000
0000
1100
0000
0000
0000
0011
0000
0000
0000
0000
0000
0000
0000
0000
0000
0000
0000
0000
0000
0000
0000
,
0011
0000
1100
0000
1111
1111
1111
1111
,
0111
0000
0000
0000
0110
0000
0000
0000
0011
0000
1000
0000
0010
0000
1101
0000
0000
0000
0110
0000
0001
1000
0000
0000
0010
0000
0001
0100
0000
0000
0001
0000
,
0110
0001
1010
0100
1001
0010
0100
1000
0110
0001
1010
0000
1000
0000
0100
0000
,
0110
0000
0000
0000
0001
0000
0000
0000
1010
0000
0000
0000
0100
0000
0000
0000
1001
0000
0000
0000
0010
0000
0000
0000
0100
0000
0000
0000
1000
0000
0000
0000
0110
0000
0000
0000
1000
0000
0000
0000
0000
0010
0000
0000
0100
0000
0000
0000
0001
0000
0000
0000
0010
0000
0000
0000
0100
0000
0000
0000
0001
0000
0000
0000
,
1000
0000
0000
0000
0MM0
M00M
M00M
000M
0MM0
0MM0
0000
0MM0
0MM0
0000
0000
0000
,
0MM0
M00M
M00M
000M
0MM0
0MM0
0000
0MM0
0MM0
0000
0000
0000
0000
0000
0000
0000
;
