#TITLE:Storm Owl(Megaman X4);
#SUBTITLE:;
#ARTIST:Capcom Sound Team;
#TITLETRANSLIT:;
#SUBTITLETRANSLIT:;
#ARTISTTRANSLIT:;
#CREDIT:Jason D. Gersztyn;
#BANNER:Storm Owl-banner.GIF;
#BACKGROUND:Storm Owl-bg.PNG;
#LYRICSPATH:;
#CDTITLE:PhoenixW-cdtitle.JPG;
#MUSIC:10 - X4 - STORM FUKUROUL STAGE.mp3;
#OFFSET:-0.062;
#SAMPLESTART:13.020;
#SAMPLELENGTH:17.000;
#SELECTABLE:YES;
#BPMS:0.000=155.209;
#STOPS:;
#BGCHANGES:;
// cache tags:
#FIRSTBEAT:1.000;
#LASTBEAT:354.000;
#SONGFILENAME:Songs/new again/X4 - STORM FUKUROUL STAGE/10 - X4 - STORM FUKUROUL STAGE.sm;
#HASMUSIC:1;
#HASBANNER:1;
#MUSICLENGTH:141.591;
// end cache tags

//---------------dance-single - ----------------
#NOTES:
     dance-single:
     :
     Challenge:
     9:
     0.626,0.813,0.318,0.487,0.230,506.000,45.000,69.000,0.000,0.000:
0000
0000
1001
0000
0001
0000
1000
0010
,
1000
0000
1001
0000
0010
0000
1000
0100
,
1000
0000
1010
0000
0010
0000
0100
0001
,
0100
0000
0101
0000
0001
0000
0100
0010
,
0100
0000
0000
0010
1000
0100
0010
0001
0100
0010
1000
0001
,
0100
0001
1000
0010
1000
0001
0010
0100
1000
0001
0010
0001
,
1000
0100
1000
0010
0100
0001
1000
0001
0100
0010
1000
0001
,
0010
0100
1000
0010
0100
0010
1000
0100
0001
0100
1000
0010
,
0100
0000
0001
0200
0000
0000
0320
0000
,
0230
0000
0300
0002
0000
0000
2003
0000
,
3020
0230
0001
0320
,
0000
1030
0200
0000
0000
0000
0310
0001
,
0020
0001
0031
2000
0100
0000
3020
0100
,
2030
0000
3000
0001
0200
0000
0302
0010
,
1003
2002
0000
0000
0000
0000
0000
3003
,
0100
0220
0000
0000
0000
0000
0000
0000
,
0000
0330
1002
0000
0000
0000
0000
0203
,
0000
0310
2000
0000
0000
0000
0000
3002
,
0000
0013
0200
0000
0000
2000
0300
0000
,
3002
0000
0103
0010
1000
0100
0001
1000
,
0001
0010
1001
0000
0001
0010
0100
0010
,
0001
0100
0010
1000
0001
0100
0001
1000
,
0010
0000
0110
0000
1000
0100
0001
0100
,
1000
0000
0000
0000
1001
0000
0000
0000
1000
0000
0010
0000
0100
0000
0001
1000
,
0001
0010
0001
0000
2001
0000
0000
0000
0100
0000
0000
0000
0010
0000
0000
0000
,
0001
3000
0101
0001
1000
0100
0010
0001
,
0010
0100
1002
0000
0000
0000
0203
0000
,
0320
2030
0001
0100
,
0010
3000
0210
0000
1000
0000
0010
0000
,
0001
0300
1001
0010
1000
0001
0100
0010
,
0100
0001
0022
0000
0000
0000
0000
0030
,
2003
0200
0000
0000
0000
0000
0000
0000
,
0000
3300
1001
0000
0100
0000
0001
0100
,
0001
1000
0010
0000
0100
0001
0100
0000
,
0010
2000
0001
3002
,
0000
2003
0020
0000
0000
0030
3100
0010
,
0000
0001
1001
0000
0100
0000
0010
1000
,
0010
0100
0001
0000
1000
0100
1000
0000
,
0001
2000
0000
0000
0000
0000
0000
0000
,
0001
0002
0000
0000
0000
0000
0000
0000
,
0000
3003
0110
0001
1000
0010
0100
0001
,
0010
0001
1000
0010
0100
1000
0010
0100
,
0001
0100
0120
0100
0100
0230
0001
0001
,
0302
0000
1003
0010
0100
0002
0000
0000
,
0000
0003
1010
0001
1000
0001
0100
0002
,
0000
2003
0200
3000
0000
0000
0000
2300
,
0000
3002
0020
0003
0000
0032
0000
0000
,
0203
0000
0310
1000
0001
0200
0000
0000
,
0000
0310
1000
0100
,
0010
0000
1001
1000
0001
0100
0001
0010
,
0100
0000
1001
0000
1000
0000
0001
0100
,
0001
2100
0010
0001
,
0100
3000
0010
1000
0100
0010
0001
0100
,
0010
1000
1010
0001
0010
1000
0010
0001
,
0010
0100
1200
0000
0000
0000
0000
0000
,
0310
0002
0010
0000
1000
0000
0100
0000
,
0010
0003
1001
0000
0001
0100
0010
1000
,
0010
0000
1001
0000
0010
0001
1000
0100
,
1000
0000
1010
0000
0010
1000
0100
0001
,
0100
0000
0101
0000
0001
1000
0100
0010
,
0100
0000
0000
0010
0001
0100
0010
1000
0001
0010
0100
1000
,
0010
1000
0001
0010
0001
1000
0100
0010
0001
0100
1000
0100
,
0001
1000
0001
0010
0100
1000
0001
1000
0100
0010
0001
0010
,
0100
0000
0000
0000
1000
0000
0000
0000
0001
0000
0000
0000
0010
0000
0000
0000
0100
0000
0000
0000
0010
0000
0000
0000
0001
0000
0000
0000
1000
0000
0000
0000
0100
0000
0000
0000
1000
0000
0000
0010
0000
0000
1000
0000
0000
0100
0000
0000
,
0010
0001
0010
0000
1002
0000
0000
0000
0100
0000
0000
0000
1000
0000
0000
0000
,
0010
0003
1100
1000
0001
0100
0010
1000
,
0010
0100
2001
0000
0000
0000
3020
0000
,
0230
0302
0010
0100
,
1000
0003
1020
0000
0100
0000
0001
0000
,
1000
0030
1001
0100
0001
1000
0100
0010
,
0100
1000
2020
0000
0000
0000
0000
0030
,
3002
0200
0000
0000
0000
0000
0000
0000
,
0000
0303
0010
1000
0010
0100
0010
1000
,
0100
0001
0100
1000
0010
0100
0001
0010
,
0001
0100
0001
1000
0100
0010
0001
0100
,
1000
0100
0001
0010
0100
0010
1000
0010
,
0100
0001
0010
0100
1000
0001
0100
0001
,
1000
0010
0100
1000
0100
0010
1000
0001
,
0100
0010
0100
0001
1000
0100
0010
0001
,
1000
0001
0100
0001
0010
0001
0100
0001
,
1000
1001
0001
0010
,
0100
1100
1000
0001
,
0010
0101
0010
0001
,
1000
1010
0001
1000
,
0010
0000
0101
0000
0010
0001
0100
0000
,
1000
0000
1001
0000
0100
0001
1000
0000
,
0010
0000
0110
0000
0001
0100
0010
0000
,
1000
0000
0000
0000
1001
0000
0000
0000
1000
0000
1001
0000
0001
0000
0100
0010
,
1000
0100
2000
0000
0000
0000
0000
0000
3000
0000
0000
0000
0000
0000
0000
0000
;
