#TITLE:Supa Dupa Fly;
#SUBTITLE:[Disaster Originals];
#ARTIST:666;
#TITLETRANSLIT:;
#SUBTITLETRANSLIT:;
#ARTISTTRANSLIT:;
#CREDIT:Simfile By;
#BANNER:666 - Supa Dupa Fly.png;
#BACKGROUND:666 - Supa Dupa Fly-bg.png;
#LYRICSPATH:;
#CDTITLE:;
#MUSIC:666 - Supa Dupa Fly.mp3;
#OFFSET:0.400;
#SAMPLESTART:43.085;
#SAMPLELENGTH:12.000;
#SELECTABLE:YES;
#BPMS:0.000=137.980;
#STOPS:;
#BGCHANGES:;
// cache tags:
#FIRSTBEAT:1.000;
#LASTBEAT:243.500;
#SONGFILENAME:Songs/toune 5/666 - Supa Dupa Fly/666 - Supa Dupa Fly.sm;
#HASMUSIC:1;
#HASBANNER:1;
#MUSICLENGTH:104.463;
// end cache tags

//---------------dance-single - 666 Supa Dupa Fly----------------
#NOTES:
     dance-single:
     666 Supa Dupa Fly:
     Hard:
     10:
     0.797,0.845,0.153,0.172,0.929,549.000,16.000,18.000,0.000,0.000:
0000
0000
0000
0000
1000
0000
0100
0000
0010
0000
0000
0001
0000
0000
0001
0000
,
0000
0000
0000
0000
,
0000
0000
0000
1000
0000
0100
0000
0010
0000
1000
0000
0100
0000
0000
0001
0000
,
0000
0001
0000
0000
0000
0000
0000
0000
0000
0000
0000
2020
0000
0000
0000
0000
,
3030
0000
0010
0000
1000
0000
0100
0000
1000
0000
0010
0000
0000
1000
0000
0000
,
1000
0000
0100
0000
0001
0000
1000
0000
0001
0000
0100
0000
0000
0001
0000
0000
,
0001
0000
1000
0000
0100
0000
0001
0000
0100
0000
1000
0000
0000
0100
0000
0000
,
0010
0000
0001
0000
0100
0000
0001
0000
0100
0000
1010
0000
0000
0100
0000
0000
,
0100
0000
0001
0000
0010
0000
0100
0000
1000
0000
0101
0000
0000
0010
0000
0000
,
0100
0000
1000
0000
0001
0000
0010
0000
0001
0000
1000
0000
0000
0001
0000
0000
,
0001
0000
1000
0000
0100
0000
0010
0000
0001
0000
0011
0000
0000
1000
0000
0000
,
1000
0000
0100
0000
0010
0000
0100
0000
0010
0000
0110
0000
0000
1000
0000
0000
,
0001
0000
1000
0100
1000
0100
0010
0100
0010
0001
0010
0100
0000
0010
0100
0000
,
1000
0100
1000
0100
1000
0100
1000
0100
0010
0100
0010
0100
0000
0001
0010
0000
,
0010
0100
0010
0100
0010
0100
0010
0100
0010
0100
0010
0100
0000
1000
0001
0000
,
1000
0001
1000
0001
1000
0001
1000
0001
1000
0001
1000
0001
0000
0010
0100
0000
,
1000
0010
1000
0010
1000
0010
1000
0010
1000
0010
1000
0010
0000
0100
0001
0000
,
0010
0100
0010
0100
0010
0100
0010
0100
0010
0100
0010
0100
0000
1000
0001
0000
,
0100
0001
0100
0001
0100
0001
0100
0001
0100
0001
0100
0001
0000
1000
0010
0000
,
1000
0010
1000
0010
1000
0010
1000
0010
1000
0010
1000
0010
0000
0100
0001
0000
,
2000
0000
3200
0000
0320
0000
0032
0000
0023
0000
1030
0000
0000
0001
0000
0000
,
0001
0000
1000
0000
0100
0000
0010
0000
0001
0000
0100
0000
0000
1000
0000
0000
,
1000
0000
0010
0000
0100
0000
0001
0000
0010
0000
0100
0000
0000
0001
0000
0000
,
0001
0000
0010
0000
0001
0000
0100
0000
0001
0000
1000
0000
0000
0100
0000
0000
,
0100
0000
0010
0000
0001
0000
0100
0000
0010
0000
1000
0000
0000
0001
0000
0000
,
0001
0000
1000
0000
0010
0000
0100
0000
0001
0000
0010
0000
0000
1000
0000
0000
,
1000
0000
0100
0000
0001
0000
0100
0000
1000
0000
0010
0000
0000
1010
0000
0000
,
1010
0000
1000
0000
0100
0000
0010
0000
0001
0000
0011
0000
0000
0001
0000
0000
,
0100
0000
1000
0100
1000
0100
0010
0100
0010
0100
0010
0100
0000
0010
0001
0000
,
0010
0001
0010
0001
0010
0001
0010
0001
0010
0001
0010
0001
0000
1000
0100
0000
,
0010
0100
0010
0100
0010
0100
0010
0100
0010
0100
0010
0100
0000
0001
0010
0000
,
0001
0010
0001
0010
0001
0010
0001
0010
0001
0010
0001
0010
0000
1000
0100
0000
,
0100
0010
0100
0010
0100
0010
0100
0010
0100
0010
0100
0010
0000
1000
0001
0000
,
1000
0001
1000
0001
1000
0001
1000
0001
1000
0001
1000
0001
0000
0010
1000
0000
,
0010
1000
0010
1000
0010
1000
0010
1000
0010
1000
0010
1000
0000
0100
0001
0000
,
0100
0001
0100
0001
0100
0001
0100
0001
0100
0001
0100
0001
0000
0010
0001
0000
,
2000
0000
3200
0000
0320
0000
0032
0000
2003
0000
3100
0010
0000
0010
0100
0000
,
1000
0100
1000
0100
1000
0100
1000
0100
1000
0100
1000
0000
0100
0010
0100
0000
,
0010
0001
0010
0001
0010
0001
0010
0001
0010
0001
0010
0000
0100
0010
0100
0000
,
1000
0100
1000
0100
1000
0100
1000
0100
1000
0100
1000
0000
0100
0010
0100
0000
,
0010
0001
0010
0001
0010
0001
0010
0001
0010
0001
0010
0000
0000
1000
0000
1000
,
1000
0000
0001
0000
0000
0100
0000
0100
0100
0000
1000
0000
0001
0010
0010
0000
,
0001
0001
0010
0001
0010
0001
0010
0001
0010
0001
1000
0000
0000
0100
0000
0000
,
0100
0000
0001
0000
0000
0010
0000
0000
0010
0000
0100
0000
0010
0000
0100
0000
,
0010
0000
0100
0000
0010
0000
0100
0000
0001
0000
0010
0000
0000
1000
0000
0000
,
1000
0000
0100
0000
0001
0000
1000
0000
0001
0000
0100
0000
0000
0001
0000
0000
,
0001
0000
1000
0000
0100
0000
0001
0000
0100
0000
1000
0000
0000
0100
0000
0000
,
0010
0000
0001
0000
0100
0000
0001
0000
0100
0000
1010
0000
0000
0100
0000
0000
,
0100
0000
0001
0000
0010
0000
0100
0000
1000
0000
0101
0000
0000
0010
0000
0000
,
0100
0000
1000
0000
0001
0000
0010
0000
0001
0000
1000
0000
0000
0001
0000
0000
,
0001
0000
1000
0000
0100
0000
0010
0000
0001
0000
0011
0000
0000
1000
0000
0000
,
1000
0100
0010
0100
0010
0220
0000
0330
,
0000
0000
0110
0000
0000
0000
0110
0000
0000
0000
1000
0000
0000
0001
0000
0000
,
0001
0000
1000
0000
0000
0001
0000
0000
0001
0000
1000
0000
0000
0001
0000
0000
,
0001
0000
0010
0000
0100
0000
1000
0000
0100
0000
0001
0000
0000
1000
0000
0000
,
1000
0000
0001
0000
0000
1000
0000
0000
1000
0000
0001
0000
0000
1000
0000
0000
,
1000
0000
0001
0010
0001
0010
0001
0010
0001
0010
0001
0000
0000
1000
0000
0000
,
1000
0000
0010
0000
0000
0100
0000
0000
0100
0000
0001
0000
0000
0010
0000
0000
,
0010
0000
1000
0000
0100
0000
0010
0000
0001
0000
0001
0000
0000
1000
0000
0000
,
1000
0000
0001
0000
0000
1000
0000
0000
1000
0000
0001
0000
0000
1000
0000
0000
,
1000
2002
3003
2002
0000
0000
0000
3003
:





a=note=5.000000,
;
