#TITLE:video out c;
#SUBTITLE:;
#ARTIST:Vospi;
#TITLETRANSLIT:;
#SUBTITLETRANSLIT:;
#ARTISTTRANSLIT:;
#CREDIT:;
#BANNER:video out c.png;
#BACKGROUND:video out c-bg.png;
#LYRICSPATH:;
#CDTITLE:vospi.png;
#MUSIC:Vospi - video out c.ogg;
#OFFSET:1.212;
#SAMPLESTART:135.644;
#SAMPLELENGTH:13.400;
#SELECTABLE:YES;
#BPMS:0.000=198.000;
#STOPS:;
#BGCHANGES:;
// cache tags:
#FIRSTBEAT:4.000;
#LASTBEAT:546.000;
#SONGFILENAME:Songs/new cc/video out c/video out c.sm;
#HASMUSIC:1;
#HASBANNER:1;
#MUSICLENGTH:164.848;
// end cache tags

//---------------dance-single - vospi.bemafia.ru----------------
#NOTES:
     dance-single:
     vospi.bemafia.ru:
     Challenge:
     12:
     1.000,1.000,1.000,1.000,0.513,979.000,238.000,180.000,0.000,3.000:
0000
0000
0000
0000
,
0200
0300
0200
0300
0200
0000
0000
0000
0301
0000
0000
0000
0000
0000
0200
0000
,
0320
0032
0003
2000
3020
0032
2003
0000
,
3200
0300
0200
0300
0200
0000
0000
0000
0301
0000
0000
0000
0000
0000
0200
0000
,
0320
0032
0003
2000
3020
0032
2003
0000
,
3200
0300
0200
0300
0200
0000
0000
0000
0301
0000
0000
0000
0000
0000
0200
0000
,
0320
0032
0003
2000
3020
0032
2003
0000
,
3010
0000
0100
1000
0100
0000
0001
0000
0010
1000
0100
1000
0010
0000
1000
0100
,
0010
0000
0100
1000
0100
0000
0001
0000
0010
1000
0100
1000
0001
0100
0001
0010
,
1001
0000
1001
0000
,
1001
0001
0000
0000
0001
0000
0000
0000
,
1000
0000
0000
0000
,
0010
0010
0000
0000
0000
0000
0000
0000
,
0001
0000
0000
0000
,
0100
0100
0000
0000
0000
0000
0000
0000
,
0100
0000
0000
0000
,
0001
0001
0000
0000
0000
0000
0000
0000
,
1001
0200
0320
0032
0023
0032
0023
0230
,
0000
2300
3020
0230
0000
2300
3020
0230
,
0000
0320
0230
2300
3200
2300
3200
0320
,
0000
0230
0302
0023
0000
0230
0302
0023
,
0000
2030
3020
0032
0023
0032
0023
0230
,
0000
2300
3020
0230
0000
2300
3020
0230
,
0000
2300
3020
0032
0023
0032
0023
0230
,
1300
0000
0010
1000
0100
0000
0010
0000
0001
1000
0010
1000
0100
1000
0001
0010
,
1001
0100
0001
0000
0010
0000
0010
0000
0101
0000
0000
0000
1000
0000
0000
0000
,
0011
0000
0010
0000
0010
0100
1000
0000
0011
0000
0011
0000
1100
0000
0000
0010
,
1001
0100
0100
0100
0110
0000
0101
0000
,
0011
0000
1000
0000
0010
0100
1000
0000
0011
0000
1100
0000
1000
0000
0000
1000
,
0110
0001
0010
0010
0011
0000
0110
0000
,
0100
0000
0100
0000
0010
0100
1000
0000
0011
0000
0110
0000
0101
0000
0000
1000
,
0100
0000
0001
0000
0100
0000
0010
1000
0010
0000
0100
0000
0011
0000
0000
0000
,
1000
0000
0011
0000
0100
0010
0100
0010
2000
0000
0000
0000
0000
0000
0000
3000
,
1001
0001
0010
0010
0101
0000
1000
0000
,
0011
0000
0010
0000
0010
0100
1000
0000
0011
0000
0011
0000
1100
0000
0000
0100
,
1001
0100
0100
0100
0110
0000
0101
0000
,
0011
0000
1000
0000
0010
0100
1000
0000
0011
0000
1100
0000
1000
0000
0000
1000
,
0110
0001
0010
0010
0011
0000
0110
0000
,
0100
0000
0100
0000
0010
0100
1000
0000
0011
0000
0110
0000
0101
0000
0000
1000
,
0100
0000
0001
0000
0100
0000
0010
1000
0010
0000
0100
0000
0011
0000
0000
0000
,
1000
0000
0011
0000
0100
0010
0100
0010
1001
0000
1010
0000
1100
0000
0000
0000
,
1001
0001
0010
0010
0101
0000
1000
0000
,
0011
0000
0010
0000
0010
0100
1000
0000
0011
0000
0011
0000
1100
0000
0000
0100
,
1001
0100
0100
0100
0110
0000
0101
0000
,
0011
0000
1000
0000
0010
0100
1000
0000
0011
0000
1100
0000
1000
0000
0000
1000
,
0110
0001
0010
0010
0011
0000
0110
0000
,
0100
0000
0100
0000
0010
0100
1000
0000
0011
0000
0110
0000
0101
0000
0000
1000
,
0100
0000
0001
0000
0100
0000
0010
1000
0010
0000
0100
0000
0011
0000
0000
0000
,
1100
0000
0011
0000
0010
1000
0100
1000
0011
0000
0011
0000
1100
0000
0101
0000
,
1001
0000
1000
0000
0011
0000
0100
0010
0001
0000
1000
0000
0101
0000
0010
0000
,
0110
0000
0100
0000
0011
0000
0010
0001
1100
0000
1000
0000
0011
0000
0001
0000
,
1001
0000
1000
0000
0011
0000
1000
0000
0100
0000
0010
1000
0101
0000
0100
0000
,
1100
0000
1000
0000
0011
0000
0100
1000
0010
0100
1000
0000
0011
0000
0110
0000
,
1010
1000
0011
0100
0001
0010
0000
0011
,
1000
0000
0100
0000
0011
0000
1000
0000
0001
0000
0010
0100
1000
0000
0011
0000
,
0100
0000
1000
0000
0011
0000
0100
0010
1000
0000
0100
0000
0011
0000
0110
0000
,
1000
0000
0001
0000
0110
0000
0010
0000
1100
0000
1000
0100
0010
0100
0010
0000
,
1001
0100
0011
1000
0101
1000
0011
0100
,
1100
0000
1000
0000
0011
0000
0100
1000
0001
0000
0100
0000
0011
0000
1100
0000
,
1100
0000
0100
0000
0011
0000
0100
1000
0010
0100
1000
0000
0011
0000
0100
0000
,
0100
0000
0100
0000
0011
0000
0100
1000
0001
0010
0100
0000
0011
0000
0100
0000
,
1100
0001
0110
1000
0001
0100
0000
0011
,
1100
0000
1000
0000
0011
0000
1000
0000
0010
0000
0100
0010
0001
0000
0011
0000
,
0100
0000
0100
0000
0011
0000
0100
0010
1000
0000
1000
0000
0101
0000
0010
0000
,
0110
0000
0000
0000
0000
0000
1000
0000
0000
0000
0000
0000
0011
0000
0000
0000
0000
0000
0010
0000
0000
0000
0000
0000
0100
0000
0000
0000
0000
0000
0100
0000
0000
0010
0000
0000
1001
0000
0000
0000
0000
0000
0001
0000
0000
0000
0010
0100
,
2000
0000
0001
0000
0000
0100
0001
0000
,
0010
0000
0000
0000
0000
0000
0000
0000
0000
0000
0000
0000
0001
0000
0000
0000
0000
0000
0010
0000
0000
0000
0000
0000
3200
0000
0000
0000
0000
0000
0000
0000
0000
0000
0000
0000
0001
0000
0000
0000
0000
0000
0300
0000
0000
0000
1000
0100
,
0020
0000
0001
0000
0000
1000
0001
0000
,
1000
0000
0000
0100
0032
0000
0010
0000
,
0203
0000
0001
0000
0000
1000
0001
0000
,
1000
0000
0010
1000
0302
0000
0010
0000
,
0203
0000
0001
0000
0000
0010
0001
0000
,
0320
0000
0000
0000
0000
0000
0000
0000
0000
0000
0000
0000
0001
0000
0000
0000
0000
0000
1000
0000
0000
0100
0000
0000
0001
0000
0000
0000
0000
0000
1000
0000
0000
0000
0000
0000
1000
0000
0000
0000
0000
0000
0031
0000
0000
0000
0010
0100
,
2000
0000
0001
0000
0000
0100
0001
0000
,
0010
0000
0000
0000
0000
0000
0000
0000
0000
0000
0000
0000
0001
0000
0000
0000
0000
0000
0010
0000
0000
0000
0000
0000
3200
0000
0000
0000
0000
0000
0000
0000
0000
0000
0000
0000
0001
0000
0000
0000
0000
0000
0000
0000
0000
0300
1000
0100
,
0020
0000
0001
0000
0000
0100
0001
0000
,
1000
0000
0000
0100
0032
0000
0010
0000
,
0023
0000
0001
0000
0000
0100
0001
0000
,
1000
0000
0000
0000
0001
0000
0100
0000
2030
0000
0000
0000
0001
0000
0000
3000
,
2000
0000
0001
0000
3002
0023
0032
0023
,
1030
0000
0001
0000
1000
0100
1000
0100
0001
0000
0000
0000
0000
0000
0000
0000
,
1200
0000
0000
0000
0000
0000
0000
0000
0000
0000
0000
0000
2320
0000
0000
0000
0000
0000
3000
0000
0200
0030
0000
0000
0301
0000
0000
0000
0000
0000
0000
0000
0000
0011
0000
0000
0000
0000
0000
0000
0000
0000
0110
0000
0000
0000
0000
0000
,
2000
0000
0000
0000
0000
0000
0000
0000
0000
3000
0000
0000
0202
0000
0000
0000
0000
0000
0000
0000
0000
0303
0000
0000
2020
0000
0000
0000
0000
0000
0000
0000
0000
3030
0000
0000
0011
0000
0000
0000
0000
0000
0000
0000
2000
0000
0000
0000
,
3020
0000
0000
0000
0000
0000
0000
0000
0000
0000
0000
0000
0000
0000
0000
0000
0000
0000
0000
0000
0000
0000
0000
0000
0000
0000
0000
0000
0000
0000
0000
0000
0000
0000
0000
0000
0000
0000
0000
0000
0000
0000
0000
0000
0000
0000
0000
0000
2030
0000
0000
0000
0000
0000
0000
0000
0000
0000
0000
0000
0000
0000
0000
0000
0000
0000
0000
0000
0000
0000
0000
0000
0000
0000
0000
0000
0000
0000
0000
0000
0000
0000
0000
0000
0000
0000
0000
0000
3000
0000
0200
0000
0000
0020
0000
0000
0331
0000
0000
0000
0000
0000
0000
0000
0000
0000
0000
0000
0000
0000
0000
0000
0000
0000
0000
0000
0000
0000
0000
0000
0001
0000
0000
0000
0000
0000
0000
0000
0000
0000
0000
0000
0000
0000
0000
0000
0000
0000
0000
0000
0000
0000
0000
0000
2200
0000
0000
0000
0000
0000
0000
0000
0000
0000
0000
0000
0000
0000
0000
0000
0000
0000
0000
0000
0000
0000
0000
0000
0000
0000
0000
0000
0000
0000
0000
0000
0000
0000
0000
0000
3300
0000
0000
0000
0000
0000
0000
0000
0000
0000
0000
0000
,
0011
0000
0010
0000
1100
0000
0000
0000
1001
0000
0000
0100
1010
0001
0000
0011
,
2200
0000
0000
0000
0011
0000
0000
3300
0010
0000
1100
0000
0011
0000
0100
0000
,
1000
0000
1000
0000
0022
0000
0000
0033
2200
0000
0000
3300
0101
0000
0000
0000
,
2020
0000
0000
3030
1000
0001
0000
0200
0000
0000
0000
0300
0011
0000
0100
0000
,
0110
0000
1100
0000
0001
0000
0010
0000
0110
0000
0000
0000
0010
1000
0001
0010
,
2002
0000
0000
3003
0220
0000
0000
0330
2000
0000
0000
3000
0220
0000
0000
0330
,
0011
1000
0100
1000
0011
0000
1100
0000
1000
0000
0011
1000
0000
0011
1000
0000
,
0010
0100
0010
0100
2002
0000
0000
0000
3003
0000
0110
0000
0011
0000
0100
0000
,
1100
0000
1000
0000
0001
0000
0011
0000
0200
0000
0000
0300
1001
0100
0010
0001
,
1010
0100
0010
0100
0000
0020
0000
0030
1000
0000
0001
0000
0011
0000
0001
0000
,
0110
0000
0010
0000
2002
0000
0000
3003
0020
0000
0000
0030
1010
0100
1010
0000
,
0220
0000
0000
0330
2002
0000
0000
3003
1000
0000
0001
0000
0220
0000
0000
0330
,
2020
0000
0000
0000
0000
0000
0000
0000
0000
3030
0000
0000
0022
0000
0000
0000
0000
0000
0000
0000
0000
0033
0000
0000
1100
0000
0000
0000
0010
0000
0000
0000
1000
0000
0000
0000
0011
0000
0000
0000
0100
0000
0000
0000
1000
0000
0000
0000
,
0200
0000
0000
0000
0000
0000
0000
0000
0000
0300
1000
0100
0010
1000
0100
0010
,
0001
0000
0000
0000
0022
0000
0000
0033
0220
0000
0000
0330
2200
0000
0000
3300
,
0010
0000
0010
1000
0100
0000
1001
0000
0010
0000
0100
0000
1000
0000
0100
0000
,
0020
0000
0000
0030
1000
0100
0010
0001
0020
0030
0200
0300
0002
0003
0200
0300
,
0001
1000
0010
0100
0010
1000
0100
0010
0001
0010
0100
1000
0001
0010
0100
1000
,
0100
1000
0010
0100
0010
1000
0001
0100
0010
1000
0100
0010
0001
1000
0100
0010
,
0002
0000
0000
0000
0000
0003
0010
0001
2000
0000
0000
3000
0200
0000
0000
0300
,
0010
0000
0000
0000
0002
0000
0000
0003
0020
0000
0000
0000
0000
0030
0200
0300
,
0020
0000
0000
0030
2000
0000
0000
3000
0200
0000
0000
0000
0000
0300
0020
0030
,
0002
0000
0000
0003
2000
0000
0000
3000
0200
0000
0000
0000
0000
0300
0002
0003
,
0010
0000
0001
0010
0200
0300
0001
0010
2000
3000
0001
0010
0200
0300
2000
3000
,
0020
0000
0000
0000
0000
0000
0000
0000
0000
0000
0000
0000
2030
0000
0000
0000
0000
0000
0000
0000
0000
3000
0000
0010
0002
0000
0000
0000
0000
0000
0000
0000
0000
0000
0000
0000
0000
0000
0000
0000
0000
0000
0000
0000
0000
0003
0000
0000
,
0010
0100
1000
0010
0100
1000
0001
0010
0100
1000
0100
0010
,
0001
0010
0100
0010
0100
0010
0001
0010
0100
1000
0100
0010
,
0002
0000
0000
0000
0000
0000
0000
0000
0000
0000
0000
0000
0000
0000
0000
0000
0000
0000
0103
0000
0000
0010
0000
0000
1000
0000
0000
0000
0000
0000
0000
0000
0001
0000
0000
0000
0000
0000
0000
0000
0010
0000
0000
0000
0000
0000
0000
0000
,
0200
0000
0000
0000
0000
0000
0000
0300
0000
0000
0000
0000
0001
0000
0000
0000
,
0110
1000
0011
0100
1010
0100
0011
1100
,
1100
0000
1000
0000
0011
0000
0010
0100
1000
0000
0001
0000
0011
0000
0100
0000
,
1010
0000
1000
0000
0011
0000
0100
1000
0001
0000
1000
0000
0011
0000
0010
0000
,
1100
0000
0100
0000
0011
0100
1000
0010
0100
0000
0100
0000
0011
0000
0010
0000
,
1000
1000
0011
0010
1100
0100
1000
0011
,
1100
0000
0100
0000
0011
0000
1000
0100
0010
0001
1000
0100
0010
0000
0011
0000
,
0100
0000
0100
0000
0011
0000
0010
1000
0100
0000
0100
0000
0011
0000
0010
0000
,
1100
0000
1000
0000
0011
0000
0010
0000
0100
0000
0100
1000
0010
0100
0011
0000
,
1100
0000
0010
0000
0101
0000
0100
1000
0001
0000
1000
0000
0011
0000
0100
0000
,
1000
0000
1000
0000
0011
0000
0001
0100
0010
0100
1000
0000
0011
0000
0100
0000
,
1000
0000
1000
0000
0011
0000
0001
1000
0100
0000
1000
0000
0011
0000
0100
0000
,
1100
0000
1000
0000
0011
0000
0010
0100
1010
0000
1000
0000
0011
0000
0010
0000
,
1100
1000
0011
0000
0001
0100
0000
0011
,
1100
0000
1000
0000
0110
0000
0100
0000
0011
0000
0100
0010
1000
0000
0011
0000
,
1100
0000
1000
0000
0011
0000
0010
0100
1010
0000
1000
0000
0101
0000
1000
0000
,
1100
0000
1000
0000
0011
0000
1000
0000
0011
0000
1000
0100
0010
0100
1010
0001
,
0110
0100
0110
1000
0001
0000
0100
0000
,
1000
0000
1000
0000
0010
0100
1000
0000
0110
0000
0101
0000
1100
0000
0000
0000
,
0010
1000
1000
1000
0100
0000
0001
0000
,
0100
0000
1000
0000
0001
0010
0100
0000
0001
0000
0001
0000
1000
0000
0000
0000
,
1000
0010
0100
1000
0011
0000
0110
0000
,
0010
0000
1000
0000
0010
0100
1000
0000
0110
0000
0101
0000
1010
0000
0000
0000
,
0000
0000
0000
0000
,
1000
0000
0001
0000
0100
0010
0100
0010
1001
0000
0000
0000
0000
0000
0000
0000
;

//---------------dance-single - vospi.bemafia.ru----------------
#NOTES:
     dance-single:
     vospi.bemafia.ru:
     Hard:
     10:
     0.969,1.000,0.273,1.000,0.443,856.000,45.000,217.000,0.000,2.000:
0000
0000
0000
0000
,
0200
0300
0200
0300
0200
0000
0000
0000
0301
0000
0000
0000
0000
0000
0200
0000
,
0320
0032
0003
2000
3020
0032
2003
0000
,
3200
0300
0200
0300
0200
0000
0000
0000
0301
0000
0000
0000
0000
0000
0200
0000
,
0320
0032
0003
2000
3020
0032
2003
0000
,
3200
0300
0200
0300
0200
0000
0000
0000
0301
0000
0000
0000
0000
0000
0200
0000
,
0320
0032
0003
2000
3020
0032
2003
0000
,
3001
0000
0010
1000
0010
0000
0001
0000
0010
1000
0010
1000
0010
0000
0100
0010
,
0001
0000
1000
0010
1000
0000
0001
0000
0001
0010
0100
1000
0001
0010
0100
0010
,
1001
0000
1001
0000
,
1001
0001
0000
0000
0001
0000
0000
0000
,
1000
0000
0000
0000
,
0010
0010
0000
0000
0000
0000
0000
0000
,
0001
0000
0000
0000
,
0100
0100
0000
0000
0000
0000
0000
0000
,
0100
0000
0000
0000
,
0001
0001
0000
0000
0000
0000
0000
0000
,
1001
0000
1001
0000
,
1001
1000
0000
0000
0001
0000
0000
0000
,
0010
0000
0000
0000
,
0001
0001
0000
0000
0000
0000
0000
0000
,
1000
0000
0000
0000
,
0100
0100
0000
0000
0000
0000
0000
0000
,
0010
0000
0000
0000
,
0001
0000
1000
0010
1000
0000
0001
0000
0010
1000
0010
1000
0001
0010
0100
0010
,
0001
0001
1000
1000
0001
0000
0010
0000
,
0100
0000
0100
0000
0010
0100
1000
0000
0001
0000
0001
0000
0010
0000
0000
0010
,
0001
0010
0010
0010
1000
0000
0001
0000
,
1000
0000
1000
0000
0010
0100
1000
0000
0001
0000
0010
0000
1000
0000
0000
0100
,
0010
0001
0010
0010
0001
0000
0100
0000
,
0100
0000
0100
0000
1000
0010
1000
0000
0001
0000
0001
0000
0001
0000
0000
1000
,
0100
0000
0100
0000
0100
0000
0010
1000
0010
0000
1000
0000
0001
0000
0000
0000
,
1000
0000
0001
0000
1000
0100
1000
0100
0020
0000
0000
0000
0000
0000
0000
0030
,
1001
0200
0320
0032
0023
0032
0023
0230
,
0000
2300
3020
0230
0000
2300
3020
0230
,
0000
0320
0230
2300
3200
2300
3200
0320
,
0000
0230
0302
0023
0000
0230
0302
0023
,
0000
2030
3020
0032
0023
0032
0023
0230
,
0000
2300
3020
0230
0000
2300
3020
0230
,
0000
2300
3020
0032
0023
0032
0023
0230
,
0000
2300
3002
0023
0000
2030
3002
0023
,
0000
0230
0320
0032
0023
0032
0023
0230
,
0000
2300
3020
0230
0000
2300
3020
0230
,
0000
0320
0230
2300
3200
2300
3200
0320
,
0000
0230
0302
0023
0000
0230
0302
0023
,
0000
2030
3020
0032
0023
0032
0023
0230
,
0000
2300
3020
0230
0000
0000
0000
0000
,
0000
0000
0000
0000
,
1300
0000
0001
0000
0010
0100
1000
0100
0010
0000
0010
0000
0100
0000
0010
0000
,
1001
0000
1000
0000
0010
0000
0100
0010
0001
0000
1000
0000
0010
0000
1000
0000
,
1000
0000
1000
0000
0001
0000
0100
0001
0010
0000
0010
0000
0001
0000
0100
0000
,
0100
0000
0100
0000
0001
0000
1000
0100
0001
0000
0010
0000
0100
0000
1000
0000
,
1000
0000
1000
0000
0010
0000
1000
0100
0010
0100
1000
0000
0001
0000
0100
0000
,
0100
0100
0001
0100
0001
0010
0000
0011
,
1000
0000
0100
0000
0001
0000
1000
0000
0001
0010
0100
1000
0100
0000
0001
0000
,
1000
0000
1000
0000
0001
0000
1000
0100
0010
0000
0001
0000
0010
0000
0100
0000
,
0100
0000
0100
0000
0001
0000
0010
0000
0100
0000
0010
1000
0010
1000
0001
0000
,
0100
0100
0010
1000
0001
1000
0010
0100
,
0100
0000
0100
0000
0001
0000
0010
1000
0001
0000
0100
0000
0001
0000
1000
0000
,
1000
0000
0100
0000
0001
0000
0100
0000
1000
0100
0001
0000
0010
0000
0100
0000
,
1000
0000
1000
0000
0001
0000
0100
1000
0001
0000
0001
0000
0010
0000
0100
0000
,
0100
0100
0001
1000
0001
0100
0000
0011
,
1000
0000
1000
0000
0011
0000
0000
0000
0010
0000
1000
0100
0010
0000
0001
0000
,
0100
0100
0001
1000
0100
1000
0001
0100
,
0100
0000
0000
0000
0000
0000
0100
0000
0000
0000
0000
0000
0001
0000
0000
0000
0000
0000
0100
0000
0000
0000
0000
0000
1000
0000
0000
0000
0000
0000
0100
0000
0000
0010
0000
0000
0001
0000
0000
0000
0000
0000
0001
0000
0000
0000
0010
0100
,
2000
0000
0000
0000
,
0000
0000
0000
0000
0000
0000
0000
0000
0000
0000
0000
0000
0000
0000
0000
0000
0000
0000
0000
0000
0000
0000
0000
0000
3200
0000
0000
0000
0000
0000
0000
0000
0000
0000
0000
0000
0000
0000
0000
0000
0000
0000
0300
0000
0000
0000
1000
0100
,
0020
0000
0000
0000
,
0000
0000
0032
0000
,
0203
0000
0000
0000
,
0000
0000
0302
0000
,
0203
0000
0000
0000
,
0320
0000
0000
0000
0000
0000
0000
0000
0000
0000
0000
0000
0000
0000
0000
0000
0000
0000
0000
0000
0000
0000
0000
0000
0000
0000
0000
0000
0000
0000
0000
0000
0000
0000
0000
0000
0000
0000
0000
0000
0000
0000
0030
0000
0000
0000
0010
0100
,
2000
0000
0000
0000
,
0000
0000
0000
0000
0000
0000
0000
0000
0000
0000
0000
0000
0000
0000
0000
0000
0000
0000
0000
0000
0000
0000
0000
0000
3200
0000
0000
0000
0000
0000
0000
0000
0000
0000
0000
0000
0000
0000
0000
0000
0000
0000
0000
0000
0000
0300
1000
0100
,
0020
0000
0000
0000
,
0000
0000
0032
0000
,
0023
0000
0000
0000
,
0000
0000
0000
0000
0000
0000
0000
0000
2030
0000
0000
0000
0000
0000
0000
3000
,
2000
0000
0000
0000
3002
0023
0032
0023
,
1030
0000
0001
0000
1000
0100
1000
0100
0001
0000
0000
0000
0000
0000
0000
0000
,
1200
0000
0000
0000
0000
0000
0000
0000
0000
0000
0000
0000
0320
0000
0000
0000
0000
0000
0000
0000
0100
0030
0000
0000
0001
0000
0000
0000
0000
0000
0000
0000
0000
0001
0000
0000
0000
0000
0000
0000
0000
0000
0001
0000
0000
0000
0000
0000
,
2000
0000
0000
0000
0000
0000
0000
0000
0000
3000
0000
0000
0002
0000
0000
0000
0000
0000
0000
0000
0000
0003
0000
0000
0200
0000
0000
0000
0000
0000
0000
0000
0000
0300
0000
0000
0001
0000
0000
0000
0000
0000
0000
0000
1000
0000
0000
0000
,
0002
0000
0000
0000
0000
0000
0000
0000
0000
0000
0000
0000
0000
0000
0000
0000
0000
0000
0000
0000
0000
0000
0000
0000
0000
0000
0000
0000
0000
0000
0000
0000
0000
0000
0000
0000
0000
0000
0000
0000
0000
0000
0000
0000
0000
0000
0000
0000
2003
0000
0000
0000
0000
0000
0000
0000
0000
0000
0000
0000
0000
0000
0000
0000
0000
0000
0000
0000
0000
0000
0000
0000
0000
0000
0000
0000
0000
0000
0000
0000
0000
0000
0000
0000
0000
0000
0000
0000
3000
0000
0200
0000
0000
0020
0000
0000
0331
0000
0000
0000
0000
0000
0000
0000
0000
0000
0000
0000
0000
0000
0000
0000
0000
0000
0000
0000
0000
0000
0000
0000
0001
0000
0000
0000
0000
0000
0000
0000
0000
0000
0000
0000
0000
0000
0000
0000
0000
0000
0000
0000
0000
0000
0000
0000
2200
0000
0000
0000
0000
0000
0000
0000
0000
0000
0000
0000
0000
0000
0000
0000
0000
0000
0000
0000
0000
0000
0000
0000
0000
0000
0000
0000
0000
0000
0000
0000
0000
0000
0000
0000
3300
0000
0000
0000
0000
0000
0000
0000
0000
0000
0000
0000
,
0001
0000
0001
0000
2000
0000
0000
0000
3011
0000
0000
1010
0001
0010
0000
0010
,
0200
0000
0000
0000
0001
0000
0000
0300
0010
0000
1000
0000
0001
0000
0010
0000
,
0100
0000
0100
0000
0022
0000
0000
0033
2200
0000
0000
3300
0101
0000
0000
0000
,
2020
0000
0000
3030
1000
0001
0000
0200
0000
0000
0000
0300
0011
0000
0010
0000
,
1000
0000
1000
0000
0010
0000
0001
0000
0200
0000
0000
0300
0010
0100
0010
0100
,
2002
0000
0000
3003
0220
0000
0000
0330
2000
0000
0000
3000
0220
0000
0000
0330
,
0001
0000
0000
0000
0100
0000
0000
0000
0010
0000
0000
0000
0100
0000
0000
0000
0001
0000
0000
0000
0000
0000
0000
0000
0100
0000
0000
0000
0000
0000
0000
0000
1001
0000
0000
0000
0000
0000
0000
0000
0000
0000
0000
0000
0000
0101
0000
0000
0000
0000
0000
0000
0000
0000
0000
0000
0110
0000
0000
0000
0000
0000
0000
0000
,
0010
0100
0010
0100
2002
0000
0000
0000
0000
3003
0100
0000
0001
0000
0010
0000
,
1000
0000
1000
0000
0020
0000
0031
0000
0200
0000
0000
0300
1000
0100
0010
0001
,
0010
0100
0010
0100
0000
0010
0000
0000
0010
0000
0000
0010
0000
0000
0010
0000
,
1010
0000
1010
0000
0220
0000
0000
0330
2002
0000
0000
3003
1001
0000
1001
0000
,
0220
0000
0000
0330
2002
0000
0000
3003
1000
0000
0001
0000
0200
0000
0000
0300
,
2000
0000
0000
0000
0000
0000
0000
0000
0000
3000
0000
0000
0002
0000
0000
0000
0000
0000
0000
0000
0000
0003
0000
0000
1000
0000
0000
0000
0010
0000
0000
0000
1000
0000
0000
0000
0001
0000
0000
0000
0100
0000
0000
0000
1000
0000
0000
0000
,
0200
0000
0000
0000
0000
0000
0000
0000
0000
0300
1000
0100
0010
1000
0100
0010
,
0001
0000
0000
0000
0022
0000
0000
0033
0220
0000
0000
0330
2200
0000
0000
3300
,
0010
0000
1000
0100
0010
0000
0001
0000
0010
0000
0100
0000
1000
0000
0100
0000
,
0020
0000
0000
0030
1000
0100
0010
0001
0020
0030
0200
0300
0002
0003
0200
0300
,
0001
1000
0010
0100
0010
1000
0100
0010
0001
0010
0100
1000
0001
0010
0100
1000
,
0100
1000
0010
0100
0010
1000
0001
0100
0010
1000
0100
0010
0001
1000
0100
0010
,
0002
0000
0000
0000
0000
0003
0010
0001
2000
0000
0000
3000
0200
0000
0000
0300
,
0010
0000
0000
0000
0002
0000
0000
0003
0020
0000
0000
0000
0000
0030
0200
0300
,
0020
0000
0000
0030
2000
0000
0000
3000
0200
0000
0000
0000
0000
0300
0020
0030
,
0002
0000
0000
0003
2000
0000
0000
3000
0200
0000
0000
0000
0000
0300
0002
0003
,
0010
0000
0001
0010
0200
0300
0001
0010
2000
3000
0001
0010
0200
0300
2000
3000
,
0020
0000
0000
0000
0000
0000
0000
0000
0000
0000
0000
0000
2030
0000
0000
0000
0000
0000
0000
0000
0000
3000
0000
0010
0002
0000
0000
0000
0000
0000
0000
0000
0000
0000
0000
0000
0000
0000
0000
0000
0000
0000
0000
0000
0000
0003
0000
0000
,
0010
0100
1000
0010
0100
1000
0001
0010
0100
1000
0100
0010
,
0001
0010
0100
0010
0100
0010
0001
0010
0100
1000
0100
0010
,
0002
0000
0000
0000
0000
0000
0000
0000
0000
0000
0000
0000
0000
0000
0000
0000
0000
0000
0103
0000
0000
0010
0000
0000
1000
0000
0000
0000
0000
0000
0000
0000
0001
0000
0000
0000
0000
0000
0000
0000
0010
0000
0000
0000
0000
0000
0000
0000
,
0200
0000
0000
0000
0000
0000
0000
0300
0000
0000
0000
0000
0001
0000
0000
0000
,
1001
0100
0001
0010
1000
0100
0001
1000
,
1000
0000
1000
0000
0001
0000
0010
0100
1000
0000
0100
0000
0001
0000
0010
0000
,
1000
0000
1000
0000
0001
0000
1000
0100
0001
0000
0100
0000
0010
0000
0010
0000
,
1000
0000
1000
0000
0001
0000
1000
0010
0100
1000
0100
0000
0002
0000
0013
0000
,
1000
1000
0001
0100
1001
0100
0000
0011
,
0100
0000
0100
0000
0001
0000
1000
0000
0010
0001
1000
0100
0010
0000
0001
0000
,
0100
0000
0100
0000
0001
0000
0010
0100
1000
0000
0100
0000
0001
0000
1000
0000
,
1000
0000
1000
0000
0010
0000
0001
0010
0100
0000
0010
1000
0010
0100
0001
0000
,
1001
1000
0001
0100
0010
1000
0001
0100
,
0100
0000
0100
0000
0001
0000
0100
0010
0001
1000
0100
0000
0001
0000
0100
0000
,
1000
0000
1000
0000
0001
0000
0010
1000
0100
0000
0100
0000
0001
0000
1000
0000
,
1000
1000
0010
0100
0001
1000
0001
0010
,
0100
0100
0001
0000
1001
0100
0000
0011
,
1000
0000
1000
0000
0010
0000
0100
0000
0001
0000
0100
0010
1000
0000
0001
0000
,
1000
0000
1000
0000
0001
0000
1000
0100
0010
0000
1000
0000
0001
0000
0100
0000
,
0100
0000
1000
0000
0001
0000
1000
0000
0001
0000
1000
0100
0010
0100
0010
0001
,
0100
0100
0010
1000
0001
0000
0100
0000
,
1000
0000
1000
0000
0010
0100
1000
0000
0001
0000
0001
0000
0100
0000
0000
0000
,
0010
0001
0010
0100
1000
0000
0001
0000
,
0010
0000
1000
0000
0001
0010
0100
0000
0001
0000
0001
0000
0100
0000
0000
0000
,
1000
0010
0100
1000
0001
0000
0100
0000
,
1000
0000
1000
0000
0001
0010
0100
0000
0001
0000
0001
0000
0100
0000
0000
0000
,
0000
0000
0000
0000
,
1000
0000
0001
0000
0100
0010
0100
0010
1001
0000
0000
0000
0000
0000
0000
0000
;
