#TITLE:2 B A Master;
#SUBTITLE:;
#ARTIST:Russell Velazquez;
#TITLETRANSLIT:;
#SUBTITLETRANSLIT:;
#ARTISTTRANSLIT:;
#CREDIT:Arch0wl;
#BANNER:2bamaster-bn.png;
#BACKGROUND:2bamaster-bg.png;
#LYRICSPATH:;
#CDTITLE:!Arch0wlTitle.png;
#MUSIC:2bamaster.ogg;
#OFFSET:-0.007;
#SAMPLESTART:36.180;
#SAMPLELENGTH:27.231;
#SELECTABLE:YES;
#BPMS:0.000=106.000;
#STOPS:;
#BGCHANGES:0.000=2bamaster-bg.png=1.000=0=0=1,
99999=-nosongbg-=1.000=0=0=0 // don't automatically add -songbackground-
;
// cache tags:
#FIRSTBEAT:0.000;
#LASTBEAT:250.250;
#SONGFILENAME:Songs/Archmage and Dark0wl Hammer of Thor UltraHyperMegaPack/2 B A Master/2bamaster.sm;
#HASMUSIC:1;
#HASBANNER:1;
#MUSICLENGTH:105.000;
// end cache tags

//---------------dance-single - Arch0wl----------------
#NOTES:
     dance-single:
     Arch0wl:
     Hard:
     9:
     0.856,1.000,0.733,0.495,0.805,500.000,77.000,52.000,0.000,1.000:
0000
0000
0000
0000
,
1000
0000
0000
0100
0000
0000
0010
0000
0000
0100
0000
0000
1000
0000
0100
1000
0000
0000
0000
0000
0000
0000
0000
1000
,
0001
0000
0000
0010
0000
0000
0100
0000
0000
0010
0000
0000
0001
0000
0100
0001
0000
0000
2020
0000
0000
0000
3030
0100
,
0010
0000
0000
1000
0000
0000
0100
0000
0000
1000
0000
0000
0010
0000
0100
0010
0000
0000
0000
0000
0000
0000
0000
1000
,
0001
0000
0000
0100
0000
0000
0010
0000
0000
0100
0000
0000
0001
0000
0100
0001
0000
0000
1000
0000
0000
0010
0100
0001
,
1100
0010
0010
0101
0010
0010
2002
0000
,
0000
0000
0000
0000
,
0000
0000
0000
3003
,
1000
0000
0000
0100
0000
0010
0001
0000
0010
1000
0000
0010
0001
0000
0010
1000
,
0000
0010
0001
0000
0000
0000
0000
1000
0001
0010
0001
0100
0001
1000
0001
0100
,
0000
0010
0000
1000
0100
0000
0001
0100
0000
1000
0100
0000
0000
0000
1000
0010
,
0100
0000
0100
0000
2002
3003
2020
3030
2002
3003
2200
3300
2002
3003
0220
0330
,
0000
0100
0010
0001
1000
0100
0010
0100
1000
0000
0000
0001
0100
0000
1000
0100
,
0000
0001
0100
0000
0000
0000
0000
0010
1000
0100
0010
0001
0010
0100
1000
0100
,
0000
0010
0000
0001
0010
0000
1000
0010
0000
0001
0010
0000
0000
0000
0000
0001
,
1000
0000
1000
0000
2020
3030
0202
0303
0022
0033
2200
3300
0220
0330
0000
0000
,
0020
0000
0031
1000
0010
0100
0000
0000
,
0000
0001
0100
0010
1000
0100
0000
0000
,
0020
0000
0031
1000
0001
0100
0000
0110
,
0000
0000
0010
0000
1000
0000
0100
0000
0010
0000
0001
0000
1000
0100
1000
0000
,
0110
0000
0001
0000
0001
0000
0110
0000
0001
0000
1000
0100
1000
0100
1000
0000
,
0001
0010
0000
0100
0000
0010
0000
0100
0000
0010
0001
0000
0001
0000
0001
1000
,
0000
0100
0000
1000
0000
0100
0000
1000
0000
0100
0010
0000
0110
0000
0000
0000
,
0022
0000
0000
0000
0000
0000
2233
0000
0000
0000
0000
0000
3300
0000
0000
1000
,
0001
0010
0100
1000
0001
0100
0010
1000
0001
0010
0110
0110
1100
0000
0000
0000
,
1000
0010
0000
0100
0000
0010
0000
0100
0000
0010
1000
0000
1000
0100
0000
0010
,
0000
0100
0000
0010
0000
0100
0000
0010
0000
0100
0000
0000
1000
0010
1000
0000
,
0101
0000
0010
0000
0010
0000
0101
0000
0010
0000
0110
0110
0110
0000
0000
0000
,
0000
0000
0000
0000
1000
0000
0000
1000
0100
0000
0000
1000
0100
0000
0000
1000
,
0100
0100
0010
0000
0000
0000
0000
0011
,
0000
0000
0001
0001
0100
0100
0010
0010
1000
1000
0100
0100
0010
0000
0000
0010
,
0001
0001
0001
0000
2020
3030
0202
0303
0022
0033
2200
3300
0220
0330
0000
0000
,
1000
0000
0000
0001
0010
1000
0010
0100
0010
0001
0010
0001
0010
0100
0010
1000
,
0010
0000
0000
0010
0001
0001
1000
0001
0001
0100
0010
1000
0001
0001
0010
0100
,
0100
0100
0100
0000
0000
0000
1000
0100
1000
1000
0001
0100
0110
0000
0110
0000
,
0000
0000
1001
0000
0000
0000
0001
0000
0001
0010
0100
1000
1000
0000
1000
0000
,
0000
0000
0000
0010
0100
0001
0100
1000
0100
0010
0100
0001
0100
0000
0001
0100
,
0000
0000
0001
0000
0001
0000
0000
0001
0000
0000
0001
0000
0001
1000
0000
1000
,
0001
0000
1000
0001
0000
0000
0001
1000
0001
0000
0001
1000
0001
0000
0001
0000
,
0001
1000
0100
0010
0001
0000
1000
0010
1000
0010
1000
0000
0001
0000
0001
0000
,
0020
0000
0031
1000
0010
0100
0000
1001
,
0000
0001
0100
0010
1000
0100
0000
0000
,
0020
0000
0000
0000
0031
0000
1000
0000
0001
0000
0100
0010
0100
0000
0100
0010
,
0000
0010
0010
0000
1000
0000
0100
0000
0010
0000
0001
1000
0100
0000
1000
0000
,
0200
0000
1300
0001
0100
0020
0000
0000
,
0030
1000
0010
0100
0001
0010
0000
0000
,
0200
0000
1300
0001
1000
0100
0000
0010
,
0010
0000
0001
0000
0001
0000
1000
0010
1000
0000
1000
0010
0000
1000
0010
0000
,
0020
0000
0130
0001
1000
0200
0000
0300
,
0000
0000
0110
0000
0110
0000
0011
0000
1001
0000
1100
0000
0100
0010
0001
0000
,
1001
0010
0010
0101
0010
0101
0010
0101
,
0010
0000
1100
0000
1100
0000
0110
0000
0011
0000
1001
0100
0010
0000
1000
0000
,
1100
1100
0010
1100
0010
1100
0010
0001
,
0100
0110
0110
1010
1100
0110
0001
1010
,
0001
1000
0110
1010
1010
0101
1000
0101
,
1000
0110
0011
0011
1001
1100
0010
0001
,
1000
0010
0000
0100
0000
0010
0000
0100
0000
0010
1000
0000
1000
0001
0000
0010
,
0000
0001
0000
0010
0000
0001
0000
0010
0000
0001
0000
0010
0000
0001
0000
0000
,
1000
0010
0000
0100
0000
0010
0000
0100
0001
0010
0000
0001
0000
0010
0000
0100
,
0000
0010
0000
0100
0000
0010
0000
0100
0000
0010
0000
0100
0000
0000
1000
0000
,
1010
0000
0000
0000
0100
0000
0001
0000
0001
0000
0010
0000
0110
0000
0000
0110
,
1100
0000
0000
0000
0000
0000
0000
0000
2000
0000
0000
3200
0000
0000
0320
0000
,
0000
0000
0000
0000
0000
0000
0000
0000
0000
0000
0000
0000
0000
0000
0000
0000
0030
0000
1000
0000
0010
0000
0001
0000
0100
0000
0010
0000
0000
0000
0000
0000
0000
0000
1000
0010
0001
0000
0000
0000
0000
0000
0000
0000
0000
0000
0000
0000
0000
0000
0000
0000
0000
0000
0000
0000
0000
0000
0000
0000
0000
0000
0000
0000
;

//---------------dance-single - Arch0wl----------------
#NOTES:
     dance-single:
     Arch0wl:
     Challenge:
     15:
     1.000,1.000,1.000,0.133,1.000,904.000,392.000,14.000,0.000,8.000:
1100
0000
0010
0000
0001
1000
0010
0000
0001
1000
0010
0000
1100
0000
0010
0000
0001
1000
0010
0000
1100
0000
0010
0000
0101
0000
1010
0000
0101
0000
1010
0000
,
1100
0000
0000
0110
0000
0000
1010
0000
0000
0110
0000
0000
1001
0000
0100
1001
0000
0000
0110
0000
0000
0100
0010
1000
,
0101
0000
0000
0000
0000
0000
0110
0000
0000
0000
0000
0000
0011
0000
0000
0000
0000
0000
0110
0000
0000
0000
0000
0000
1001
0000
0000
0000
0100
0000
1001
0000
0000
0000
0000
0000
1000
0100
1000
0100
1000
0100
0010
0000
0000
0000
0100
0000
,
1010
0000
0000
0110
0000
0000
1100
0000
0000
0110
0000
0000
1010
0000
0100
1010
0000
0000
1001
0000
0000
0100
0010
1000
,
0101
0000
0000
0110
0000
0000
1100
0000
0000
0110
0000
0000
1010
0000
0100
1010
0000
0000
1001
0000
0000
1010
0100
0011
,
2001
0000
0000
0000
0010
0001
0000
0000
3010
0001
0000
0000
0201
0000
0000
0000
0010
0001
0000
0000
0310
0001
0000
0000
1000
0001
1000
0001
1000
0001
1000
0001
,
1000
0001
1000
0001
1000
0001
1000
0001
1000
0001
1000
0001
1000
0001
1000
0001
1000
0001
1000
0001
1000
0001
1000
0001
1000
0001
1000
0001
1000
0001
1000
0001
,
1000
0001
1000
0001
1000
0001
1000
0001
1000
0001
1000
0001
1000
0001
1000
0001
1000
0001
1000
0001
1000
0001
1000
0001
0100
0010
1000
0100
0010
0001
0100
0010
,
1001
0010
1000
0101
1000
0101
1010
0001
1010
0101
1000
0101
1010
0001
1010
0101
,
1000
0101
1010
0100
0001
0000
0000
1100
0001
0110
0001
1100
0001
1010
0001
0110
,
0000
0101
1000
0101
1010
0001
1010
0101
1000
0101
1010
0000
0101
0000
1000
0010
,
0101
0000
0010
0000
0101
0000
0010
0000
1000
0001
1000
0001
0100
0010
0100
0010
1000
0001
1000
0001
0100
0010
0100
0010
1000
0001
1000
0001
0100
0010
0100
0010
,
1000
0110
0010
1001
1000
0110
0010
1100
1000
0000
0000
0101
1010
0001
1010
0101
,
1000
0101
1010
0000
0101
0000
0000
0010
1010
0100
1010
0001
1010
0100
1010
0010
,
0000
0101
1000
0101
1010
0001
1010
0101
1000
0101
1010
0000
1001
0000
0000
0001
,
1100
0000
0001
0000
1100
0000
0001
0000
1000
0001
1000
0001
1000
0100
1000
0100
0011
0000
1100
0000
0011
0000
0011
0000
1100
0000
0011
0000
0010
0001
1000
0100
,
0021
0100
0100
0100
1031
0100
1001
0100
1010
0001
0110
0001
1001
0000
0110
0000
,
0110
0000
0000
0000
0001
1000
0001
1000
0110
0000
0001
0000
0110
0000
0001
0000
1010
0000
0100
0000
0110
0000
0000
0000
1001
0000
0000
0000
1001
0000
0000
0000
,
0021
0100
0100
0100
1031
0100
1001
0100
0011
1000
0110
1000
1001
0000
0110
0000
,
0110
0000
0000
0000
0001
0100
0001
0100
1010
0000
0100
0000
1010
0000
0100
0000
1001
0000
0010
0000
0101
0000
1000
0000
0101
0000
0101
0000
0101
0000
0010
0000
,
1100
0000
0010
0000
0001
1000
0010
0000
0001
1000
0010
0000
1100
0000
0010
0000
0001
1000
0010
0000
1100
0000
0011
0000
1100
0000
0011
0000
1001
0000
0000
0000
,
0101
1010
1000
1100
0001
1010
1000
1100
1001
1010
0101
0000
1001
0001
0001
1000
,
1010
0000
1100
0000
0001
0000
1010
0000
1000
0000
1100
0000
1001
0000
1010
0000
0010
0000
0101
0000
1000
0010
1000
0010
0100
0000
0000
0000
0000
0000
0000
0000
,
0011
0001
0011
0001
0101
0001
1100
0110
1100
0110
1100
1100
0110
0000
1001
0100
,
1001
0000
0011
0000
1001
0000
0011
0000
1100
0000
0110
0000
1100
0000
0110
0000
1001
0000
1010
0000
0110
0010
0110
0000
1001
0000
0000
0000
0000
0000
0000
0000
,
0101
1010
1000
1100
0001
1010
1000
1100
1001
1010
0101
0000
1001
0001
0001
1000
,
1010
1100
0001
1010
1000
1100
1001
1010
0010
0101
0000
0000
0101
0101
0101
0010
,
1100
0000
0010
0000
0001
1000
0010
0000
0001
1000
0010
0000
1100
0000
0010
0000
0001
1000
0010
0000
0110
0010
0110
0000
0110
0000
0000
0000
0000
0000
0000
0000
,
0000
0000
0000
0000
1001
0000
0001
1000
0101
0000
0001
1000
0101
0000
0001
1000
,
0101
0101
0011
0001
0001
0001
0001
0021
,
0000
0000
0131
0001
0101
0100
1010
0010
1010
1000
0101
0100
1010
0000
0000
0010
,
1001
0000
1001
0000
1001
0000
0000
0000
1000
0010
1000
0010
0100
0001
0100
0001
1000
0010
1000
0010
0100
0001
0100
0001
1000
0010
1000
0010
0101
0000
0000
0000
,
1100
0000
0000
0001
0110
1000
0011
0100
1010
0001
0110
0001
1010
0100
0011
1000
,
0110
0000
0000
0010
0101
0101
1010
0101
0101
1000
0010
0100
1001
1001
1010
1100
,
1100
1100
1100
0000
1001
0000
1000
0100
1010
0011
1010
0011
0110
0000
0110
0000
,
0100
0000
1001
0000
0100
0000
0001
0000
0011
0110
1100
1010
1001
0000
1001
0000
,
0101
0000
0000
0010
0011
0100
1100
0010
0011
0100
1100
0010
0011
0000
0010
0011
,
0000
0000
0011
0010
0011
0010
0010
0011
0010
0010
0011
0010
0011
1010
0010
1010
,
0011
0010
1010
0011
0010
0010
0011
1010
0011
0010
0011
1010
0011
0010
0011
0010
,
0011
1010
0110
0011
1010
0010
1010
0110
1010
0110
1010
0010
0011
0010
1010
0010
,
0021
0100
0100
0100
1031
0100
1001
0100
1010
0001
0110
0001
1001
0000
0110
0000
,
0110
0000
0000
0000
0001
1000
0001
1000
0110
0000
0001
0000
0110
0000
0001
0000
1010
0000
0100
0000
0110
0000
0000
0000
1001
0000
0000
0000
1001
0000
0000
0000
,
0021
0100
0100
0100
1031
0100
1001
0100
0011
1000
0110
1001
0110
0110
1001
0110
,
0110
0000
1001
0000
0001
0100
0001
0100
1010
0000
0100
0000
1010
0000
0100
0000
1001
0000
0010
0000
0101
0000
1100
0000
1001
0000
0010
0000
1001
0000
0010
0000
,
1020
0100
0100
0130
1010
0100
1010
0100
1010
0001
0110
0001
0110
0001
0110
0001
,
0110
0000
0000
0000
0001
0010
0001
0010
1100
0000
0001
0000
1100
0000
0001
0000
1010
0000
0100
0000
0101
0000
0000
0000
1001
0000
0000
0000
1001
0000
0000
0000
,
0021
0100
0100
0100
1031
0100
1001
0100
0011
1000
0110
1000
1001
0000
0110
1000
,
0110
1000
0101
0010
0101
0010
1100
0101
0011
0011
1100
0101
0101
1100
0101
0101
,
1020
1000
0131
1001
1010
0201
0010
1310
,
0000
0000
0110
0010
0101
0010
1001
0001
1100
0010
1100
0000
0100
0010
0001
0000
,
1001
0010
0010
0101
0010
0101
0010
0101
,
0010
0000
1100
0000
1100
0000
0110
0000
0011
0000
1001
0100
0010
0000
1000
0000
,
1100
1100
0010
1100
0010
1100
0010
0001
,
0100
0110
0110
1010
1100
0110
0001
1010
,
0001
1000
0110
1010
1010
0101
1000
0101
,
1000
0110
0011
0011
1001
1100
0010
0001
,
1000
0010
0000
0100
0000
0010
0000
0100
0000
0010
1000
0000
1000
0001
0000
0010
,
0000
0001
0000
0010
0000
0001
0000
0010
0000
0001
0000
0010
0000
0001
0000
0000
,
1000
0010
0000
0100
0000
0010
0000
0100
0001
0010
0000
0001
0000
0010
0000
0100
,
0000
0000
0010
0000
0000
0000
0100
0000
0000
0000
0010
0000
0000
0000
0100
0000
0000
0000
0010
0000
0000
0000
0100
0000
0000
0000
0000
0000
1000
0001
0100
0010
,
1000
0100
1000
0100
1000
0100
1000
0100
1000
0010
0100
0010
1000
0100
0010
0100
1000
0010
0100
0010
1000
0100
0010
0100
1000
0010
0100
0001
0010
0100
1001
0100
,
1001
0000
0000
0000
0000
0000
0000
0000
2000
0001
0001
3200
0001
0001
0320
0001
,
0001
0000
0000
0000
0000
0000
0000
0000
0000
0000
0000
0000
0000
0000
0000
0000
0030
0000
1000
0000
0010
0000
0001
0000
0100
0000
0010
0000
0000
0000
0000
0000
0000
0000
1000
0010
0001
0000
0000
0000
0000
0000
0000
0000
0000
0000
0000
0000
0000
0000
0000
0000
0000
0000
0000
0000
0000
0000
0000
0000
0000
0000
0000
0000
;
