#TITLE:MAX 150;
#SUBTITLE:Respect Lozical Dash 02 steps;
#ARTIST:Ω remixed by hammer;
#TITLETRANSLIT:;
#SUBTITLETRANSLIT:;
#ARTISTTRANSLIT:;
#CREDIT:;
#BANNER:max_150oni.jpg;
#BACKGROUND:max_150oni-bg.jpg;
#LYRICSPATH:;
#CDTITLE:cdtitle.png;
#MUSIC:max_150.mp3;
#OFFSET:-0.040;
#SAMPLESTART:78.220;
#SAMPLELENGTH:12.000;
#SELECTABLE:YES;
#DISPLAYBPM:150.000;
#BPMS:0.000=150.000,36.000=300.000,148.000=150.000,180.000=125.000,181.000=100.000,181.500=90.000,182.000=80.000,182.500=50.000,183.000=30.000,183.813=15.000,183.875=300.020,183.875=300.000,296.000=75.900,298.000=300.000,426.000=150.000,441.750=1.080,441.813=201.001;
#STOPS:183.875=0.820
;
#BGCHANGES:;
// cache tags:
#FIRSTBEAT:15.000;
#LASTBEAT:441.813;
#SONGFILENAME:Songs/Japanese Collaboration Mix/max_150oni/max_150oni.sm;
#HASMUSIC:1;
#HASBANNER:1;
#MUSICLENGTH:115.673;
// end cache tags

//---------------dance-single - ----------------
#NOTES:
     dance-single:
     :
     Challenge:
     10:
     0.763,1.000,0.432,0.061,0.225,561.000,50.000,7.000,0.000,0.000:
0000
0000
0000
0000
,
0000
0000
0000
0000
,
0000
0000
0000
0000
,
0000
0000
0000
1001
,
1000
0000
0100
0000
1000
0000
0000
0100
1000
0000
0010
0000
1000
0000
1000
0000
,
0001
0000
0100
0000
0001
0000
0000
0100
0001
0000
0010
0000
0001
0000
0001
0000
,
1000
0010
0001
0010
1000
0100
0001
0100
,
1001
0001
1100
0010
,
0101
1000
0101
1010
,
2002
0000
0000
0000
,
0000
0000
0000
0000
,
0000
0000
0000
0000
,
0000
0000
0000
3003
,
0001
0000
0100
0000
0010
1000
0000
0010
,
1000
0000
0100
0000
0010
0001
0000
0010
,
0001
0000
0100
0000
0010
1000
0000
0010
,
1000
0100
0010
0001
,
0100
0000
0010
0000
1000
0010
0000
1000
,
0010
0000
0100
0000
0010
0001
0000
0010
,
0001
0000
0000
1010
0000
0000
0101
0000
,
1000
0100
0010
0001
0100
0010
1000
0100
,
0010
0000
0010
0000
0001
0100
0001
0000
,
0100
0000
0100
0000
0010
1000
0010
0000
,
1000
0000
1000
0000
0001
0100
0010
0100
,
0010
1010
0110
0101
,
1001
0000
0100
0000
0010
1000
0100
0010
,
0001
0000
1000
0000
0100
1000
0100
0010
,
0001
0000
0010
0000
0001
0100
0010
1000
,
0100
1100
0110
0011
,
0110
0000
0010
0000
0001
1000
0100
0010
,
0001
0000
0100
0000
0010
1000
0001
0100
,
0010
0000
1000
0000
0100
0010
0001
1000
,
0100
0010
0011
0110
,
1001
0110
1001
0000
,
1001
0110
1001
0000
,
0001
0000
2000
0000
0000
3010
0000
0001
,
0010
1100
0110
0011
,
1000
0000
1000
0000
0000
0001
0000
0000
0001
0000
0001
0000
0000
1000
0000
0000
,
0001
0000
1000
0000
0000
0001
0000
1000
0001
0000
1000
0000
1001
0000
0000
0000
,
0010
0000
0010
0000
0000
0100
0000
0000
0100
0000
0100
0000
0000
0010
0000
0000
,
0110
0000
1000
0100
0010
0001
0100
0010
1000
0000
0001
0000
0100
0000
0001
0000
,
1000
0000
0100
0000
1000
0100
1000
0000
0001
0000
0010
0000
0001
0010
0001
0000
,
1000
0000
0100
1000
0100
1000
0100
0000
0001
0000
0010
0001
0010
0001
0010
0000
,
0100
1000
1010
0000
0100
0001
0011
0000
,
1000
0100
0010
0001
0010
1000
0010
0001
0100
0010
1000
0100
1000
0010
0200
0002
,
0000
0000
0000
0000
0000
0000
0000
0000
0000
0000
0000
0000
0000
0000
0000
0000
0000
0000
0000
0000
0000
0000
0000
0000
0000
0000
0000
0000
0000
0000
0000
0000
0000
0000
0000
0000
0000
0000
0000
0000
0000
0000
0000
0000
0000
0000
0000
0000
0000
0000
0000
0000
0000
0000
0000
0000
0000
0000
0000
0000
0000
0000
0000
0303
,
0020
0000
0000
0000
,
0000
0000
0000
0000
,
0000
0000
0000
0000
,
0000
0000
0000
0000
,
0000
0000
0000
0000
,
0000
0000
0000
0000
,
0000
0000
0000
0000
,
0000
0000
0000
0000
,
0000
0000
0000
0000
,
0000
0000
0000
0030
0000
0010
0001
1000
,
1001
0000
0011
0100
,
1000
0000
0100
0000
0010
0001
0000
0000
,
1100
0000
0101
0010
,
1000
0000
0010
0000
0100
0001
0000
0000
,
1010
0100
0110
0001
,
0011
0000
1000
0100
1000
0010
0100
0001
,
0010
0100
1100
0001
,
0101
0000
0001
0010
0100
1000
0010
0100
,
0001
0100
1010
0100
,
0011
0000
0010
1000
0100
0010
0001
0100
,
0010
0100
1001
0010
,
0110
0000
0100
0010
1000
0001
0010
0100
,
1000
0000
0001
0000
1000
0100
1000
0000
,
0101
0000
0001
0010
0100
1000
0010
0100
,
0001
0000
1000
0000
0001
0100
0001
0000
,
1100
0000
0010
0100
0010
1000
0001
0100
,
0010
0000
1000
0100
1000
0000
0001
0100
,
0001
0000
0010
0100
0010
1000
0001
0000
,
1000
0100
0010
0001
0010
0100
1000
0010
0100
0001
0010
0100
1000
0010
0100
0001
1000
0000
0000
0000
0000
0000
0000
0000
0100
0000
0000
0000
0000
0000
0000
0000
,
0010
0001
0000
0010
0001
0000
0100
0000
,
0010
1000
0000
0010
1000
0000
0100
0000
,
0010
0001
0000
0010
0001
0000
1000
0000
,
0010
0100
0001
0100
,
0010
1000
0000
1000
0100
0000
0010
0000
,
0001
0100
0000
0100
0001
0000
0100
0000
,
0010
1000
0000
1000
0001
0000
0010
0000
,
0100
0010
0001
1000
,
0001
0010
0000
0100
1000
0000
0010
0000
,
0100
0010
0000
1000
0001
0000
0010
0000
,
0100
1000
0000
0001
0010
0000
0100
0000
,
1000
0100
0010
0001
,
0010
0001
0000
0010
0001
0000
0100
0000
,
0010
1000
0000
0010
1000
0000
0000
0001
,
0000
0000
1001
0000
1000
0100
1000
0010
,
1000
0001
1000
0010
1000
0000
0001
0000
,
0010
0100
0010
0000
0001
0010
0001
0000
,
1000
0100
1000
0000
0010
0100
0010
0000
,
1000
0001
1000
0000
0001
0010
0001
0000
,
0010
0100
0010
0000
0001
0100
0001
0000
,
0010
0100
0010
0000
1000
0100
1000
0000
,
0001
0010
0001
0000
0010
0100
0010
0000
,
0100
1000
0100
0000
0010
0001
0010
0000
,
0001
0010
0100
1000
0010
1000
0010
1000
,
0100
0000
0010
0001
0010
0001
0100
0000
,
0001
1000
0001
1000
0010
0000
1000
0001
,
1000
0001
0100
0000
0010
0100
0001
0010
,
0100
0000
0100
0010
0001
0100
0010
0000
,
1000
0010
0100
0001
1000
0000
0001
0010
,
0100
1000
0001
0000
0100
0010
0100
0010
,
0100
0000
1000
0100
0001
0010
0100
1000
,
0001
0000
0010
0000
0100
0000
1000
0000
0001
0000
1000
0000
0001
0010
0000
0001
,
0010
0000
0100
0000
1000
0010
0000
1000
0010
0000
1000
0000
0100
0001
0000
0100
,
1000
0000
0001
0000
1000
0000
0001
0000
0100
0000
0010
0000
1000
0100
0000
1000
,
0001
0000
1001
0000
0001
0010
0000
0001
0100
0000
0000
0010
0000
0000
1001
0000
,
1000
0000
0000
0000
0100
0000
0000
0000
0001
0000
0000
0000
0100
0000
0000
0000
1000
0000
0000
0000
0100
0000
0000
0000
0001
0000
0000
0000
0200
0300
0000
0000
0000
0000
0000
0000
0000
0000
0000
0000
0000
0000
0000
0000
0000
0000
0000
0000
0000
0000
0000
0000
0000
0000
0000
0000
0000
0000
0000
0000
0000
0000
0000
0000
;
