#TITLE:Stunt Flying;
#SUBTITLE:;
#ARTIST:O2 Jam Inc.;
#TITLETRANSLIT:;
#SUBTITLETRANSLIT:;
#ARTISTTRANSLIT:;
#CREDIT:;
#BANNER:stunt.png;
#BACKGROUND:stunt-bg.png;
#LYRICSPATH:;
#CDTITLE:!reachTitle.png;
#MUSIC:O2JAM - Stunt Flying.mp3;
#OFFSET:-0.230;
#SAMPLESTART:1.000;
#SAMPLELENGTH:12.000;
#SELECTABLE:YES;
#BPMS:0.000=148.000,126.000=74.000,134.000=37.000,146.000=74.000,162.000=148.000,202.000=74.000,218.000=148.000;
#STOPS:;
#BGCHANGES:;
// cache tags:
#FIRSTBEAT:0.500;
#LASTBEAT:253.000;
#SONGFILENAME:Songs/Community Keyboard Megapack - Volume 1/(Reach) Stunt Flying/winter.sm;
#HASMUSIC:1;
#HASBANNER:1;
#MUSICLENGTH:134.922;
// end cache tags

//---------------dance-single - ----------------
#NOTES:
     dance-single:
     :
     Hard:
     12:
     1.000,1.000,1.000,0.178,1.000,677.000,259.000,24.000,0.000,2.000:  // measure 1
0000
2002
0000
0000
0000
0000
0000
0000
,  // measure 2
3003
0000
0000
0000
,  // measure 3
0000
0000
0000
0000
,  // measure 4
0000
0000
0000
0000
,  // measure 5
0000
0000
0000
0000
0011
1000
0011
1000
,  // measure 6
0011
1000
0011
1000
0011
1000
0011
1000
,  // measure 7
0101
1000
0011
1000
0101
1000
0110
1000
,  // measure 8
0101
1000
0011
1000
0110
0001
0110
1000
,  // measure 9
0120
0000
0000
0000
1030
0000
0100
0010
0001
0000
1100
0000
1001
0000
0010
0100
,  // measure 10
0010
0000
0001
0000
1100
0000
0000
0000
1001
0000
0110
0000
1010
0000
0001
0010
,  // measure 11
0001
0000
0001
0000
1100
0000
0000
0000
1001
0000
0110
0000
1001
0000
0010
1000
,  // measure 12
0010
0100
1001
0000
0120
0000
1030
0100
,  // measure 13
1001
0000
0110
0000
0000
0000
0000
0000
1000
0100
0010
0001
0010
0001
0100
0001
,  // measure 14
1000
0100
1000
0010
1000
0001
1000
0100
0010
0001
0010
0100
1000
0100
0010
0100
,  // measure 15
1000
0001
1000
0010
0100
0001
1000
0010
0100
0001
0010
0001
1000
0100
1000
0010
,  // measure 16
0100
0010
1000
0100
1000
0001
0010
0001
0100
0001
0100
0010
0100
0010
1000
0010
,  // measure 17
0100
0010
1000
0100
0010
0001
1000
0001
0010
0100
1000
0100
0010
0001
1000
0001
,  // measure 18
0010
0100
1000
0100
0010
0100
0010
0100
0010
0001
0010
0100
0010
0100
1000
0100
,  // measure 19
0010
0100
0010
0100
1000
0100
0010
0100
1000
0100
0010
0001
0001
0010
0100
1000
,  // measure 20
1000
0100
0010
0001
1000
0100
0010
0001
1001
0000
0100
0000
1001
0000
0010
0000
,  // measure 21
1001
0010
1100
0010
1001
0100
0011
0100
1001
0100
0010
0001
1100
0010
0001
0010
,  // measure 22
1001
0000
0100
0000
0010
0000
0100
0000
1000
0100
0010
0001
1000
0100
0010
0001
1100
0000
0000
0000
0010
0000
0001
0000
1100
0000
0000
0000
0010
0000
0001
0000
,  // measure 23
1100
0000
0010
0001
1100
0000
0001
0010
1100
0000
0001
0010
1100
0000
0100
0010
,  // measure 24
1001
0000
0010
0100
1001
0000
0100
0010
1001
0000
0010
0100
1001
0000
1001
0000
,  // measure 25
0000
0110
1001
0011
2000
3200
0320
0032
,  // measure 26
0023
0230
2300
3200
0321
0030
1100
0101
,  // measure 27
1010
0000
0110
0000
1001
0000
0110
0000
0101
0000
0000
0000
0011
1000
0011
1000
,  // measure 28
0011
0000
0000
0000
1100
0001
1100
0001
1100
0000
0000
0000
0011
1000
0011
1000
,  // measure 29
0011
1000
0101
1000
0101
1000
0011
0000
1001
0000
0000
0000
0110
0001
0110
0000
,  // measure 30
1001
0000
0000
0000
0110
1000
0110
0000
1001
0000
0000
0000
0011
1100
0011
0000
,  // measure 31
1001
0000
0000
0000
0110
1001
0110
0000
1000
0000
0100
0000
0020
0000
0000
0000
,  // measure 32
0030
0100
1001
0010
2000
0000
3000
0000
,  // measure 33
2001
0000
0000
0000
0000
0000
0000
0000
3001
0000
0000
0000
0000
0000
0000
0000
0000
0000
0000
0000
0000
0000
0000
0000
0000
0000
0000
0000
1001
0000
0000
0010
,  // measure 34
1001
0000
0000
0000
0110
0000
1001
0000
0000
0000
0000
0000
0000
0000
1000
0000
0011
0000
1001
0000
0110
0000
1000
0100
0000
0001
0010
0001
1001
0000
1100
0000
,  // measure 35
1001
0100
0011
0100
1010
0000
0110
1001
0000
1010
0100
0011
0100
0000
0001
0000
1100
0010
1100
0010
1001
0000
0110
1001
0000
0010
1100
0010
0101
0000
1100
0000
,  // measure 36
2002
0000
3003
0000
1010
0000
1001
0110
0000
1001
0010
1001
0100
0000
0010
0000
1100
1001
0110
1001
0110
0000
0010
0101
0000
1010
0001
0000
1100
0000
0001
0000
,  // measure 37
1200
0000
0000
0000
0000
0000
0000
0000
1310
0000
0000
0000
0011
0000
1100
0000
0000
0000
0010
0000
0100
0000
0001
0000
0010
0000
0100
0000
1000
0100
0010
0001
1001
0000
0000
0000
0101
0000
0000
0000
0000
0000
0000
0000
1001
0000
0000
0000
0000
0000
0000
0000
1010
0000
0000
0000
0000
0000
0000
0000
1001
0000
0000
0000
,  // measure 38
0000
0110
0000
1100
0000
0011
0100
1010
0101
1001
0000
0110
0000
0101
0000
1010
,  // measure 39
0000
0110
0000
2001
0000
3010
0101
0010
1100
1001
0000
0110
0000
0011
0000
1100
,  // measure 40
0000
1001
0000
1020
0000
0130
0011
0100
1010
0110
0000
1001
0000
0101
0000
1010
,  // measure 41
0000
1001
0110
1001
0000
0011
1100
0011
1100
0010
0001
0000
1100
0000
0001
0010
,  // measure 42
0001
0100
0010
0000
1100
0000
0000
0000
1001
0000
0100
0010
1001
0000
0010
0100
,  // measure 43
0001
0100
0010
0100
1001
0000
0000
0000
1100
0000
1000
0100
0011
0000
0100
1000
,  // measure 44
0010
0100
0001
0000
1100
0000
0000
0000
0011
0000
0100
0010
1001
0000
0010
0100
,  // measure 45
0010
0100
1000
0000
0011
0000
0000
0000
1001
0000
0001
0010
1100
0000
0010
0100
,  // measure 46
0010
1000
0010
0000
1001
0000
0000
0000
0110
0000
1000
0001
1010
0000
0100
0001
,  // measure 47
0100
0010
0100
0000
1100
0000
0000
0000
1001
0000
0010
0001
1100
0000
0010
0100
,  // measure 48
1000
0100
0010
0000
1100
0000
0000
0000
1001
0000
0100
1000
0110
0000
0011
1000
,  // measure 49
0101
1000
0011
1000
0101
0000
0000
0000
1001
0010
0100
0010
0100
0010
0100
0010
,  // measure 50
0100
0010
0100
0010
0100
0010
0100
0010
1001
0010
0001
0010
1100
0010
0001
0010
,  // measure 51
1100
0000
0010
0000
0101
0000
0010
0000
1100
0000
0010
0000
0101
0000
0010
0000
1100
0000
0000
0000
1001
0000
0100
1000
0011
0000
0100
0000
1001
0000
0000
0000
,  // measure 52
1100
0000
0000
0000
0011
0000
0100
1000
0011
0000
0100
0000
1010
0000
0000
0000
1001
0000
0000
0000
0110
0000
1000
0100
0011
0000
1000
0000
0110
0000
0000
0000
,  // measure 53
1001
0000
0000
0000
0110
0000
1000
0010
0101
0000
1000
0000
0110
0000
0000
0000
2001
0000
0000
0000
3001
0000
1000
0010
1001
0000
0100
0000
0011
0000
0000
0000
,  // measure 54
1001
0000
0000
0000
0011
0000
0100
0010
1100
0000
0010
0000
1001
0000
0000
0000
1000
0000
0100
0000
0010
0000
0001
0000
0110
0000
1000
0000
0100
0000
0010
0000
,  // measure 55
1001
0000
0000
0000
1100
0000
0000
0000
1001
0000
0010
0000
1001
0010
0100
0010
1001
0000
0000
0000
1000
0000
0100
0000
0011
0000
0000
0000
0001
0000
0010
0000
,  // measure 56
1100
0000
0010
0000
1001
0000
0000
0000
1001
0000
0100
1000
0011
0000
0010
0001
,  // measure 57
1100
0000
0010
0000
0011
0000
0100
0010
1100
0000
0000
0000
1100
0000
1000
0100
,  // measure 58
0011
0000
0010
0000
1001
0000
0100
0010
1001
0100
0010
0001
1000
0100
0010
0100
,  // measure 59
1000
0100
0010
0001
0010
0100
0010
0001
1100
0000
0010
0001
0110
0000
0100
1000
,  // measure 60
0110
0000
1000
0000
1001
0000
0000
0000
1001
0000
1000
0100
0011
0000
0001
0010
,  // measure 61
1100
0000
0010
0100
0011
0000
0100
0010
1100
0000
1000
0100
1010
0000
0001
0010
,  // measure 62
0101
0000
1000
0100
0011
0100
1000
0100
0011
0100
1000
0100
1001
0000
0100
0010
,  // measure 63
1001
0100
1001
0010
2200
0000
0000
0000
,  // measure 64
0000
3300
0000
0000
;
