#TITLE:CO.CO.RO;
#SUBTITLE:;
#ARTIST:DJ Sharpnel;
#TITLETRANSLIT:;
#SUBTITLETRANSLIT:;
#ARTISTTRANSLIT:;
#CREDIT:owenviau1;
#BANNER:;
#BACKGROUND:;
#LYRICSPATH:;
#CDTITLE:;
#MUSIC:DJ Sharpnel - CO.CO.RO.mp3;
#OFFSET:-3.194;
#SAMPLESTART:169.800;
#SAMPLELENGTH:29.999;
#SELECTABLE:YES;
#BPMS:0.000=141.165;
#STOPS:;
#BGCHANGES:;
// cache tags:
#FIRSTBEAT:0.000;
#LASTBEAT:936.250;
#SONGFILENAME:Songs/owenviau1 Simfiles 7/CO.CO.RO - [owenviau1] v1.0.3/CO.CO.RO.sm;
#HASMUSIC:1;
#HASBANNER:0;
#MUSICLENGTH:402.520;
// end cache tags

//---------------dance-single - 10+ (owenviau1)----------------
#NOTES:
     dance-single:
     10+ (owenviau1):
     Medium:
     10:
     0.816,0.959,0.000,0.144,0.595,2217.000,0.000,58.000,0.000,0.000:
1000
0010
0000
0100
0001
0000
1000
0000
0010
1000
0000
0001
0100
0000
0010
0000
,
1000
0001
0000
1000
0010
0000
0100
0000
0001
0010
0000
0100
1000
0000
0010
0000
,
1000
0100
0000
1000
0001
0000
0100
0000
0010
1000
0000
0001
0100
0000
0010
0000
,
1000
0100
0000
1000
0001
0000
0100
0000
0010
1000
0000
0001
0010
0000
0100
0000
,
1000
0100
0000
1000
0010
0000
0100
0000
0001
1000
0000
1000
0010
0000
0100
0000
,
0001
0100
0000
0010
1000
0000
0100
0000
1000
0001
0000
0010
0100
0000
1000
0000
,
0010
1000
0000
0001
1000
0000
0100
0000
0010
0001
0000
0001
1000
0000
0010
0000
,
0100
0001
0000
0100
0010
0000
1000
0000
0010
0100
0000
0010
1000
0000
0001
0000
,
0010
0100
0000
1000
0100
0000
1000
0000
0001
0100
0000
0100
0010
0000
1000
0000
,
0001
0010
0000
0001
1000
0000
0100
0000
0010
0001
0000
0001
0100
0000
0010
0000
,
1000
0001
0000
1000
0010
0000
0100
0000
0001
1000
0000
0010
1000
0000
0100
0000
,
0010
0001
0000
1000
0010
0000
0100
0000
0001
1000
0000
1000
0100
0000
0010
0000
,
0001
1000
0000
0010
0100
0000
0001
0000
1000
0010
0000
1000
0100
0000
0010
0000
,
0001
0100
0000
0010
0100
0000
0001
0000
1000
0010
0000
0100
0001
0000
1000
0000
,
0100
0010
0000
0010
0001
0000
1000
0000
0010
0100
0000
0001
0100
0000
0010
0000
,
1000
0001
0000
0010
0001
0000
0100
0000
0010
1000
0000
0001
0010
0000
0100
0000
,
1000
0010
1000
0001
0100
0010
1000
0000
0001
0010
0100
1000
0010
1000
0001
0000
,
0100
0001
1000
0010
0100
0010
1000
0000
0001
0010
0000
0100
1000
0000
0001
0000
,
1000
0010
0100
0001
1000
0001
0010
0000
0100
1000
0001
0100
0001
1000
0010
0000
,
0100
0001
1000
0100
1000
0010
0100
0000
0001
1000
0000
1000
0010
0000
1000
0000
,
0100
0010
0001
1000
0010
1000
0100
0000
0010
0001
1000
0001
0100
0010
0100
0000
,
0001
1000
0010
1000
0100
0010
0001
0000
1000
0010
0000
1000
0001
0000
0010
0000
,
0100
1000
0001
1000
0010
0100
0010
0000
1000
0100
1000
0001
0100
0010
0100
0000
,
0001
1000
0100
0010
0001
1000
0010
0100
0010
1000
0001
0010
0001
1000
0100
1000
,
0010
0100
0001
1000
0001
0010
0100
0000
1000
0010
1000
0001
0100
0010
0100
0000
,
0001
1000
0010
0100
0010
1000
0001
0000
0010
0100
0000
0100
1000
0000
0010
0000
,
0100
0001
0010
0001
1000
0100
0010
0000
0001
0010
0100
1000
0010
1000
0001
0000
,
0100
0010
0100
0001
1000
0010
1000
0000
0100
0010
0000
0001
0100
0000
0010
0000
,
1000
0100
1000
0001
0100
0010
0100
0000
0001
1000
0010
1000
0001
0100
0010
0000
,
1000
0010
0100
0001
0100
0010
1000
0000
0001
0100
0000
0010
1000
0000
0001
0000
,
1000
0100
0010
0001
0100
0010
0100
0000
0001
1000
0010
1000
0100
0010
0001
0000
,
1000
0100
1000
0010
0100
0001
0100
0000
0010
1000
0000
0001
0100
0000
0010
0000
,
1000
0100
1000
0001
0100
0010
0100
0000
0001
1000
0010
1000
0001
0100
0010
0000
,
1000
0100
1000
0001
0100
0010
1000
0000
0001
0010
0000
0010
0100
0000
1000
0000
,
0001
0100
0010
0100
0001
1000
0010
0000
0100
0001
1000
0100
1000
0010
0100
0000
,
0001
1000
0001
0010
0100
1000
0010
0000
0100
0001
0000
1000
0010
0000
0100
0000
,
0001
0100
0010
1000
0010
0100
0001
0000
1000
0001
0100
0010
1000
0010
0100
0001
,
1000
0010
1000
0100
0010
0001
0100
0010
1000
0001
0100
0001
1000
0010
1000
0100
,
0010
0001
1000
0100
1000
0001
0100
0010
0100
0001
1000
0010
1000
0100
0010
0001
,
1000
0100
1000
0001
0100
0010
0100
0001
1000
0010
0100
0010
1000
0001
0100
0001
,
0010
0100
1000
0001
0100
0001
1000
0010
,
0100
0010
1000
0001
0100
0001
0010
0100
,
1000
0001
0100
0010
1000
0001
0100
0001
,
1000
0100
1000
0010
0100
0001
1000
0100
,
0010
0001
1000
0001
0100
0010
1000
0001
,
0010
0001
1000
0100
0010
0001
1000
0010
,
0100
0010
1000
0001
0100
0001
1000
0100
,
0010
0001
1000
0010
0100
0001
0100
0010
,
1000
0001
0010
0001
1000
0100
1000
0010
,
0100
0001
1000
0100
0010
0001
1000
0010
,
0100
0010
1000
0001
0010
0001
1000
0100
,
0010
0001
1000
0010
0100
0010
1000
0001
,
0100
0001
1000
0100
0010
0001
0100
0010
,
1000
0001
0100
0001
0010
0100
1000
0010
,
0100
0001
1000
0010
1000
0001
0100
0001
,
1000
0010
0100
0001
1000
0100
1000
0010
,
0100
0001
1000
0100
0010
0001
1000
0100
,
1000
0010
0100
0010
1000
0001
0100
0001
,
0010
0100
1000
0001
0010
0001
1000
0100
,
0010
0001
0100
0001
1000
0010
0100
0001
,
1000
0100
0010
0001
0100
0010
1000
0001
,
0100
0010
1000
0001
1000
0010
0100
0010
1000
0001
0010
0100
1000
0001
0100
0001
,
0010
0100
1000
0010
0100
0001
1000
0100
1000
0001
0100
0010
0100
0001
1000
0010
,
1000
0100
0010
0001
0100
0010
1000
0001
0100
0010
0100
0001
1000
0010
1000
0100
,
0010
0001
1000
0010
0100
0001
1000
0100
,
1000
0001
0100
0010
1000
0001
0010
0001
,
1000
0010
0100
0010
1000
0001
0100
0001
,
1000
0100
0010
0001
1000
0010
0100
0001
,
1000
0001
0100
0010
0100
0001
1000
0100
,
0010
0001
1000
0100
1000
0010
0100
0001
,
1000
0010
0100
0010
1000
0001
0100
0001
,
0010
0100
1000
0001
0010
0001
1000
0100
,
1000
0010
0100
0001
1000
0100
1000
0010
,
0100
0001
1000
0001
0010
0100
1000
0001
,
0100
0010
0100
0001
1000
0100
0010
0001
,
1000
0010
0100
0001
1000
0100
1000
0001
,
0010
0100
1000
0010
0100
0001
1000
0001
,
0010
0100
1000
0001
0100
0001
1000
0010
,
0100
0010
1000
0001
0100
0001
1000
0100
,
0010
0001
1000
0010
1000
0001
0100
0010
,
0100
0001
1000
0100
1000
0010
0100
0010
,
1000
0001
0100
0010
0100
0001
1000
0100
,
1000
0010
0100
0001
1000
0100
0010
0001
,
1000
0010
0100
0001
0100
0010
1000
0001
,
0010
0001
0100
0010
1000
0010
0100
0001
,
1000
0100
1000
0010
0100
0010
1000
0001
,
0010
0001
0100
0010
1000
0010
0100
0001
,
1000
0100
0010
0001
1000
0100
1000
0010
,
0100
0001
0100
0010
1000
0001
1000
0100
,
0010
0001
0100
0001
1000
0010
0100
0001
,
1000
0100
0010
0001
1000
0100
1000
0001
,
0100
0010
0100
0001
0010
0001
1000
0100
,
1000
0010
0100
0001
1000
0100
0010
0001
,
0100
0010
0100
0001
1000
0100
1000
0010
,
0100
0010
1000
0001
0100
0001
0010
0100
,
1000
0010
0100
0001
0100
0010
1000
0001
,
1000
0100
0010
0001
1000
0100
1000
0001
,
0100
0000
0010
0000
1000
0001
1000
0100
0010
0001
1000
0100
1000
0010
0100
0010
,
1000
0001
0100
0001
0010
0100
1000
0010
,
0100
0001
1000
0001
0100
0010
1000
0010
,
0100
0001
1000
0100
1000
0001
0010
0001
,
1000
0100
0010
0001
1000
0001
0100
0010
,
1000
0010
0100
0001
0100
0010
1000
0001
,
0010
0100
1000
0001
0010
0001
1000
0100
,
0010
0001
0010
0100
1000
0001
0100
0010
,
1000
0001
0100
0001
1000
0100
0010
0001
,
0100
0010
0100
0001
0010
0100
1000
0001
,
0010
0001
1000
0100
0010
0001
1000
0010
,
0100
0010
1000
0001
0100
0001
0010
0100
,
1000
0010
0100
0001
1000
0100
1000
0010
,
0100
0001
0100
0010
1000
0001
0010
0100
,
1000
0001
0010
0001
1000
0100
1000
0001
,
0100
0010
0100
0001
1000
0010
1000
0100
,
0010
0001
1000
0100
1000
0010
0100
0001
,
1000
0001
0010
0100
1000
0010
0100
0001
,
0100
0000
0010
0000
1000
0000
0001
0000
1000
0100
0010
0001
0100
0001
1000
0010
,
0100
0001
0100
0010
1000
0001
1000
0100
0010
0001
1000
0100
1000
0001
0100
0010
,
0100
0001
1000
0010
1000
0001
0010
0001
0100
0010
1000
0010
0100
0001
1000
0100
,
1000
0010
0100
0001
1000
0100
1000
0001
,
0100
0010
1000
0001
0010
0001
1000
0100
,
0010
0001
1000
0100
1000
0010
0100
0001
,
1000
0100
0010
0001
1000
0001
0100
0010
,
1000
0001
0100
0001
1000
0100
0010
0001
,
0100
0010
1000
0100
1000
0001
0010
0001
,
0100
0010
1000
0001
0100
0010
1000
0001
,
0010
0100
1000
0001
0100
0001
1000
0100
,
1000
0010
0100
0010
1000
0001
0100
0001
,
0010
0100
1000
0001
0010
0001
1000
0010
,
1000
0100
1000
0001
0100
0010
1000
0010
,
0100
0001
1000
0100
1000
0010
0100
0010
,
1000
0001
1000
0100
0010
0001
1000
0010
,
0100
0001
0100
0010
1000
0001
1000
0100
,
0010
0001
1000
0100
1000
0001
0100
0010
,
0100
0001
1000
0100
1000
0001
0010
0001
,
1000
0100
0010
0001
1000
0010
0100
0010
,
1000
0001
0100
0001
0010
0100
1000
0001
,
0010
0001
1000
0100
1000
0010
0100
0001
,
1000
0001
0100
0010
1000
0010
0100
0001
,
1000
0100
1000
0001
0010
0001
1000
0010
,
0100
0000
0001
0000
1000
0010
0100
0010
1000
0001
0010
0100
1000
0001
0100
0001
,
0010
0100
1000
0010
0100
0001
1000
0100
1000
0001
0100
0010
0100
0001
1000
0010
,
1000
0100
0010
0001
0100
0010
1000
0001
0100
0010
0100
0001
1000
0010
1000
0100
,
0010
0001
1000
0010
0100
0001
0100
0010
1000
0001
1000
0100
0010
0001
1000
0010
,
1000
0100
0010
0001
0100
0010
1000
0001
0100
0010
0100
0001
1000
0010
1000
0100
,
0010
0001
1000
0010
0100
0001
0100
0010
1000
0001
1000
0100
0010
0001
1000
0010
,
0200
0300
0400
0300
0002
0003
2000
3000
0400
0300
2000
3000
0020
0030
0400
0300
,
0002
0003
4000
3000
0200
0300
0020
0030
0004
0003
2000
3000
0020
0030
4000
3000
,
0002
0003
0200
0300
0020
0030
0200
0300
0004
0003
2000
3000
0200
0300
4000
3000
,
0002
0003
0020
0030
0004
0003
0200
0300
0040
0030
2000
3000
0002
0003
0040
0030
,
0200
0300
4000
3000
0002
0003
0200
0300
0040
0030
0200
0300
0002
0003
4000
3000
,
0200
0300
4000
3000
0020
0030
0200
0300
0004
0003
2000
3000
0200
0300
4000
3000
,
0002
0003
0200
0300
0020
0030
2000
3000
0004
0003
0020
0030
0200
0300
4000
3000
,
0002
0003
0200
0300
0040
0030
0200
0300
0004
0003
2000
3000
0200
0300
0040
0030
,
0002
1000
0000
1000
,
0000
1000
2003
3020
,
0230
0001
0000
0001
,
0302
0023
0230
2300
,
3020
0030
0400
0300
0020
0030
2000
3000
0004
0003
0020
0030
0002
0003
4000
3000
,
0010
0100
0001
1000
0100
0010
0001
1000
0100
1000
0010
0100
0001
1000
0100
0010
,
0001
1000
0010
0100
0010
1000
0001
0010
0001
0100
0010
1000
0001
0010
0100
1000
,
0010
0100
0001
1000
0100
1000
0010
0100
0001
1000
0100
1000
0010
0100
0001
0100
,
0010
1000
0001
1000
0100
0010
0001
1000
0010
0100
0001
0100
0010
1000
0001
0010
,
0100
1000
0001
1000
0010
0100
0001
0100
0010
1000
0001
1000
0100
0010
0001
1000
,
0010
1000
0100
0010
0001
1000
0100
1000
0010
0100
0001
1000
0100
0010
0001
0100
,
0010
0100
0001
1000
0010
0100
0001
1000
0100
0010
0001
0100
0001
1000
0010
0100
,
0002
0000
0003
0000
0002
0000
0003
0000
1000
0100
0010
0001
1000
0010
0100
0001
,
1000
0100
0010
0001
1000
0001
0100
0010
,
1000
0001
0010
0001
1000
0100
0010
0001
,
1000
0010
0100
0010
1000
0001
0100
0001
,
1000
0100
0010
0001
1000
0010
0100
0001
,
0100
0010
1000
0001
0010
0001
1000
0100
,
1000
0010
0100
0001
1000
0100
0010
0001
,
1000
0010
0100
0010
1000
0001
0010
0001
,
1000
0100
0010
0001
1000
0010
0100
0010
,
1000
0001
0100
0001
1000
0100
0010
0001
,
0100
0010
1000
0001
0100
0001
0010
0100
,
1000
0010
0100
0001
1000
0010
1000
0001
,
0100
0001
1000
0010
0100
0001
1000
0100
,
1000
0010
0100
0001
1000
0100
0010
0001
,
1000
0100
1000
0010
0100
0010
1000
0001
,
0100
0001
0010
0100
1000
0001
0010
0001
,
1000
0100
0010
0001
1000
0001
0100
0010
,
1000
0001
0010
0001
1000
0100
0010
0001
,
1000
0010
0100
0010
1000
0001
0100
0001
,
1000
0100
0010
0001
1000
0010
0100
0001
,
0100
0010
1000
0001
0010
0001
1000
0100
,
1000
0010
0100
0001
1000
0100
0010
0001
,
1000
0010
0100
0010
1000
0001
0010
0001
,
1000
0100
0010
0001
1000
0010
0100
0010
,
1000
0001
0100
0001
1000
0100
0010
0001
,
0100
0010
1000
0001
0100
0001
0010
0100
,
1000
0010
0100
0001
1000
0010
1000
0001
,
0100
0001
1000
0010
0100
0001
1000
0100
,
1000
0010
0100
0001
1000
0100
0010
0001
,
1000
0100
1000
0010
0100
0010
1000
0001
,
0100
0001
0010
0100
1000
0001
0010
0001
,
1000
0100
0010
0001
0100
0001
1000
0010
,
0100
0001
1000
0100
0010
0001
0100
0010
,
1000
0010
0100
0001
0010
0001
1000
0100
0010
0001
0100
0010
1000
0010
0100
0001
,
1000
0100
1000
0010
0100
0001
1000
0100
0010
0001
1000
0100
1000
0010
0100
0001
,
0100
0010
1000
0001
1000
0100
0010
0001
0100
0010
0100
0001
1000
0010
1000
0100
,
0010
0001
1000
0100
1000
0010
0100
0010
1000
0001
0100
0001
0010
0100
1000
0010
,
1000
0001
0100
0001
0010
0100
1000
0001
0100
0001
1000
0010
0100
0001
0100
0010
,
1000
0001
0010
0001
1000
0100
1000
0010
0100
0001
0100
0010
1000
0001
0100
0010
,
1000
0001
0010
0100
1000
0001
0100
0001
,
1000
0100
0010
0001
1000
0010
1000
0001
,
0100
0001
0010
0100
1000
0001
0100
0001
,
1000
0100
0010
0001
1000
0010
0100
0001
,
0100
0010
1000
0001
0010
0001
1000
0100
,
1000
0010
0100
0001
1000
0100
0010
0001
,
1000
0010
0100
0010
1000
0001
0010
0001
,
1000
0100
0010
0001
1000
0010
0100
0010
,
1000
0001
0100
0001
1000
0100
0010
0001
,
0100
0010
1000
0001
0100
0001
0010
0100
,
1000
0010
0100
0001
1000
0010
1000
0001
,
0100
0001
1000
0010
0100
0001
1000
0100
,
1000
0010
0100
0001
1000
0100
0010
0001
,
1000
0100
1000
0010
0100
0010
1000
0001
,
1000
0010
0100
0001
1000
0001
0100
0010
0100
0001
1000
0100
1000
0010
0100
0001
,
0100
0010
1000
0001
1000
0010
0100
0010
1000
0001
0100
0001
0010
0100
1000
0001
,
0100
0001
1000
0100
0010
0001
0100
0010
,
1000
0001
0100
0010
0100
0001
1000
0010
,
1000
0001
0100
0010
1000
0001
0010
0001
,
0100
0010
0100
0001
1000
0010
1000
0100
,
0010
0001
1000
0100
1000
0001
0100
0010
,
1000
0001
0100
0001
0010
0100
1000
0001
,
0100
0010
1000
0010
0100
0001
1000
0100
,
0010
0000
0001
0000
1000
0010
0100
0001
0100
0010
1000
0001
1000
0100
0010
0001
,
1000
0010
0000
0100
0001
0000
1000
0000
0001
0100
0000
0010
0100
0000
0001
0000
,
1000
0010
0000
0100
0001
0000
1000
0000
0100
0010
0000
0010
0001
0000
1000
0000
,
0010
0100
0000
0001
0100
0000
0010
0000
1000
0001
0000
0010
0001
0000
0100
0000
,
0010
1000
0000
0001
0010
0100
1000
0001
0100
0010
1000
0010
0100
0001
1000
0100
,
0020
0000
0000
0000
,
0000
0000
0000
0000
,
0000
0030
0000
0000
0000
0000
0000
0000
0000
0000
0000
0000
0000
0000
0000
0000
;

//---------------dance-single - 14- (owenviau1)----------------
#NOTES:
     dance-single:
     14- (owenviau1):
     Hard:
     14:
     1.000,1.000,0.000,0.144,1.000,3411.000,0.000,58.000,0.000,0.000:
1000
0010
0000
0100
0001
0000
1000
0000
0010
1000
0000
0001
0100
0000
0010
0000
,
1000
0001
0000
1000
0010
0000
0100
0000
0001
0010
0000
0100
1000
0000
0010
0000
,
1000
0100
0000
1000
0001
0000
0100
0000
0010
1000
0000
0001
0100
0000
0010
0000
,
1000
0100
0000
1000
0001
0000
0100
0000
0010
1000
0000
0001
0010
0000
0100
0000
,
1000
0100
0000
1000
0010
0000
0100
0000
0001
1000
0000
1000
0010
0000
0100
0000
,
0001
0100
0000
0010
1000
0000
0100
0000
1000
0001
0000
0010
0100
0000
1000
0000
,
0010
1000
0000
0001
1000
0000
0100
0000
0010
0001
0000
0001
1000
0000
0010
0000
,
0100
0001
0000
0100
0010
0000
1000
0000
0010
0100
0000
0010
1000
0000
0001
0000
,
0010
0100
0000
1000
0100
0000
1000
0000
0001
0100
0000
0100
0010
0000
1000
0000
,
0001
0010
0000
0001
1000
0000
0100
0000
0010
0001
0000
0001
0100
0000
0010
0000
,
1000
0001
0000
1000
0010
0000
0100
0000
0001
1000
0000
0010
1000
0000
0100
0000
,
0010
0001
0000
1000
0010
0000
0100
0000
0001
1000
0000
1000
0100
0000
0010
0000
,
0001
1000
0000
0010
0100
0000
0001
0000
1000
0010
0000
1000
0100
0000
0010
0000
,
0001
0100
0000
0010
0100
0000
0001
0000
1000
0010
0000
0100
0001
0000
1000
0000
,
0100
0010
0000
0010
0001
0000
1000
0000
0010
0100
0000
0001
0100
0000
0010
0000
,
1000
0001
0000
0010
0001
0000
0100
0000
0010
1000
0000
0001
0010
0000
0100
0000
,
1000
0010
1000
0001
0100
0010
1000
0000
0001
0010
0100
1000
0010
1000
0001
0000
,
0100
0001
1000
0010
0100
0010
1000
0000
0001
0010
0000
0100
1000
0000
0001
0000
,
1000
0010
0100
0001
1000
0001
0010
0000
0100
1000
0001
0100
0001
1000
0010
0000
,
0100
0001
1000
0100
1000
0010
0100
0000
0001
1000
0000
1000
0010
0000
1000
0000
,
0100
0010
0001
1000
0010
1000
0100
0000
0010
0001
1000
0001
0100
0010
0100
0000
,
0001
1000
0010
1000
0100
0010
0001
0000
1000
0010
0000
1000
0001
0000
0010
0000
,
0100
1000
0001
1000
0010
0100
0010
0000
1000
0100
1000
0001
0100
0010
0100
0000
,
0001
1000
0100
0010
0001
1000
0010
0100
0010
1000
0001
0010
0001
1000
0100
1000
,
0010
0100
0001
1000
0001
0010
0100
0000
1000
0010
1000
0001
0100
0010
0100
0000
,
0001
1000
0010
0100
0010
1000
0001
0000
0010
0100
0000
0100
1000
0000
0010
0000
,
0100
0001
0010
0001
1000
0100
0010
0000
0001
0010
0100
1000
0010
1000
0001
0000
,
0100
0010
0100
0001
1000
0010
1000
0000
0100
0010
0000
0001
0100
0000
0010
0000
,
1000
0100
1000
0001
0100
0010
0100
0000
0001
1000
0010
1000
0001
0100
0010
0000
,
1000
0010
0100
0001
0100
0010
1000
0000
0001
0100
0000
0010
1000
0000
0001
0000
,
1000
0100
0010
0001
0100
0010
0100
0000
0001
1000
0010
1000
0100
0010
0001
0000
,
1000
0100
1000
0010
0100
0001
0100
0000
0010
1000
0000
0001
0100
0000
0010
0000
,
1000
0100
1000
0001
0100
0010
0100
0000
0001
1000
0010
1000
0001
0100
0010
0000
,
1000
0100
1000
0001
0100
0010
1000
0000
0001
0010
0000
0010
0100
0000
1000
0000
,
0001
0100
0010
0100
0001
1000
0010
0000
0100
0001
1000
0100
1000
0010
0100
0000
,
0001
1000
0001
0010
0100
1000
0010
0000
0100
0001
0000
1000
0010
0000
0100
0000
,
0001
0100
0010
1000
0010
0100
0001
0000
1000
0001
0100
0010
1000
0010
0100
0001
,
1000
0010
1000
0100
0010
0001
0100
0010
1000
0001
0100
0001
1000
0010
1000
0100
,
0010
0001
1000
0100
1000
0001
0100
0010
0100
0001
1000
0010
1000
0100
0010
0001
,
1000
0100
1000
0001
0100
0010
0100
0001
1000
0010
0100
0010
1000
0001
0100
0001
,
0010
0100
1000
0010
0100
0001
1000
0010
1000
0001
0100
0001
0010
0100
1000
0001
,
0010
0001
0100
0010
1000
0010
0100
0001
1000
0100
1000
0001
0100
0010
0100
0001
,
1000
0010
1000
0100
0010
0001
0100
0010
0100
0001
1000
0100
1000
0001
0100
0010
,
0100
0001
1000
0010
1000
0100
0010
0001
0100
0010
0100
0001
1000
0001
0010
0100
,
1000
0001
0100
0001
1000
0010
0100
0001
0100
0010
1000
0001
1000
0100
0010
0001
,
1000
0010
1000
0100
0010
0001
0100
0001
1000
0100
1000
0010
0100
0001
0010
0001
,
1000
0100
1000
0010
0100
0001
1000
0100
0010
0001
1000
0001
0010
0100
1000
0010
,
0100
0001
0010
0001
1000
0010
1000
0100
0010
0001
0100
0010
0100
0001
1000
0100
,
1000
0010
0100
0001
0100
0010
1000
0001
0010
0001
0100
0010
0100
0001
1000
0010
,
1000
0100
0010
0001
1000
0100
1000
0001
0010
0001
0100
0010
1000
0010
0100
0001
,
1000
0100
1000
0001
0100
0010
1000
0010
0100
0001
1000
0100
1000
0010
0100
0001
,
1000
0100
0010
0001
1000
0100
1000
0010
0100
0001
0100
0010
1000
0001
1000
0100
,
0010
0001
1000
0100
1000
0010
0100
0010
1000
0001
0010
0001
0100
0010
1000
0010
,
0100
0001
1000
0001
0010
0100
1000
0001
0010
0001
1000
0100
1000
0010
0100
0001
,
1000
0100
1000
0001
0010
0100
1000
0001
0100
0001
1000
0010
0100
0001
0100
0010
,
1000
0001
1000
0100
0010
0001
1000
0100
1000
0010
0100
0001
0100
0010
1000
0001
,
1000
0010
0100
0001
0100
0010
1000
0100
1000
0001
0010
0100
1000
0010
0100
0001
,
0100
0010
1000
0001
0010
0100
1000
0001
0100
0010
1000
0001
0100
0001
1000
0010
,
0100
0010
1000
0001
0010
0001
0100
0010
1000
0001
0100
0001
1000
0100
0010
0001
,
1000
0010
1000
0100
0010
0001
0100
0010
1000
0010
0100
0001
1000
0001
0010
0100
,
1000
0010
0100
0001
1000
0001
0100
0010
0100
0001
1000
0100
1000
0010
0100
0001
,
0100
0010
1000
0001
1000
0010
0100
0010
1000
0001
0010
0100
1000
0001
0100
0001
,
0010
0100
1000
0010
0100
0001
1000
0100
1000
0001
0100
0010
0100
0001
1000
0010
,
1000
0100
0010
0001
0100
0010
1000
0001
0100
0010
0100
0001
1000
0010
1000
0100
,
0010
0001
1000
0010
0100
0001
0100
0010
1000
0001
1000
0100
0010
0001
1000
0010
,
0100
0001
0100
0010
1000
0001
0100
0001
1000
0100
1000
0010
0100
0010
1000
0001
,
0010
0100
1000
0001
0100
0010
1000
0100
1000
0001
0100
0010
1000
0001
0010
0100
,
1000
0010
0100
0001
1000
0100
1000
0010
0100
0001
0100
0010
1000
0001
1000
0010
,
0100
0001
0010
0001
1000
0100
1000
0010
0100
0001
1000
0100
0010
0001
1000
0010
,
1000
0100
0010
0001
1000
0010
0100
0010
1000
0001
0010
0100
1000
0001
0100
0001
,
0010
0100
1000
0001
0100
0010
0100
0001
1000
0010
1000
0100
0010
0001
1000
0100
,
1000
0001
0100
0010
0100
0001
1000
0010
1000
0100
0010
0001
1000
0100
1000
0010
,
0100
0001
0100
0010
1000
0001
1000
0100
0010
0001
0100
0010
1000
0010
0100
0001
,
1000
0100
1000
0010
0100
0001
1000
0100
0010
0001
1000
0100
1000
0010
0100
0001
,
0100
0010
1000
0001
1000
0100
0010
0001
0100
0010
0100
0001
1000
0010
1000
0100
,
0010
0001
1000
0100
1000
0010
0100
0010
1000
0001
0100
0001
0010
0100
1000
0010
,
0100
0001
1000
0100
1000
0001
0010
0100
1000
0010
0100
0010
1000
0001
0100
0001
,
1000
0100
0010
0001
0100
0010
1000
0010
0100
0001
1000
0100
1000
0010
0100
0001
,
1000
0100
0010
0001
1000
0100
1000
0010
0100
0001
0100
0010
1000
0001
0010
0100
,
1000
0010
0100
0010
1000
0001
0100
0001
0010
0100
1000
0010
0100
0001
1000
0100
,
1000
0001
0100
0010
0100
0001
1000
0010
1000
0100
0010
0001
1000
0100
1000
0010
,
0100
0001
0100
0010
1000
0001
1000
0100
0010
0001
0100
0010
0100
0001
1000
0010
,
1000
0001
0100
0010
1000
0010
0100
0001
1000
0010
1000
0100
0010
0001
0100
0010
,
1000
0001
0100
0001
1000
0010
1000
0100
0010
0001
1000
0100
1000
0001
0100
0010
,
0100
0001
1000
0010
1000
0100
0010
0001
1000
0100
1000
0001
0100
0010
0100
0001
,
1000
0010
0100
0010
1000
0001
0100
0001
0010
0100
1000
0010
0100
0001
1000
0010
,
1000
0001
0100
0001
0010
0100
1000
0001
0010
0001
0100
0010
1000
0010
0100
0001
,
1000
0100
1000
0001
0100
0010
0100
0001
1000
0010
1000
0100
0010
0001
0100
0010
,
0100
0001
1000
0100
1000
0001
0100
0010
0100
0001
1000
0010
1000
0100
0010
0001
,
0100
0010
0100
0001
1000
0001
0010
0100
1000
0001
0100
0001
1000
0010
0100
0001
,
0100
0010
1000
0001
1000
0100
0010
0001
1000
0010
1000
0100
0010
0001
0100
0001
,
1000
0100
1000
0010
0100
0001
0010
0001
1000
0100
1000
0010
0100
0001
1000
0100
,
0010
0001
1000
0001
0010
0100
1000
0010
0100
0001
0010
0001
1000
0010
1000
0100
,
0010
0001
0100
0010
0100
0001
1000
0100
1000
0010
0100
0001
0100
0010
1000
0001
,
0010
0001
0100
0010
0100
0001
1000
0010
1000
0100
0010
0001
1000
0100
1000
0001
,
0010
0001
0100
0010
1000
0010
0100
0001
1000
0100
1000
0001
0100
0010
1000
0010
,
0100
0001
1000
0100
1000
0010
0100
0001
1000
0100
0010
0001
1000
0100
1000
0010
,
0100
0001
0100
0010
1000
0001
1000
0100
0010
0001
1000
0100
1000
0010
0100
0010
,
1000
0001
0010
0001
0100
0010
1000
0010
0100
0001
1000
0001
0010
0100
1000
0001
,
0100
0001
0010
0100
1000
0010
0100
0001
1000
0100
1000
0001
0010
0100
1000
0001
,
0100
0001
1000
0010
0100
0001
0100
0010
1000
0001
1000
0100
0010
0001
1000
0100
,
1000
0010
0100
0001
0100
0010
1000
0001
1000
0010
0100
0001
0100
0010
1000
0100
,
1000
0001
0010
0100
1000
0010
0100
0001
0100
0010
1000
0001
0010
0100
1000
0001
,
0100
0010
1000
0001
0100
0001
1000
0010
0100
0010
1000
0001
0010
0001
0100
0010
,
1000
0001
0100
0001
1000
0100
0010
0001
1000
0010
1000
0100
0010
0001
0100
0010
,
1000
0010
0100
0001
1000
0001
0010
0100
1000
0010
0100
0001
1000
0001
0100
0010
,
0100
0001
1000
0100
1000
0010
0100
0001
0100
0010
1000
0001
1000
0010
0100
0010
,
1000
0001
0010
0100
1000
0001
0100
0001
0010
0100
1000
0010
0100
0001
1000
0100
,
1000
0001
0100
0010
0100
0001
1000
0010
1000
0100
0010
0001
0100
0010
1000
0001
,
0100
0010
0100
0001
1000
0010
1000
0100
0010
0001
1000
0010
0100
0001
0100
0010
,
1000
0001
1000
0100
0010
0001
1000
0010
0100
0001
0100
0010
1000
0001
0100
0001
,
1000
0100
1000
0010
0100
0010
1000
0001
0010
0100
1000
0001
0100
0010
1000
0100
,
1000
0001
0100
0010
1000
0001
0010
0100
1000
0010
0100
0001
1000
0100
1000
0010
,
0100
0001
0100
0010
1000
0001
1000
0010
0100
0001
0010
0001
1000
0100
1000
0010
,
0100
0001
1000
0100
0010
0001
0100
0000
0010
1000
0010
0100
0001
1000
0100
0000
,
0010
0001
1000
0010
1000
0100
0010
0000
0001
0010
0100
1000
0001
0100
0010
0100
,
0001
1000
0001
0000
0010
0000
0100
0000
1000
0010
1000
0000
0001
0000
1000
0000
0010
0100
0010
0000
1000
0000
0001
0000
1000
0100
1000
0000
0010
0000
0100
0000
,
0001
1000
0001
0000
0010
0000
0100
0000
1000
0000
0010
0000
0100
0000
0001
0000
0100
0000
0010
0000
1000
0000
0001
0000
0010
0000
0100
0000
1000
0000
0001
0000
,
1000
0010
0100
0001
0010
0001
1000
0010
1000
0001
0100
0001
0010
0100
1000
0001
,
0010
0001
0100
0010
1000
0010
0100
0001
1000
0100
1000
0001
0100
0010
0100
0001
,
1000
0010
1000
0100
0010
0001
0100
0010
0100
0001
1000
0100
1000
0001
0100
0010
,
0100
0001
1000
0010
1000
0100
0010
0001
0100
0010
0100
0001
1000
0001
0010
0100
,
1000
0001
0100
0001
1000
0010
0100
0001
0100
0010
1000
0001
1000
0100
0010
0001
,
1000
0010
1000
0100
0010
0001
0100
0001
1000
0100
1000
0010
0100
0001
0010
0001
,
1000
0100
1000
0010
0100
0001
1000
0100
0010
0001
0100
0001
1000
0010
1000
0100
,
0010
0001
0100
0001
1000
0010
1000
0100
0010
0001
0100
0010
0100
0001
1000
0100
,
1000
0010
0100
0001
0100
0010
1000
0001
0010
0001
0100
0010
0100
0001
1000
0010
,
1000
0100
0010
0001
1000
0100
1000
0001
0010
0001
0100
0010
1000
0010
0100
0001
,
1000
0100
1000
0001
0100
0010
0100
0001
0010
0001
1000
0100
1000
0010
0100
0001
,
1000
0100
0010
0001
1000
0100
1000
0010
0100
0001
0100
0010
1000
0001
1000
0100
,
0010
0001
1000
0100
1000
0010
0100
0010
1000
0001
0010
0001
0100
0010
1000
0010
,
0100
0001
1000
0001
0010
0100
1000
0001
0010
0001
1000
0100
1000
0010
0100
0001
,
1000
0100
1000
0001
0010
0100
1000
0001
0100
0001
1000
0010
0100
0001
0100
0010
,
1000
0001
1000
0100
0010
0001
1000
0100
1000
0010
0100
0001
0100
0010
1000
0001
,
1000
0010
0100
0001
0100
0010
1000
0100
1000
0001
0010
0100
1000
0010
0100
0001
,
1000
0010
0100
0001
0010
0100
1000
0001
0100
0010
0100
0001
0010
0001
1000
0100
,
0010
0001
1000
0010
0100
0001
0100
0010
1000
0001
0100
0001
1000
0100
0010
0001
,
1000
0010
1000
0100
0010
0001
0100
0010
1000
0010
0100
0001
1000
0001
0010
0100
,
1000
0010
0100
0001
1000
0001
0100
0010
0100
0001
1000
0100
1000
0010
0100
0001
,
0100
0010
1000
0001
1000
0010
0100
0010
1000
0001
0010
0100
1000
0001
0100
0001
,
0010
0100
1000
0010
0100
0001
1000
0100
1000
0001
0100
0010
0100
0001
1000
0010
,
1000
0100
0010
0001
0100
0010
1000
0001
0100
0010
0100
0001
1000
0010
1000
0100
,
0010
0001
1000
0010
0100
0001
0100
0010
1000
0001
1000
0100
0010
0001
1000
0010
,
0100
0001
0100
0000
0010
0000
1000
0000
0001
0010
0001
0000
0100
0000
0010
0000
1000
0001
1000
0000
0010
0100
0010
0000
1000
0000
0001
0100
0001
0000
1000
0000
,
0010
0000
0100
0000
0010
0000
0100
0000
0000
0001
0000
0000
1000
0000
0100
0000
1000
0000
0100
0000
0000
0010
0000
0000
0001
0000
1000
0000
0010
0000
1000
0000
0100
0000
0010
0000
0001
0000
0100
0000
0010
0000
0100
0000
0001
0000
1000
0000
,
0020
0030
0400
0300
0002
0003
2000
3000
0400
0300
2000
3000
0020
0030
0400
0300
,
0002
0003
4000
3000
0200
0300
0020
0030
0004
0003
2000
3000
0020
0030
4000
3000
,
0002
0003
0200
0300
0020
0030
0200
0300
0004
0003
2000
3000
0200
0300
4000
3000
,
0002
0003
0020
0030
0004
0003
0200
0300
0040
0030
2000
3000
0002
0003
0040
0030
,
0200
0300
4000
3000
0002
0003
0200
0300
0040
0030
0200
0300
0002
0003
4000
3000
,
0200
0300
4000
3000
0020
0030
0200
0300
0004
0003
2000
3000
0200
0300
4000
3000
,
0002
0003
0200
0300
0020
0030
2000
3000
0004
0003
0020
0030
0200
0300
4000
3000
,
0002
0003
0200
0300
0040
0030
0200
0300
0004
0003
2000
3000
0200
0300
0040
0030
,
0002
1000
0000
1000
,
0000
1000
2003
3020
,
0230
0001
0000
0001
,
0302
0023
0230
2300
,
3020
0030
0400
0300
0020
0030
2000
3000
0004
0003
0020
0030
0002
0003
4000
3000
,
0010
0100
0001
1000
0100
0010
0001
1000
0100
1000
0010
0100
0001
1000
0100
0010
,
0001
1000
0010
0100
0010
1000
0001
0010
0001
0100
0010
1000
0001
0010
0100
1000
,
0010
0100
0001
1000
0100
1000
0010
0100
0001
1000
0100
1000
0010
0100
0001
0100
,
0010
1000
0001
1000
0100
0010
0001
1000
0010
0100
0001
0100
0010
1000
0001
0010
,
0100
1000
0001
1000
0010
0100
0001
0100
0010
1000
0001
1000
0100
0010
0001
1000
,
0010
1000
0100
0010
0001
1000
0100
1000
0010
0100
0001
1000
0100
0010
0001
0100
,
0010
0100
0001
1000
0010
0100
0001
1000
0100
0010
0001
0100
0001
1000
0010
0100
,
0002
0000
0003
0000
0002
0000
0003
0000
1000
0100
0010
0001
1000
0010
0100
0001
,
0010
0100
1000
0010
0100
0001
0100
0010
1000
0001
0100
0001
0010
0100
1000
0010
,
1000
0001
0100
0001
1000
0010
0100
0001
1000
0100
1000
0001
0100
0010
0100
0001
,
1000
0010
1000
0100
0010
0001
0100
0010
0100
0001
1000
0100
1000
0001
0100
0010
,
0100
0001
1000
0010
1000
0100
0010
0001
0100
0010
0100
0001
1000
0001
0010
0100
,
1000
0001
0100
0001
1000
0010
0100
0001
0100
0010
1000
0001
1000
0100
0010
0001
,
1000
0010
1000
0100
0010
0001
0100
0001
1000
0100
1000
0010
0100
0001
0010
0001
,
1000
0100
1000
0010
0100
0001
1000
0100
0010
0001
1000
0001
0010
0100
1000
0010
,
0100
0001
0010
0001
1000
0010
1000
0100
0010
0001
0100
0010
0100
0001
1000
0100
,
1000
0010
0100
0001
0100
0010
1000
0001
0010
0001
0100
0010
0100
0001
1000
0010
,
1000
0100
0010
0001
1000
0100
1000
0001
0010
0001
0100
0010
1000
0010
0100
0001
,
1000
0100
1000
0001
0100
0010
1000
0010
0100
0001
1000
0100
1000
0010
0100
0001
,
1000
0100
0010
0001
1000
0100
1000
0010
0100
0001
0100
0010
1000
0001
1000
0100
,
0010
0001
1000
0100
1000
0010
0100
0010
1000
0001
0010
0001
0100
0010
1000
0010
,
0100
0001
1000
0001
0010
0100
1000
0001
0010
0001
1000
0100
1000
0010
0100
0001
,
1000
0100
1000
0001
0010
0100
1000
0001
0100
0001
1000
0010
0100
0001
0100
0010
,
1000
0001
1000
0100
0010
0001
1000
0100
1000
0010
0100
0001
0100
0010
1000
0001
,
1000
0010
0100
0001
0100
0010
1000
0100
1000
0001
0010
0100
1000
0010
0100
0001
,
0100
0010
1000
0001
0010
0100
1000
0001
0100
0010
1000
0001
0100
0001
1000
0010
,
0100
0010
1000
0001
0010
0001
0100
0010
1000
0001
0100
0001
1000
0100
0010
0001
,
1000
0010
1000
0100
0010
0001
0100
0010
1000
0010
0100
0001
1000
0001
0010
0100
,
1000
0010
0100
0001
1000
0001
0100
0010
0100
0001
1000
0100
1000
0010
0100
0001
,
0100
0010
1000
0001
1000
0010
0100
0010
1000
0001
0010
0100
1000
0001
0100
0001
,
0010
0100
1000
0010
0100
0001
1000
0100
1000
0001
0100
0010
0100
0001
1000
0010
,
1000
0100
0010
0001
0100
0010
1000
0001
0100
0010
0100
0001
1000
0010
1000
0100
,
0010
0001
1000
0010
0100
0001
0100
0010
1000
0001
1000
0100
0010
0001
1000
0010
,
0100
0001
0100
0010
1000
0001
0100
0001
1000
0100
1000
0010
0100
0010
1000
0001
,
0010
0100
1000
0001
0100
0010
1000
0100
1000
0001
0100
0010
1000
0001
0010
0100
,
1000
0010
0100
0001
1000
0100
1000
0010
0100
0001
0100
0010
1000
0001
1000
0010
,
0100
0001
0010
0001
1000
0100
1000
0010
0100
0001
1000
0100
0010
0001
1000
0010
,
1000
0100
0010
0001
1000
0010
0100
0010
1000
0001
0010
0100
1000
0001
0100
0001
,
0010
0100
1000
0001
0100
0010
0100
0001
1000
0010
1000
0100
0010
0001
1000
0100
,
1000
0001
0100
0010
0100
0001
1000
0010
1000
0100
0010
0001
1000
0100
1000
0010
,
0100
0001
0100
0010
1000
0001
1000
0100
0010
0001
0100
0010
1000
0010
0100
0001
,
1000
0100
1000
0010
0100
0001
1000
0100
0010
0001
1000
0100
1000
0010
0100
0001
,
0100
0010
1000
0001
1000
0100
0010
0001
0100
0010
0100
0001
1000
0010
1000
0100
,
0010
0001
1000
0100
1000
0010
0100
0010
1000
0001
0100
0001
0010
0100
1000
0010
,
0100
0001
0100
0000
0010
0000
1000
0000
0001
0010
0001
0000
0100
0000
0010
0000
1000
0001
1000
0000
0010
0100
0010
0000
1000
0000
0001
0010
0001
0000
0100
0000
,
0010
0000
1000
0000
0010
0000
1000
0000
0000
0001
0000
0000
0010
0000
0100
0000
0010
0000
0100
0000
0000
1000
0000
0000
0001
0000
0100
0000
0010
0000
1000
0000
0010
0000
0100
0000
0001
0000
1000
0000
0010
0000
1000
0000
0001
0000
0100
0000
,
0001
0010
0100
1000
0010
0100
0001
1000
0010
1000
0001
0100
0001
0010
0100
1000
,
0001
0010
0001
0100
0010
1000
0010
0100
0001
1000
0100
1000
0001
0100
0010
0100
,
0001
1000
0010
1000
0100
0010
0001
0100
0010
0100
0001
1000
0100
1000
0001
0100
,
0010
0100
0001
1000
0010
1000
0100
0010
0001
0100
0010
0100
0001
1000
0001
0010
,
0100
1000
0001
0100
0001
1000
0010
0100
0001
0100
0010
1000
0001
1000
0100
0010
,
0001
1000
0010
1000
0100
0010
0001
0100
0001
1000
0100
1000
0010
0100
0001
0010
,
0001
1000
0100
1000
0010
0100
0001
1000
0100
0010
0001
1000
0001
0010
0100
1000
,
0010
0100
0001
0010
0001
1000
0010
1000
0100
0010
0001
0100
0010
0100
0001
1000
,
0100
1000
0010
0100
0001
0100
0010
1000
0001
0010
0001
0100
0010
0100
0001
1000
,
0010
1000
0100
0010
0001
1000
0100
1000
0001
0010
0001
0100
0010
1000
0010
0100
,
0001
1000
0100
1000
0001
0100
0010
1000
0010
0100
0001
1000
0100
1000
0010
0100
,
0001
1000
0100
0010
0001
1000
0100
1000
0010
0100
0001
0100
0010
1000
0001
1000
,
0100
0010
0001
1000
0100
1000
0010
0100
0010
1000
0001
0010
0001
0100
0010
1000
,
0010
0100
0001
1000
0001
0010
0100
1000
0001
0010
0001
1000
0100
1000
0010
0100
,
0001
1000
0100
1000
0001
0010
0100
1000
0001
0100
0001
1000
0010
0100
0001
0100
,
0010
1000
0001
1000
0100
0010
0001
1000
0100
1000
0010
0100
0001
0100
0010
1000
,
0001
1000
0010
0100
0001
0100
0010
1000
0100
1000
0001
0010
0100
1000
0010
0100
,
0001
0100
0010
1000
0001
0010
0100
1000
0001
0100
0010
1000
0001
0100
0001
1000
,
0010
0100
0010
1000
0001
0010
0001
0100
0010
1000
0001
0100
0001
1000
0100
0010
,
0001
1000
0010
1000
0100
0010
0001
0100
0010
1000
0010
0100
0001
1000
0001
0010
,
0100
1000
0010
0100
0001
1000
0001
0100
0010
0100
0001
1000
0100
1000
0010
0100
,
0001
0100
0010
1000
0001
1000
0010
0100
0010
1000
0001
0010
0100
1000
0001
0100
,
0001
0010
0100
1000
0010
0100
0001
1000
0100
1000
0001
0100
0010
0100
0001
1000
,
0010
1000
0100
0010
0001
0100
0010
1000
0001
0100
0010
0100
0001
1000
0010
1000
,
0100
0010
0000
0010
0001
0000
1000
0000
0001
0100
0000
0010
0100
0000
0001
0000
,
1000
0010
0000
0100
0001
0000
1000
0000
0100
0010
0000
0010
0001
0000
1000
0000
,
0010
0100
0000
0001
0100
0000
0010
0000
1000
0001
0000
0010
0001
0000
0100
0000
,
0010
1000
0000
0001
0010
0100
1000
0001
0100
0010
1000
0010
0100
0001
1000
0100
,
0020
0000
0000
0000
,
0000
0000
0000
0000
,
0000
0030
0000
0000
0000
0000
0000
0000
0000
0000
0000
0000
0000
0000
0000
0000
;

//---------------dance-single - 14 (owenviau1)----------------
#NOTES:
     dance-single:
     14 (owenviau1):
     Challenge:
     14:
     1.000,1.000,0.002,0.174,1.000,3430.000,1.000,70.000,0.000,0.000:

1000
0010
0000
0100
0001
0000
1000
0000
0010
1000
0000
0001
0100
0000
0010
0000
,
1000
0001
0000
1000
0010
0000
0100
0000
0001
0010
0000
0100
1000
0000
0010
0000
,
1000
0100
0000
1000
0001
0000
0100
0000
0010
1000
0000
0001
0100
0000
0010
0000
,
1000
0100
0000
1000
0001
0000
0100
0000
0010
1000
0000
0001
0010
0000
0100
0000
,
1000
0100
0000
1000
0010
0000
0100
0000
0001
1000
0000
1000
0010
0000
0100
0000
,
0001
0100
0000
0010
1000
0000
0100
0000
1000
0001
0000
0010
0100
0000
1000
0000
,
0010
1000
0000
0001
1000
0000
0100
0000
0010
0001
0000
0001
1000
0000
0010
0000
,
0100
0001
0000
0100
0010
0000
1000
0000
0010
0100
0000
0010
1000
0000
0001
0000
,
0010
0100
0000
1000
0100
0000
1000
0000
0001
0100
0000
0100
0010
0000
1000
0000
,
0001
0010
0000
0001
1000
0000
0100
0000
0010
0001
0000
0001
0100
0000
0010
0000
,
1000
0001
0000
1000
0010
0000
0100
0000
0001
1000
0000
0010
1000
0000
0100
0000
,
0010
0001
0000
1000
0010
0000
0100
0000
0001
1000
0000
1000
0100
0000
0010
0000
,
0001
1000
0000
0010
0100
0000
0001
0000
1000
0010
0000
1000
0100
0000
0010
0000
,
0001
0100
0000
0010
0100
0000
0001
0000
1000
0010
0000
0100
0001
0000
1000
0000
,
0100
0010
0000
0010
0001
0000
1000
0000
0010
0100
0000
0001
0100
0000
0010
0000
,
1000
0001
0000
0010
0001
0000
0100
0000
0010
1000
0000
0001
0010
0000
0100
0000
,
1000
0010
1000
0001
0100
0010
1000
0000
0001
0010
0100
1000
0010
1000
0001
0000
,
0100
0001
1000
0010
0100
0010
1000
0000
0001
0010
0000
0100
1000
0000
0001
0000
,
1000
0010
0100
0001
1000
0001
0010
0000
0100
1000
0001
0100
0001
1000
0010
0000
,
0100
0001
1000
0100
1000
0010
0100
0000
0001
1000
0000
1000
0010
0000
1000
0000
,
0100
0010
0001
1000
0010
1000
0100
0000
0010
0001
1000
0001
0100
0010
0100
0000
,
0001
1000
0010
1000
0100
0010
0001
0000
1000
0010
0000
1000
0001
0000
0010
0000
,
0100
1000
0001
1000
0010
0100
0010
0000
1000
0100
1000
0001
0100
0010
0100
0000
,
0001
1000
0100
0010
0001
1000
0010
0100
0010
1000
0001
0010
0001
1000
0100
1000
,
0010
0100
0001
1000
0001
0010
0100
0000
1000
0010
1000
0001
0100
0010
0100
0000
,
0001
1000
0010
0100
0010
1000
0001
0000
0010
0100
0000
0100
1000
0000
0010
0000
,
0100
0001
0010
0001
1000
0100
0010
0000
0001
0010
0100
1000
0010
1000
0001
0000
,
0100
0010
0100
0001
1000
0010
1000
0000
0100
0010
0000
0001
0100
0000
0010
0000
,
1000
0100
1000
0001
0100
0010
0100
0000
0001
1000
0010
1000
0001
0100
0010
0000
,
1000
0010
0100
0001
0100
0010
1000
0000
0001
0100
0000
0010
1000
0000
0001
0000
,
1000
0100
0010
0001
0100
0010
0100
0000
0001
1000
0010
1000
0100
0010
0001
0000
,
1000
0100
1000
0010
0100
0001
0100
0000
0010
1000
0000
0001
0100
0000
0010
0000
,
1000
0100
1000
0001
0100
0010
0100
0000
0001
1000
0010
1000
0001
0100
0010
0000
,
1000
0100
1000
0001
0100
0010
1000
0000
0001
0010
0000
0010
0100
0000
1000
0000
,
0001
0100
0010
0100
0001
1000
0010
0000
0100
0001
1000
0100
1000
0010
0100
0000
,
0001
1000
0001
0010
0100
1000
0010
0000
0100
0001
0000
1000
0010
0000
0100
0000
,
0001
0100
0010
1000
0010
0100
0001
0000
1000
0001
0100
0010
1000
0010
0100
0001
,
1000
0010
1000
0100
0010
0001
0100
0010
1000
0001
0100
0001
1000
0010
1000
0100
,
0010
0001
1000
0100
1000
0001
0100
0010
0100
0001
1000
0010
1000
0100
0010
0001
,
1000
0100
1000
0001
0100
0010
0100
0001
1000
0010
0100
0010
1000
0001
0100
0001
,
0010
0100
1000
0010
0100
0001
1000
0010
1000
0001
0100
0001
0010
0100
1000
0001
,
0010
0001
0100
0010
1000
0010
0100
0001
1000
0100
1000
0001
0100
0010
0100
0001
,
1000
0010
1000
0100
0010
0001
0100
0010
0100
0001
1000
0100
1000
0001
0100
0010
,
0100
0001
1000
0010
1000
0100
0010
0001
0100
0010
0100
0001
1000
0001
0010
0100
,
1000
0001
0100
0001
1000
0010
0100
0001
0100
0010
1000
0001
1000
0100
0010
0001
,
1000
0010
1000
0100
0010
0001
0100
0001
1000
0100
1000
0010
0100
0001
0010
0001
,
1000
0100
1000
0010
0100
0001
1000
0100
0010
0001
1000
0001
0010
0100
1000
0010
,
0100
0001
0010
0001
1000
0010
1000
0100
0010
0001
0100
0010
0100
0001
1000
0100
,
1000
0010
0100
0001
0100
0010
1000
0001
0010
0001
0100
0010
0100
0001
1000
0010
,
1000
0100
0010
0001
1000
0100
1000
0001
0010
0001
0100
0010
1000
0010
0100
0001
,
1000
0100
1000
0001
0100
0010
1000
0010
0100
0001
1000
0100
1000
0010
0100
0001
,
1000
0100
0010
0001
1000
0100
1000
0010
0100
0001
0100
0010
1000
0001
1000
0100
,
0010
0001
1000
0100
1000
0010
0100
0010
1000
0001
0010
0001
0100
0010
1000
0010
,
0100
0001
1000
0001
0010
0100
1000
0001
0010
0001
1000
0100
1000
0010
0100
0001
,
1000
0100
1000
0001
0010
0100
1000
0001
0100
0001
1000
0010
0100
0001
0100
0010
,
1000
0001
1000
0100
0010
0001
1000
0100
1000
0010
0100
0001
0100
0010
1000
0001
,
1000
0010
0100
0001
0100
0010
1000
0100
1000
0001
0010
0100
1000
0010
0100
0001
,
0100
0010
1000
0001
0010
0100
1000
0001
0100
0010
1000
0001
0100
0001
1000
0010
,
0100
0010
1000
0001
0010
0001
0100
0010
1000
0001
0100
0001
1000
0100
0010
0001
,
1000
0010
1000
0100
0010
0001
0100
0010
1000
0010
0100
0001
1000
0001
0010
0100
,
1000
0010
0100
0001
1000
0001
0100
0010
0100
0001
1000
0100
1000
0010
0100
0001
,
0100
0010
1000
0001
1000
0010
0100
0010
1000
0001
0010
0100
1000
0001
0100
0001
,
0010
0100
1000
0010
0100
0001
1000
0100
1000
0001
0100
0010
0100
0001
1000
0010
,
1000
0100
0010
0001
0100
0010
1000
0001
0100
0010
0100
0001
1000
0010
1000
0100
,
0010
0001
1000
0010
0100
0001
0100
0010
1000
0001
1000
0100
0010
0001
1000
0010
,
0100
0001
0100
0010
1000
0001
0100
0001
1000
0100
1000
0010
0100
0010
1000
0001
,
0010
0100
1000
0001
0100
0010
1000
0100
1000
0001
0100
0010
1000
0001
0010
0100
,
1000
0010
0100
0001
1000
0100
1000
0010
0100
0001
0100
0010
1000
0001
1000
0010
,
0100
0001
0010
0001
1000
0100
1000
0010
0100
0001
1000
0100
0010
0001
1000
0010
,
1000
0100
0010
0001
1000
0010
0100
0010
1000
0001
0010
0100
1000
0001
0100
0001
,
0010
0100
1000
0001
0100
0010
0100
0001
1000
0010
1000
0100
0010
0001
1000
0100
,
1000
0001
0100
0010
0100
0001
1000
0010
1000
0100
0010
0001
1000
0100
1000
0010
,
0100
0001
0100
0010
1000
0001
1000
0100
0010
0001
0100
0010
1000
0010
0100
0001
,
1000
0100
1000
0010
0100
0001
1000
0100
0010
0001
1000
0100
1000
0010
0100
0001
,
0100
0010
1000
0001
1000
0100
0010
0001
0100
0010
0100
0001
1000
0010
1000
0100
,
0010
0001
1000
0100
1000
0010
0100
0010
1000
0001
0100
0001
0010
0100
1000
0010
,
0100
0001
1000
0100
1000
0001
0010
0100
1000
0010
0100
0010
1000
0001
0100
0001
,
1000
0100
0010
0001
0100
0010
1000
0010
0100
0001
1000
0100
1000
0010
0100
0001
,
1000
0100
0010
0001
1000
0100
1000
0010
0100
0001
0100
0010
1000
0001
0010
0100
,
1000
0010
0100
0010
1000
0001
0100
0001
0010
0100
1000
0010
0100
0001
1000
0100
,
1000
0001
0100
0010
0100
0001
1000
0010
1000
0100
0010
0001
1000
0100
1000
0010
,
0100
0001
0100
0010
1000
0001
1000
0100
0010
0001
0100
0010
0100
0001
1000
0010
,
1000
0001
0100
0010
1000
0010
0100
0001
1000
0010
1000
0100
0010
0001
0100
0010
,
1000
0001
0100
0001
1000
0010
1000
0100
0010
0001
1000
0100
1000
0001
0100
0010
,
0100
0001
1000
0010
1000
0100
0010
0001
1000
0100
1000
0001
0100
0010
0100
0001
,
1000
0010
0100
0010
1000
0001
0100
0001
0010
0100
1000
0010
0100
0001
1000
0010
,
1000
0001
0100
0001
0010
0100
1000
0001
0010
0001
0100
0010
1000
0010
0100
0001
,
1000
0100
1000
0001
0100
0010
0100
0001
1000
0010
1000
0100
0010
0001
0100
0010
,
0100
0001
1000
0100
1000
0001
0100
0010
0100
0001
1000
0010
1000
0100
0010
0001
,
0100
0010
0100
0001
1000
0001
0010
0100
1000
0001
0100
0001
1000
0010
0100
0001
,
0100
0010
1000
0001
1000
0100
0010
0001
1000
0010
1000
0100
0010
0001
0100
0001
,
1000
0100
1000
0010
0100
0001
0010
0001
1000
0100
1000
0010
0100
0001
1000
0100
,
0010
0001
1000
0001
0010
0100
1000
0010
0100
0001
0010
0001
1000
0010
1000
0100
,
0010
0001
0100
0010
0100
0001
1000
0100
1000
0010
0100
0001
0100
0010
1000
0001
,
0010
0001
0100
0010
0100
0001
1000
0010
1000
0100
0010
0001
1000
0100
1000
0001
,
0010
0001
0100
0010
1000
0010
0100
0001
1000
0100
1000
0001
0100
0010
1000
0010
,
0100
0001
1000
0100
1000
0010
0100
0001
1000
0100
0010
0001
1000
0100
1000
0010
,
0100
0001
0100
0010
1000
0001
1000
0100
0010
0001
1000
0100
1000
0010
0100
0010
,
1000
0001
0010
0001
0100
0010
1000
0010
0100
0001
1000
0001
0010
0100
1000
0001
,
0100
0001
0010
0100
1000
0010
0100
0001
1000
0100
1000
0001
0010
0100
1000
0001
,
0100
0001
1000
0010
0100
0001
0100
0010
1000
0001
1000
0100
0010
0001
1000
0100
,
1000
0010
0100
0001
0100
0010
1000
0001
1000
0010
0100
0001
0100
0010
1000
0100
,
1000
0001
0010
0100
1000
0010
0100
0001
0100
0010
1000
0001
0010
0100
1000
0001
,
0100
0010
1000
0001
0100
0001
1000
0010
0100
0010
1000
0001
0010
0001
0100
0010
,
1000
0001
0100
0001
1000
0100
0010
0001
1000
0010
1000
0100
0010
0001
0100
0010
,
1000
0010
0100
0001
1000
0001
0010
0100
1000
0010
0100
0001
1000
0001
0100
0010
,
0100
0001
1000
0100
1000
0010
0100
0001
0100
0010
1000
0001
1000
0010
0100
0010
,
1000
0001
0010
0100
1000
0001
0100
0001
0010
0100
1000
0010
0100
0001
1000
0100
,
1000
0001
0100
0010
0100
0001
1000
0010
1000
0100
0010
0001
0100
0010
1000
0001
,
0100
0010
0100
0001
1000
0010
1000
0100
0010
0001
1000
0010
0100
0001
0100
0010
,
1000
0001
1000
0100
0010
0001
1000
0010
0100
0001
0100
0010
1000
0001
0100
0001
,
1000
0100
1000
0010
0100
0010
1000
0001
0010
0100
1000
0001
0100
0010
1000
0100
,
1000
0001
0100
0010
1000
0001
0010
0100
1000
0010
0100
0001
1000
0100
1000
0010
,
0100
0001
0100
0010
1000
0001
1000
0010
0100
0001
0010
0001
1000
0100
1000
0010
,
0100
0001
1000
0100
0010
0001
0100
0000
0010
1000
0010
0100
0001
1000
0100
0000
,
0010
0001
1000
0010
1000
0100
0010
0000
0001
0010
0100
1000
0001
0100
0010
0100
,
0001
1000
0001
0000
0010
0000
0100
0000
1000
0010
1000
0000
0001
0000
1000
0000
0010
0100
0010
0000
1000
0000
0001
0000
1000
0100
1000
0000
0010
0000
0100
0000
,
0001
1000
0001
0000
0010
0000
0100
0000
1000
0000
0010
0000
0100
0000
0001
0000
0100
0000
0010
0000
1000
0000
0001
0000
0010
0000
0100
0000
1000
0000
0001
0000
,
1000
0010
0100
0001
0010
0001
1000
0010
1000
0001
0100
0001
0010
0100
1000
0001
,
0010
0001
0100
0010
1000
0010
0100
0001
1000
0100
1000
0001
0100
0010
0100
0001
,
1000
0010
1000
0100
0010
0001
0100
0010
0100
0001
1000
0100
1000
0001
0100
0010
,
0100
0001
1000
0010
1000
0100
0010
0001
0100
0010
0100
0001
1000
0001
0010
0100
,
1000
0001
0100
0001
1000
0010
0100
0001
0100
0010
1000
0001
1000
0100
0010
0001
,
1000
0010
1000
0100
0010
0001
0100
0001
1000
0100
1000
0010
0100
0001
0010
0001
,
1000
0100
1000
0010
0100
0001
1000
0100
0010
0001
0100
0001
1000
0010
1000
0100
,
0010
0001
0100
0001
1000
0010
1000
0100
0010
0001
0100
0010
0100
0001
1000
0100
,
1000
0010
0100
0001
0100
0010
1000
0001
0010
0001
0100
0010
0100
0001
1000
0010
,
1000
0100
0010
0001
1000
0100
1000
0001
0010
0001
0100
0010
1000
0010
0100
0001
,
1000
0100
1000
0001
0100
0010
0100
0001
0010
0001
1000
0100
1000
0010
0100
0001
,
1000
0100
0010
0001
1000
0100
1000
0010
0100
0001
0100
0010
1000
0001
1000
0100
,
0010
0001
1000
0100
1000
0010
0100
0010
1000
0001
0010
0001
0100
0010
1000
0010
,
0100
0001
1000
0001
0010
0100
1000
0001
0010
0001
1000
0100
1000
0010
0100
0001
,
1000
0100
1000
0001
0010
0100
1000
0001
0100
0001
1000
0010
0100
0001
0100
0010
,
1000
0001
1000
0100
0010
0001
1000
0100
1000
0010
0100
0001
0100
0010
1000
0001
,
1000
0010
0100
0001
0100
0010
1000
0100
1000
0001
0010
0100
1000
0010
0100
0001
,
1000
0010
0100
0001
0010
0100
1000
0001
0100
0010
0100
0001
0010
0001
1000
0100
,
0010
0001
1000
0010
0100
0001
0100
0010
1000
0001
0100
0001
1000
0100
0010
0001
,
1000
0010
1000
0100
0010
0001
0100
0010
1000
0010
0100
0001
1000
0001
0010
0100
,
1000
0010
0100
0001
1000
0001
0100
0010
0100
0001
1000
0100
1000
0010
0100
0001
,
0100
0010
1000
0001
1000
0010
0100
0010
1000
0001
0010
0100
1000
0001
0100
0001
,
0010
0100
1000
0010
0100
0001
1000
0100
1000
0001
0100
0010
0100
0001
1000
0010
,
1000
0100
0010
0001
0100
0010
1000
0001
0100
0010
0100
0001
1000
0010
1000
0100
,
0010
0001
1000
0010
0100
0001
0100
0010
1000
0001
1000
0100
0010
0001
1000
0010
,
0100
0001
0100
0000
0010
0000
1000
0000
0001
0010
0001
0000
0100
0000
0010
0000
1000
0001
1000
0000
0010
0100
0010
0000
1000
0000
0001
0100
0001
0000
1000
0000
,
0010
0100
0001
1000
0001
0000
0010
0000
0100
1000
0001
1000
0010
0000
0100
0000
0001
1000
0010
1000
0001
0100
0010
1000
0010
0100
0001
1000
0100
0010
0001
1000
,
0020
0030
0400
0300
0002
0003
2000
3000
0400
0300
2000
3000
0020
0030
0400
0300
,
0002
0003
4000
3000
0200
0300
0020
0030
0004
0003
2000
3000
0020
0030
4000
3000
,
0002
0003
0200
0300
0020
0030
0200
0300
0004
0003
2000
3000
0200
0300
4000
3000
,
0002
0003
0020
0030
0004
0003
0200
0300
0040
0030
2000
3000
0002
0003
0040
0030
,
0200
0300
4000
3000
0002
0003
0200
0300
0040
0030
0200
0300
0002
0003
4000
3000
,
0200
0300
4000
3000
0020
0030
0200
0300
0004
0003
2000
3000
0200
0300
4000
3000
,
0002
0003
0200
0300
0020
0030
2000
3000
0004
0003
0020
0030
0200
0300
4000
3000
,
0002
0003
0200
0300
0040
0030
0200
0300
0004
0003
2000
3000
0200
0300
0040
0030
,
1002
0003
4000
3000
0002
0003
0020
0030
0400
0300
2000
3000
0020
0030
0400
0300
,
0002
0003
4000
3000
0200
0300
0020
0030
0004
0003
2000
3000
0020
0030
4000
3000
,
0002
0003
0200
0300
0040
0030
0200
0300
0004
0003
2000
3000
0200
0300
4000
3000
,
0002
0003
0020
0030
0004
0003
0200
0300
0040
0030
2000
3000
0002
0003
0040
0030
,
0200
0300
4000
3000
0020
0030
2000
3000
0004
0003
0020
0030
0002
0003
4000
3000
,
0010
0100
0001
1000
0100
0010
0001
1000
0100
1000
0010
0100
0001
1000
0100
0010
,
0001
1000
0010
0100
0010
1000
0001
0010
0001
0100
0010
1000
0001
0010
0100
1000
,
0010
0100
0001
1000
0100
1000
0010
0100
0001
1000
0100
1000
0010
0100
0001
0100
,
0010
1000
0001
1000
0100
0010
0001
1000
0010
0100
0001
0100
0010
1000
0001
0010
,
0100
1000
0001
1000
0010
0100
0001
0100
0010
1000
0001
1000
0100
0010
0001
1000
,
0010
1000
0100
0010
0001
1000
0100
1000
0010
0100
0001
1000
0100
0010
0001
0100
,
0010
0100
0001
1000
0010
0100
0001
1000
0100
0010
0001
0100
0001
1000
0010
0100
,
0002
0000
0003
0000
0002
0000
0003
0000
1000
0100
0010
0001
1000
0010
0100
0001
,
0010
0100
1000
0010
0100
0001
0100
0010
1000
0001
0100
0001
0010
0100
1000
0010
,
1000
0001
0100
0001
1000
0010
0100
0001
1000
0100
1000
0001
0100
0010
0100
0001
,
1000
0010
1000
0100
0010
0001
0100
0010
0100
0001
1000
0100
1000
0001
0100
0010
,
0100
0001
1000
0010
1000
0100
0010
0001
0100
0010
0100
0001
1000
0001
0010
0100
,
1000
0001
0100
0001
1000
0010
0100
0001
0100
0010
1000
0001
1000
0100
0010
0001
,
1000
0010
1000
0100
0010
0001
0100
0001
1000
0100
1000
0010
0100
0001
0010
0001
,
1000
0100
1000
0010
0100
0001
1000
0100
0010
0001
1000
0001
0010
0100
1000
0010
,
0100
0001
0010
0001
1000
0010
1000
0100
0010
0001
0100
0010
0100
0001
1000
0100
,
1000
0010
0100
0001
0100
0010
1000
0001
0010
0001
0100
0010
0100
0001
1000
0010
,
1000
0100
0010
0001
1000
0100
1000
0001
0010
0001
0100
0010
1000
0010
0100
0001
,
1000
0100
1000
0001
0100
0010
1000
0010
0100
0001
1000
0100
1000
0010
0100
0001
,
1000
0100
0010
0001
1000
0100
1000
0010
0100
0001
0100
0010
1000
0001
1000
0100
,
0010
0001
1000
0100
1000
0010
0100
0010
1000
0001
0010
0001
0100
0010
1000
0010
,
0100
0001
1000
0001
0010
0100
1000
0001
0010
0001
1000
0100
1000
0010
0100
0001
,
1000
0100
1000
0001
0010
0100
1000
0001
0100
0001
1000
0010
0100
0001
0100
0010
,
1000
0001
1000
0100
0010
0001
1000
0100
1000
0010
0100
0001
0100
0010
1000
0001
,
1000
0010
0100
0001
0100
0010
1000
0100
1000
0001
0010
0100
1000
0010
0100
0001
,
0100
0010
1000
0001
0010
0100
1000
0001
0100
0010
1000
0001
0100
0001
1000
0010
,
0100
0010
1000
0001
0010
0001
0100
0010
1000
0001
0100
0001
1000
0100
0010
0001
,
1000
0010
1000
0100
0010
0001
0100
0010
1000
0010
0100
0001
1000
0001
0010
0100
,
1000
0010
0100
0001
1000
0001
0100
0010
0100
0001
1000
0100
1000
0010
0100
0001
,
0100
0010
1000
0001
1000
0010
0100
0010
1000
0001
0010
0100
1000
0001
0100
0001
,
0010
0100
1000
0010
0100
0001
1000
0100
1000
0001
0100
0010
0100
0001
1000
0010
,
1000
0100
0010
0001
0100
0010
1000
0001
0100
0010
0100
0001
1000
0010
1000
0100
,
0010
0001
1000
0010
0100
0001
0100
0010
1000
0001
1000
0100
0010
0001
1000
0010
,
0100
0001
0100
0010
1000
0001
0100
0001
1000
0100
1000
0010
0100
0010
1000
0001
,
0010
0100
1000
0001
0100
0010
1000
0100
1000
0001
0100
0010
1000
0001
0010
0100
,
1000
0010
0100
0001
1000
0100
1000
0010
0100
0001
0100
0010
1000
0001
1000
0010
,
0100
0001
0010
0001
1000
0100
1000
0010
0100
0001
1000
0100
0010
0001
1000
0010
,
1000
0100
0010
0001
1000
0010
0100
0010
1000
0001
0010
0100
1000
0001
0100
0001
,
0010
0100
1000
0001
0100
0010
0100
0001
1000
0010
1000
0100
0010
0001
1000
0100
,
1000
0001
0100
0010
0100
0001
1000
0010
1000
0100
0010
0001
1000
0100
1000
0010
,
0100
0001
0100
0010
1000
0001
1000
0100
0010
0001
0100
0010
1000
0010
0100
0001
,
1000
0100
1000
0010
0100
0001
1000
0100
0010
0001
1000
0100
1000
0010
0100
0001
,
0100
0010
1000
0001
1000
0100
0010
0001
0100
0010
0100
0001
1000
0010
1000
0100
,
0010
0001
1000
0100
1000
0010
0100
0010
1000
0001
0100
0001
0010
0100
1000
0010
,
0100
0001
0100
0000
0010
0000
1000
0000
0001
0010
0001
0000
0100
0000
0010
0000
1000
0001
1000
0000
0010
0100
0010
0000
1000
0000
0001
0010
0001
0000
0100
0000
,
0010
1000
0010
0100
0001
0000
1000
0000
0100
0010
0001
1000
0001
0000
0100
0000
0010
1000
0010
0100
0001
1000
0100
0010
0001
1000
0010
0100
0010
1000
0001
0100
,
0001
0010
0100
1000
0010
0100
0001
1000
0010
1000
0001
0100
0001
0010
0100
1000
,
0001
0010
0001
0100
0010
1000
0010
0100
0001
1000
0100
1000
0001
0100
0010
0100
,
0001
1000
0010
1000
0100
0010
0001
0100
0010
0100
0001
1000
0100
1000
0001
0100
,
0010
0100
0001
1000
0010
1000
0100
0010
0001
0100
0010
0100
0001
1000
0001
0010
,
0100
1000
0001
0100
0001
1000
0010
0100
0001
0100
0010
1000
0001
1000
0100
0010
,
0001
1000
0010
1000
0100
0010
0001
0100
0001
1000
0100
1000
0010
0100
0001
0010
,
0001
1000
0100
1000
0010
0100
0001
1000
0100
0010
0001
1000
0001
0010
0100
1000
,
0010
0100
0001
0010
0001
1000
0010
1000
0100
0010
0001
0100
0010
0100
0001
1000
,
0100
1000
0010
0100
0001
0100
0010
1000
0001
0010
0001
0100
0010
0100
0001
1000
,
0010
1000
0100
0010
0001
1000
0100
1000
0001
0010
0001
0100
0010
1000
0010
0100
,
0001
1000
0100
1000
0001
0100
0010
1000
0010
0100
0001
1000
0100
1000
0010
0100
,
0001
1000
0100
0010
0001
1000
0100
1000
0010
0100
0001
0100
0010
1000
0001
1000
,
0100
0010
0001
1000
0100
1000
0010
0100
0010
1000
0001
0010
0001
0100
0010
1000
,
0010
0100
0001
1000
0001
0010
0100
1000
0001
0010
0001
1000
0100
1000
0010
0100
,
0001
1000
0100
1000
0001
0010
0100
1000
0001
0100
0001
1000
0010
0100
0001
0100
,
0010
1000
0001
1000
0100
0010
0001
1000
0100
1000
0010
0100
0001
0100
0010
1000
,
0001
1000
0010
0100
0001
0100
0010
1000
0100
1000
0001
0010
0100
1000
0010
0100
,
0001
0100
0010
1000
0001
0010
0100
1000
0001
0100
0010
1000
0001
0100
0001
1000
,
0010
0100
0010
1000
0001
0010
0001
0100
0010
1000
0001
0100
0001
1000
0100
0010
,
0001
1000
0010
1000
0100
0010
0001
0100
0010
1000
0010
0100
0001
1000
0001
0010
,
0100
1000
0010
0100
0001
1000
0001
0100
0010
0100
0001
1000
0100
1000
0010
0100
,
0001
0100
0010
1000
0001
1000
0010
0100
0010
1000
0001
0010
0100
1000
0001
0100
,
0001
0010
0100
1000
0010
0100
0001
1000
0100
1000
0001
0100
0010
0100
0001
1000
,
0010
1000
0100
0010
0001
0100
0010
1000
0001
0100
0010
0100
0001
1000
0010
1000
,
0100
0010
0000
0010
0001
0000
1000
0000
0001
0100
0000
0010
0100
0000
0001
0000
,
1000
0010
0000
0100
0001
0000
1000
0000
0100
0010
0000
0010
0001
0000
1000
0000
,
0010
0100
0000
0001
0100
0000
0010
0000
1000
0001
0000
0010
0001
0000
0100
0000
,
0010
1000
0000
0001
0010
0100
1000
0001
0100
0010
1000
0010
0100
0001
1000
0100
,
0020
0000
0000
0000
,
0000
0000
0000
0000
,
0000
0030
0000
0000
0000
0000
0000
0000
0000
0000
0000
0000
0000
0000
0000
0000
;

//---------------dance-single - 20.38 (20+) (owenvia----------------
#NOTES:
     dance-single:
     20.38 (20+) (owenvia:
     Edit:
     20:
     1.000,1.000,0.002,0.174,1.000,4530.000,1.000,70.000,0.000,0.000:
1000
0010
0000
0100
0001
0000
1000
0000
0010
1000
0000
0001
0100
0000
0010
0000
,
1000
0001
0000
1000
0010
0000
0100
0000
0001
0010
0000
0100
1000
0000
0010
0000
,
1000
0100
0000
1000
0001
0000
0100
0000
0010
1000
0000
0001
0100
0000
0010
0000
,
1000
0100
0000
1000
0001
0000
0100
0000
0010
1000
0000
0001
0010
0000
0100
0000
,
1000
0100
0000
1000
0010
0000
0100
0000
0001
1000
0000
1000
0010
0000
0100
0000
,
0001
0100
0000
0010
1000
0000
0100
0000
1000
0001
0000
0010
0100
0000
1000
0000
,
0010
1000
0000
0001
1000
0000
0100
0000
0010
0001
0000
0001
1000
0000
0010
0000
,
0100
0001
0000
0100
0010
0000
1000
0000
0010
0100
0000
0010
1000
0000
0001
0000
,
0010
0100
0000
1000
0100
0000
1000
0000
0001
0100
0000
0100
0010
0000
1000
0000
,
0001
0010
0000
0001
1000
0000
0100
0000
0010
0001
0000
0001
0100
0000
0010
0000
,
1000
0001
0000
1000
0010
0000
0100
0000
0001
1000
0000
0010
1000
0000
0100
0000
,
0010
0001
0000
1000
0010
0000
0100
0000
0001
1000
0000
1000
0100
0000
0010
0000
,
0001
1000
0000
0010
0100
0000
0001
0000
1000
0010
0000
1000
0100
0000
0010
0000
,
0001
0100
0000
0010
0100
0000
0001
0000
1000
0010
0000
0100
0001
0000
1000
0000
,
0100
0010
0000
0010
0001
0000
1000
0000
0010
0100
0000
0001
0100
0000
0010
0000
,
1000
0001
0000
0010
0001
0000
0100
0000
0010
1000
0000
0001
0010
0000
0100
0000
,
1000
0010
1000
0001
0100
0010
1000
0000
0001
0010
0100
1000
0010
1000
0001
0000
,
0100
0001
1000
0010
0100
0010
1000
0000
0001
0010
0000
0100
1000
0000
0001
0000
,
1000
0010
0100
0001
1000
0001
0010
0000
0100
1000
0001
0100
0001
1000
0010
0000
,
0100
0001
1000
0100
1000
0010
0100
0000
0001
1000
0000
1000
0010
0000
1000
0000
,
0100
0010
0001
1000
0010
1000
0100
0000
0010
0001
1000
0001
0100
0010
0100
0000
,
0001
1000
0010
1000
0100
0010
0001
0000
1000
0010
0000
1000
0001
0000
0010
0000
,
0100
1000
0001
1000
0010
0100
0010
0000
1000
0100
1000
0001
0100
0010
0100
0000
,
0001
1000
0100
0010
0001
1000
0010
0100
0010
1000
0001
0010
0001
1000
0100
1000
,
0010
0100
0001
1000
0001
0010
0100
0000
1000
0010
1000
0001
0100
0010
0100
0000
,
0001
1000
0010
0100
0010
1000
0001
0000
0010
0100
0000
0100
1000
0000
0010
0000
,
0100
0001
0010
0001
1000
0100
0010
0000
0001
0010
0100
1000
0010
1000
0001
0000
,
0100
0010
0100
0001
1000
0010
1000
0000
0100
0010
0000
0001
0100
0000
0010
0000
,
1000
0100
1000
0001
0100
0010
0100
0000
0001
1000
0010
1000
0001
0100
0010
0000
,
1000
0010
0100
0001
0100
0010
1000
0000
0001
0100
0000
0010
1000
0000
0001
0000
,
1000
0100
0010
0001
0100
0010
0100
0000
0001
1000
0010
1000
0100
0010
0001
0000
,
1000
0100
1000
0010
0100
0001
0100
0000
0010
1000
0000
0001
0100
0000
0010
0000
,
1000
0100
1000
0001
0100
0010
0100
0000
0001
1000
0010
1000
0001
0100
0010
0000
,
1000
0100
1000
0001
0100
0010
1000
0000
0001
0010
0000
0010
0100
0000
1000
0000
,
0001
0100
0010
0100
0001
1000
0010
0000
0100
0001
1000
0100
1000
0010
0100
0000
,
0001
1000
0001
0010
0100
1000
0010
0000
0100
0001
0000
1000
0010
0000
0100
0000
,
0001
0100
0010
1000
0010
0100
0001
0000
1000
0001
0100
0010
1000
0010
0100
0001
,
1000
0010
1000
0100
0010
0001
0100
0010
1000
0001
0100
0001
1000
0010
1000
0100
,
0010
0001
1000
0100
1000
0001
0100
0010
0100
0001
1000
0010
1000
0100
0010
0001
,
1000
0100
1000
0001
0100
0010
0100
0001
1000
0010
0100
0010
1000
0001
0100
0001
,
0010
0100
1000
0001
0100
0010
1000
0001
0100
0001
1000
0010
0100
0001
0100
0010
1000
0001
0010
0100
1000
0001
0100
0010
,
1000
0001
1000
0100
0010
0001
1000
0010
1000
0100
0010
0001
0100
0001
1000
0010
0100
0001
0100
0010
1000
0001
0100
0001
,
0010
0100
1000
0001
0010
0001
1000
0100
1000
0001
0100
0010
1000
0001
0100
0001
0010
0100
1000
0001
0010
0001
0100
0010
,
1000
0001
0100
0001
1000
0010
0100
0001
0100
0010
1000
0100
1000
0001
0100
0010
0100
0001
1000
0010
0100
0001
1000
0100
,
0010
0001
1000
0010
0100
0010
1000
0001
0100
0001
0010
0100
1000
0001
0010
0001
0100
0010
1000
0001
0100
0001
1000
0010
,
0100
0001
0100
0010
1000
0001
1000
0100
0010
0001
1000
0100
1000
0001
0100
0010
0100
0001
1000
0010
0100
0001
1000
0100
,
1000
0010
0100
0001
1000
0001
0100
0010
0100
0001
1000
0010
1000
0100
0010
0001
0100
0001
1000
0100
0010
0001
0100
0001
,
1000
0010
0100
0010
1000
0001
0100
0001
1000
0001
0010
0100
1000
0001
0100
0010
1000
0001
0010
0100
1000
0001
0100
0010
,
1000
0001
1000
0100
0010
0001
1000
0010
1000
0100
0010
0001
0100
0001
1000
0010
0100
0001
0100
0010
1000
0001
0100
0001
,
0010
0100
1000
0001
0010
0001
1000
0100
1000
0001
0100
0010
1000
0001
0100
0001
0010
0100
1000
0001
0010
0001
0100
0010
,
1000
0001
0100
0001
1000
0010
0100
0001
0100
0010
1000
0100
1000
0001
0100
0010
0100
0001
1000
0010
0100
0001
1000
0100
,
0010
0001
1000
0010
0100
0010
1000
0001
0100
0001
0010
0100
1000
0001
0010
0001
0100
0010
1000
0001
0100
0001
1000
0010
,
0100
0001
0100
0010
1000
0001
1000
0100
0010
0001
1000
0100
1000
0001
0100
0010
0100
0001
1000
0010
0100
0001
1000
0100
,
1000
0010
0100
0001
1000
0001
0100
0010
0100
0001
1000
0010
1000
0100
0010
0001
0100
0001
1000
0100
0010
0001
0100
0001
,
1000
0010
0100
0010
1000
0001
0100
0010
0100
0001
1000
0010
1000
0100
0010
0001
0100
0001
1000
0010
0100
0001
0100
0010
,
1000
0001
0010
0001
0100
0010
0100
0001
1000
0010
1000
0100
0010
0001
1000
0100
1000
0001
0100
0010
0100
0001
1000
0010
,
1000
0100
0010
0001
1000
0001
0100
0010
1000
0010
0100
0001
1000
0100
1000
0010
0100
0010
1000
0001
0100
0001
0010
0100
,
1000
0001
0010
0001
0100
0010
0100
0001
1000
0010
1000
0100
0010
0001
1000
0010
0100
0001
1000
0001
0100
0010
1000
0001
,
0010
0001
1000
0100
1000
0010
0100
0001
0100
0010
1000
0001
0010
0001
0100
0010
0100
0001
1000
0010
1000
0100
0010
0001
,
0100
0001
1000
0100
0010
0001
0100
0001
1000
0010
0100
0001
0100
0010
1000
0001
0010
0100
1000
0010
0100
0010
1000
0001
,
0100
0001
0010
0100
1000
0001
0100
0001
1000
0010
0100
0001
0100
0010
1000
0001
1000
0010
0100
0001
1000
0010
1000
0001
,
0100
0010
1000
0001
1000
0010
0100
0010
1000
0001
0010
0100
1000
0001
0100
0001
,
0010
0100
1000
0010
0100
0001
1000
0100
1000
0001
0100
0010
0100
0001
1000
0010
,
1000
0100
0010
0001
0100
0010
1000
0001
0100
0010
0100
0001
1000
0010
1000
0100
,
0010
0001
1000
0010
0100
0001
0100
0010
1000
0100
1000
0001
0100
0010
0100
0001
1000
0010
1000
0100
0010
0001
0100
0001
,
1000
0010
0100
0001
0100
0010
0100
0001
1000
0100
1000
0010
0100
0001
0100
0010
1000
0001
0010
0001
0100
0010
1000
0001
,
0100
0001
1000
0100
0010
0001
1000
0001
0100
0010
1000
0001
0100
0001
1000
0010
0100
0001
0100
0010
1000
0001
0010
0100
,
1000
0001
0100
0010
1000
0001
1000
0100
0010
0001
1000
0010
1000
0100
0010
0001
0100
0001
1000
0010
0100
0001
0100
0010
,
1000
0001
0100
0001
0010
0100
1000
0001
0010
0001
1000
0100
1000
0001
0100
0010
1000
0001
0100
0001
0010
0100
1000
0001
,
0010
0001
0100
0010
1000
0001
0100
0001
1000
0010
0100
0001
0100
0010
1000
0100
1000
0001
0100
0010
0100
0001
1000
0010
,
0100
0001
1000
0100
0010
0001
1000
0010
0100
0010
1000
0001
0100
0001
0010
0100
1000
0001
0010
0001
0100
0010
1000
0001
,
0100
0001
1000
0010
0100
0001
0100
0010
1000
0001
1000
0100
0010
0001
1000
0100
1000
0001
0100
0010
0100
0001
1000
0010
,
0100
0001
1000
0100
1000
0010
0100
0001
1000
0001
0100
0010
0100
0001
1000
0010
1000
0100
0010
0001
0100
0001
1000
0100
,
0010
0001
0100
0001
1000
0010
0100
0010
1000
0001
0100
0001
1000
0001
0010
0100
1000
0001
0100
0010
1000
0001
0010
0100
,
1000
0001
0100
0010
1000
0001
1000
0100
0010
0001
1000
0010
1000
0100
0010
0001
0100
0001
1000
0010
0100
0001
0100
0010
,
1000
0001
0100
0001
0010
0100
1000
0001
0010
0001
1000
0100
1000
0001
0100
0010
1000
0001
0100
0001
0010
0100
1000
0001
,
0010
0001
0100
0010
1000
0001
0100
0001
1000
0010
0100
0001
0100
0010
1000
0100
1000
0001
0100
0010
0100
0001
1000
0010
,
0100
0001
1000
0100
0010
0001
1000
0010
0100
0010
1000
0001
0100
0001
0010
0100
1000
0001
0010
0001
0100
0010
1000
0001
,
0100
0001
1000
0010
0100
0001
0100
0010
1000
0001
1000
0100
0010
0001
1000
0100
1000
0001
0100
0010
0100
0001
1000
0010
,
0100
0001
1000
0100
1000
0010
0100
0001
1000
0001
0100
0010
0100
0001
1000
0010
1000
0100
0010
0001
0100
0001
1000
0100
,
0010
0001
0100
0001
1000
0010
0100
0010
1000
0001
0100
0010
0100
0001
1000
0010
1000
0100
0010
0001
0100
0001
1000
0010
,
0100
0001
0100
0010
1000
0001
0010
0001
0100
0010
0100
0001
1000
0010
1000
0100
0010
0001
1000
0100
1000
0001
0100
0010
,
0100
0001
1000
0010
1000
0100
0010
0001
1000
0001
0100
0010
1000
0010
0100
0001
1000
0100
1000
0010
0100
0010
1000
0001
,
0100
0001
0010
0100
1000
0001
0010
0001
0100
0010
0100
0001
1000
0010
1000
0100
0010
0001
1000
0010
0100
0001
1000
0001
,
0100
0010
1000
0001
0010
0001
1000
0100
1000
0010
0100
0001
0100
0010
1000
0001
0010
0001
0100
0010
0100
0001
1000
0010
,
1000
0100
0010
0001
0100
0001
1000
0100
0010
0001
0100
0001
1000
0010
0100
0001
0100
0010
1000
0001
0010
0100
1000
0010
,
0100
0010
1000
0001
0100
0001
0010
0100
1000
0001
0100
0001
1000
0010
0100
0001
0100
0010
1000
0001
1000
0010
0100
0001
,
0100
0001
1000
0010
1000
0100
0010
0001
0100
0001
1000
0010
0100
0001
0100
0010
1000
0001
0010
0001
0100
0010
0100
0001
,
1000
0010
1000
0100
0010
0001
1000
0100
1000
0001
0100
0010
0100
0001
1000
0010
1000
0100
0010
0001
1000
0001
0100
0010
,
1000
0010
0100
0001
1000
0100
1000
0010
0100
0010
1000
0001
0100
0001
0010
0100
1000
0001
0010
0001
0100
0010
0100
0001
,
1000
0010
1000
0100
0010
0001
1000
0010
0100
0001
1000
0001
0100
0010
1000
0001
0010
0001
1000
0100
1000
0010
0100
0001
,
0100
0010
1000
0001
0010
0001
0100
0010
0100
0001
1000
0010
1000
0100
0010
0001
0100
0001
1000
0100
0010
0001
0100
0001
,
1000
0010
0100
0001
0100
0010
1000
0001
0010
0100
1000
0010
0100
0010
1000
0001
0100
0001
0010
0100
1000
0001
0100
0001
,
1000
0010
0100
0001
0100
0010
1000
0001
1000
0010
0100
0001
1000
0100
0010
0001
0100
0001
1000
0010
0100
0010
1000
0001
,
0100
0001
0010
0100
1000
0010
0100
0010
1000
0001
0100
0010
0100
0001
1000
0100
0010
0001
1000
0100
1000
0010
0100
0001
,
0010
0001
1000
0100
0010
0001
1000
0100
1000
0001
0100
0010
0100
0001
1000
0001
0100
0010
1000
0010
0100
0001
1000
0100
,
1000
0001
0010
0001
1000
0100
1000
0001
0100
0010
1000
0001
0100
0001
1000
0100
0010
0001
0010
0100
1000
0001
0100
0001
,
1000
0000
0010
0000
0100
0000
0001
0000
0100
0000
0010
0000
1000
0000
0000
0001
0000
0000
1000
0000
0000
0100
0000
0000
0010
0000
0000
0001
0000
0000
1000
0000
0000
0100
0000
0000
1000
0000
0000
0010
0000
0000
0100
0000
0000
0010
0000
0000
,
1000
0001
0100
0001
0010
0100
1000
0001
0010
0001
1000
0100
1000
0001
0100
0010
1000
0001
0100
0001
0010
0100
1000
0001
,
0010
0001
0100
0010
1000
0001
0100
0001
1000
0010
0100
0001
0100
0010
1000
0100
1000
0001
0100
0010
0100
0001
1000
0010
,
0100
0001
1000
0100
0010
0001
1000
0010
0100
0010
1000
0001
0100
0001
0010
0100
1000
0001
1000
0010
0100
0001
1000
0100
,
1000
0001
0010
0001
1000
0100
1000
0001
0100
0010
1000
0001
0100
0001
0010
0100
1000
0001
0010
0001
0100
0010
1000
0001
,
0100
0001
1000
0010
0100
0001
0100
0010
1000
0100
1000
0001
0100
0010
0100
0001
1000
0010
0100
0001
1000
0100
0010
0001
,
1000
0010
0100
0010
1000
0001
0100
0001
0010
0100
1000
0001
0010
0001
0100
0010
1000
0001
0100
0001
1000
0010
0100
0001
,
0100
0010
1000
0001
1000
0100
0010
0001
1000
0100
1000
0001
0100
0010
0100
0001
1000
0010
0100
0001
1000
0100
1000
0010
,
0100
0001
1000
0001
0100
0010
0100
0001
1000
0010
1000
0100
0010
0001
0100
0001
1000
0100
0010
0001
0100
0001
1000
0010
,
0100
0010
1000
0001
0100
0001
1000
0001
0010
0100
1000
0001
0100
0010
1000
0001
0010
0100
1000
0001
0100
0010
1000
0001
,
1000
0100
0010
0001
1000
0010
1000
0100
0010
0001
0100
0001
1000
0010
0100
0001
0100
0010
1000
0001
0100
0001
0010
0100
,
1000
0001
0010
0001
0100
0010
1000
0001
0100
0001
0010
0100
1000
0001
0100
0001
1000
0100
0010
0001
0100
0001
1000
0010
,
0100
0001
0100
0010
1000
0001
0010
0001
1000
0100
1000
0001
0100
0010
1000
0001
0100
0001
1000
0100
0010
0001
1000
0010
,
0100
0001
1000
0100
1000
0001
0100
0010
0100
0001
1000
0001
0100
0010
0100
0001
1000
0100
1000
0001
0100
0001
1000
0010
,
0100
0010
1000
0001
0100
0001
0010
0100
1000
0001
0010
0001
1000
0100
0010
0001
1000
0010
0100
0010
1000
0001
0100
0001
,
0010
0100
1000
0001
0010
0001
0100
0010
0100
0001
1000
0010
1000
0100
0010
0001
1000
0100
1000
0001
0100
0010
0100
0001
,
1000
0010
0100
0001
0100
0010
1000
0001
0010
0001
0100
0010
1000
0001
0100
0001
1000
0100
0010
0001
1000
0010
1000
0001
,
0100
0001
1000
0100
0010
0001
0100
0000
0010
1000
0010
0100
0001
1000
0100
0000
,
0010
0001
1000
0010
1000
0100
0010
0000
0001
0010
0100
1000
0001
0100
0010
0100
,
0001
1000
0001
0000
0010
0000
0100
0000
1000
0010
1000
0000
0001
0000
1000
0000
0010
0100
0010
0000
1000
0000
0001
0000
1000
0100
1000
0000
0010
0000
0100
0000
,
0001
1000
0001
0000
0010
0000
0100
0000
1000
0000
0010
0000
0100
0000
0001
0000
0100
0000
0010
0000
1000
0000
0001
0000
0010
0000
0100
0000
1000
0000
0001
0000
,
1000
0100
0010
0001
0100
0001
1000
0010
0100
0001
0100
0010
0100
0001
1000
0100
1000
0010
0100
0001
0100
0010
1000
0001
,
0010
0001
0100
0010
1000
0001
0100
0001
1000
0100
0010
0001
1000
0001
0100
0010
1000
0001
0100
0001
1000
0010
0100
0001
,
0100
0010
1000
0001
0010
0100
1000
0001
0100
0010
1000
0001
1000
0100
0010
0001
1000
0010
1000
0100
0010
0001
0100
0001
,
1000
0010
0100
0001
0100
0010
1000
0001
0100
0001
0010
0100
1000
0001
0010
0001
1000
0100
1000
0001
0100
0010
1000
0001
,
0100
0001
0010
0100
1000
0001
0010
0001
0100
0010
1000
0001
0100
0001
1000
0010
0100
0001
0100
0010
1000
0100
1000
0001
,
0100
0010
0100
0001
1000
0010
0100
0001
1000
0100
0010
0001
1000
0010
0100
0010
1000
0001
0100
0001
0010
0100
1000
0001
,
0010
0001
0100
0010
1000
0001
0100
0001
1000
0010
0100
0001
0100
0010
1000
0001
1000
0100
0010
0001
1000
0100
1000
0001
,
0100
0010
0100
0001
1000
0010
0100
0001
1000
0100
1000
0010
0100
0001
1000
0001
0100
0010
0100
0001
1000
0010
1000
0100
,
0010
0001
0100
0001
1000
0100
0010
0001
0100
0001
1000
0010
0100
0010
1000
0001
0100
0001
1000
0001
0010
0100
1000
0001
,
0100
0010
1000
0001
0010
0100
1000
0001
0100
0010
1000
0001
1000
0100
0010
0001
1000
0010
1000
0100
0010
0001
0100
0001
,
1000
0010
0100
0001
0100
0010
1000
0001
0100
0001
0010
0100
1000
0001
0010
0001
1000
0100
1000
0001
0100
0010
1000
0001
,
0100
0001
0010
0100
1000
0001
0010
0001
0100
0010
1000
0001
0100
0001
1000
0010
0100
0001
0100
0010
1000
0100
1000
0001
,
0100
0010
0100
0001
1000
0010
0100
0001
1000
0100
0010
0001
1000
0010
0100
0010
1000
0001
0100
0001
0010
0100
1000
0001
,
0010
0001
0100
0010
1000
0001
0100
0001
1000
0010
0100
0001
0100
0010
1000
0001
1000
0100
0010
0001
1000
0100
1000
0001
,
0100
0010
0100
0001
1000
0010
0100
0001
1000
0100
1000
0010
0100
0001
1000
0001
0100
0010
0100
0001
1000
0010
1000
0100
,
0010
0001
0100
0001
1000
0100
0010
0001
0100
0001
1000
0010
0100
0010
1000
0001
0100
0010
0100
0001
1000
0010
1000
0100
,
0010
0001
0100
0001
1000
0010
0100
0001
0100
0010
1000
0001
0010
0001
0100
0010
0100
0001
1000
0010
1000
0100
0010
0001
,
1000
0100
1000
0001
0100
0010
0100
0001
1000
0010
1000
0100
0010
0001
1000
0001
0100
0010
1000
0010
0100
0001
1000
0100
,
1000
0010
0100
0010
1000
0001
0100
0001
0010
0100
1000
0001
0010
0001
0100
0010
0100
0001
1000
0100
1000
0001
0100
0010
,
0100
0001
1000
0010
1000
0100
0010
0001
1000
0001
0100
0010
1000
0010
0100
0001
1000
0100
1000
0010
0100
0010
1000
0001
,
0100
0001
0010
0100
1000
0001
0010
0001
0100
0010
0100
0001
1000
0100
0010
0001
0100
0001
1000
0010
0100
0001
1000
0010
,
0100
0000
0010
0000
1000
0000
0001
0000
0010
0000
0001
0000
1000
0000
0000
0010
0000
0000
0100
0000
0000
0010
0000
0000
1000
0000
0000
0001
0000
0000
0010
0000
0000
0100
0000
0000
1000
0000
0000
0001
0000
0000
0100
0000
0000
0001
0000
0000
,
0010
0100
1000
0010
0100
0001
1000
0100
1000
0001
0100
0010
0100
0001
1000
0010
,
1000
0100
0010
0001
0100
0010
1000
0001
0100
0010
0100
0001
1000
0010
1000
0100
,
0010
0001
1000
0010
0100
0001
0100
0010
1000
0001
1000
0100
0010
0001
1000
0010
,
0100
0001
0100
0000
0010
0000
1000
0000
0001
0010
0001
0000
0100
0000
0010
0000
1000
0001
1000
0000
0010
0100
0010
0000
1000
0000
0001
0100
0001
0000
1000
0000
,
0010
0100
0001
1000
0001
0000
0010
0000
0100
1000
0001
1000
0010
0000
0100
0000
0001
1000
0010
1000
0001
0100
0010
1000
0010
0100
0001
1000
0100
0010
0001
1000
,
0020
0030
0400
0300
0002
0003
2000
3000
0400
0300
2000
3000
0020
0030
0400
0300
,
0002
0003
4000
3000
0200
0300
0020
0030
0004
0003
2000
3000
0020
0030
4000
3000
,
0002
0003
0200
0300
0020
0030
0200
0300
0004
0003
2000
3000
0200
0300
4000
3000
,
0002
0003
0020
0030
0004
0003
0200
0300
0040
0030
2000
3000
0002
0003
0040
0030
,
0200
0300
4000
3000
0002
0003
0200
0300
0040
0030
0200
0300
0002
0003
4000
3000
,
0200
0300
4000
3000
0020
0030
0200
0300
0004
0003
2000
3000
0200
0300
4000
3000
,
0002
0003
0200
0300
0020
0030
2000
3000
0004
0003
0020
0030
0200
0300
4000
3000
,
0002
0003
0200
0300
0040
0030
0200
0300
0004
0003
2000
3000
0200
0300
0040
0030
,
1002
0003
4000
3000
0002
0003
0020
0030
0400
0300
2000
3000
0020
0030
0400
0300
,
0002
0003
4000
3000
0200
0300
0020
0030
0004
0003
2000
3000
0020
0030
4000
3000
,
0002
0003
0200
0300
0040
0030
0200
0300
0004
0003
2000
3000
0200
0300
4000
3000
,
0002
0003
0020
0030
0004
0003
0200
0300
0040
0030
2000
3000
0002
0003
0040
0030
,
0200
0300
4000
3000
0020
0030
2000
3000
0004
0003
0020
0030
0002
0003
4000
3000
,
0010
0100
0001
1000
0100
0010
0001
1000
0100
1000
0010
0100
0001
1000
0100
0010
,
0001
1000
0010
0100
0010
1000
0001
0010
0001
0100
0010
1000
0001
0010
0100
1000
,
0010
0100
0001
1000
0100
1000
0010
0100
0001
1000
0100
1000
0010
0100
0001
0100
,
0010
1000
0001
1000
0100
0010
0001
1000
0010
0100
0001
0100
0010
1000
0001
0010
,
0100
1000
0001
1000
0010
0100
0001
0100
0010
1000
0001
1000
0100
0010
0001
1000
,
0010
1000
0100
0010
0001
1000
0100
1000
0010
0100
0001
1000
0100
0010
0001
0100
,
0010
0100
0001
1000
0010
0100
0001
1000
0100
0010
0001
0100
0001
1000
0010
0100
,
0002
0000
0003
0000
0002
0000
0003
0000
1000
0100
0010
0001
1000
0010
0100
0001
,
1000
0001
0010
0100
1000
0001
0100
0010
1000
0100
1000
0001
0100
0010
0100
0001
1000
0010
1000
0100
0010
0001
0100
0001
,
1000
0010
0100
0001
0100
0010
0100
0001
1000
0100
1000
0010
0100
0001
0100
0010
1000
0001
0010
0001
0100
0010
1000
0001
,
0100
0001
1000
0100
0010
0001
1000
0001
0100
0010
1000
0001
0100
0001
1000
0010
0100
0001
0100
0010
1000
0001
0010
0100
,
1000
0001
0100
0010
1000
0001
1000
0100
0010
0001
1000
0010
1000
0100
0010
0001
0100
0001
1000
0010
0100
0001
0100
0010
,
1000
0001
0100
0001
0010
0100
1000
0001
0010
0001
1000
0100
1000
0001
0100
0010
1000
0001
0100
0001
0010
0100
1000
0001
,
0010
0001
0100
0010
1000
0001
0100
0001
1000
0010
0100
0001
0100
0010
1000
0100
1000
0001
0100
0010
0100
0001
1000
0010
,
0100
0001
1000
0100
0010
0001
1000
0010
0100
0010
1000
0001
0100
0001
0010
0100
1000
0001
0010
0001
0100
0010
1000
0001
,
0100
0001
1000
0010
0100
0001
0100
0010
1000
0001
1000
0100
0010
0001
1000
0100
1000
0001
0100
0010
0100
0001
1000
0010
,
0100
0001
1000
0100
1000
0010
0100
0001
1000
0001
0100
0010
0100
0001
1000
0010
1000
0100
0010
0001
0100
0001
1000
0100
,
0010
0001
0100
0001
1000
0010
0100
0010
1000
0001
0100
0001
1000
0001
0010
0100
1000
0001
0100
0010
1000
0001
0010
0100
,
1000
0001
0100
0010
1000
0001
1000
0100
0010
0001
1000
0010
1000
0100
0010
0001
0100
0001
1000
0010
0100
0001
0100
0010
,
1000
0001
0100
0001
0010
0100
1000
0001
0010
0001
1000
0100
1000
0001
0100
0010
1000
0001
0100
0001
0010
0100
1000
0001
,
0010
0001
0100
0010
1000
0001
0100
0001
1000
0010
0100
0001
0100
0010
1000
0100
1000
0001
0100
0010
0100
0001
1000
0010
,
0100
0001
1000
0100
0010
0001
1000
0010
0100
0010
1000
0001
0100
0001
0010
0100
1000
0001
0010
0001
0100
0010
1000
0001
,
0100
0001
1000
0010
0100
0001
0100
0010
1000
0001
1000
0100
0010
0001
1000
0100
1000
0001
0100
0010
0100
0001
1000
0010
,
0100
0001
1000
0100
1000
0010
0100
0001
1000
0001
0100
0010
0100
0001
1000
0010
1000
0100
0010
0001
0100
0001
1000
0100
,
0010
0001
0100
0001
1000
0010
0100
0010
1000
0001
0100
0010
0100
0001
1000
0010
1000
0100
0010
0001
0100
0001
1000
0010
,
0100
0001
0100
0010
1000
0001
0010
0001
0100
0010
0100
0001
1000
0010
1000
0100
0010
0001
1000
0100
1000
0001
0100
0010
,
0100
0001
1000
0010
1000
0100
0010
0001
1000
0001
0100
0010
1000
0010
0100
0001
1000
0100
1000
0010
0100
0010
1000
0001
,
0100
0001
0010
0100
1000
0001
0010
0001
0100
0010
0100
0001
1000
0010
1000
0100
0010
0001
1000
0010
0100
0001
1000
0001
,
0100
0010
1000
0001
0010
0001
1000
0100
1000
0010
0100
0001
0100
0010
1000
0001
0010
0001
0100
0010
0100
0001
1000
0010
,
1000
0100
0010
0001
0100
0001
1000
0100
0010
0001
0100
0001
1000
0010
0100
0001
0100
0010
1000
0001
0010
0100
1000
0010
,
0100
0010
1000
0001
0100
0001
0010
0100
1000
0001
0100
0001
1000
0010
0100
0001
0100
0010
1000
0001
1000
0010
0100
0001
,
0100
0001
1000
0010
1000
0100
0010
0001
0100
0001
1000
0010
0100
0001
0100
0010
1000
0001
0010
0001
0100
0010
0100
0001
,
1000
0010
1000
0100
0010
0001
1000
0100
1000
0001
0100
0010
0100
0001
1000
0010
1000
0100
0010
0001
1000
0001
0100
0010
,
1000
0010
0100
0001
1000
0100
1000
0010
0100
0010
1000
0001
0100
0001
0010
0100
1000
0001
0010
0001
0100
0010
0100
0001
,
1000
0010
1000
0100
0010
0001
1000
0010
0100
0001
1000
0001
0100
0010
1000
0001
0010
0001
1000
0100
1000
0010
0100
0001
,
0100
0010
1000
0001
0010
0001
0100
0010
0100
0001
1000
0010
1000
0100
0010
0001
0100
0001
1000
0100
0010
0001
0100
0001
,
1000
0010
0100
0001
0100
0010
1000
0001
0010
0100
1000
0010
0100
0010
1000
0001
0100
0001
0010
0100
1000
0001
0100
0001
,
1000
0010
0100
0001
0100
0010
1000
0001
1000
0010
0100
0001
1000
0100
0010
0001
0100
0001
1000
0010
0100
0010
1000
0001
,
0100
0001
0010
0100
1000
0010
0100
0010
1000
0001
0100
0010
0100
0001
1000
0100
0010
0001
1000
0100
1000
0010
0100
0001
,
0010
0001
1000
0100
0010
0001
1000
0100
1000
0001
0100
0010
0100
0001
1000
0001
0100
0010
1000
0010
0100
0001
1000
0100
,
1000
0010
0100
0001
0010
0001
1000
0100
0010
0001
0100
0010
1000
0010
0100
0001
,
1000
0100
1000
0010
0100
0001
1000
0100
0010
0001
1000
0100
1000
0010
0100
0001
,
0100
0010
1000
0001
1000
0100
0010
0001
0100
0010
0100
0001
1000
0010
1000
0100
,
0010
0001
1000
0100
1000
0010
0100
0010
1000
0001
0100
0001
0010
0100
1000
0010
,
0100
0001
0100
0000
0010
0000
1000
0000
0001
0010
0001
0000
0100
0000
0010
0000
1000
0001
1000
0000
0010
0100
0010
0000
1000
0000
0001
0010
0001
0000
0100
0000
,
0010
1000
0010
0100
0001
0000
1000
0000
0100
0010
0001
1000
0001
0000
0100
0000
0010
1000
0010
0100
0001
1000
0100
0010
0001
1000
0010
0100
0010
1000
0001
0100
,
0001
0010
0100
1000
0001
0010
0001
1000
0100
1000
0001
0100
0010
1000
0001
0100
0001
0010
0100
1000
0001
0010
0001
0100
,
0010
1000
0001
0100
0001
1000
0010
0100
0001
0100
0010
1000
0100
1000
0001
0100
0010
0100
0001
1000
0010
0100
0001
1000
,
0100
0010
0001
1000
0010
0100
0010
1000
0001
0100
0001
0010
0100
1000
0001
1000
0010
0100
0001
1000
0100
1000
0001
0010
,
0001
1000
0100
1000
0001
0100
0010
1000
0001
0100
0001
0010
0100
1000
0001
0010
0001
0100
0010
1000
0001
0100
0001
1000
,
0010
0100
0001
0100
0010
1000
0100
1000
0001
0100
0010
0100
0001
1000
0010
0100
0001
1000
0100
0010
0001
1000
0010
0100
,
0010
1000
0001
0100
0001
0010
0100
1000
0001
0010
0001
0100
0010
1000
0001
0100
0001
1000
0010
0100
0001
0100
0010
1000
,
0001
1000
0100
0010
0001
1000
0100
1000
0001
0100
0010
0100
0001
1000
0010
0100
0001
1000
0100
1000
0010
0100
0001
1000
,
0001
0100
0010
0100
0001
1000
0010
1000
0100
0010
0001
0100
0001
1000
0100
0010
0001
0100
0001
1000
0010
0100
0010
1000
,
0001
0100
0001
1000
0001
0010
0100
1000
0001
0100
0010
1000
0001
0010
0100
1000
0001
0100
0010
1000
0001
1000
0100
0010
,
0001
1000
0010
1000
0100
0010
0001
0100
0001
1000
0010
0100
0001
0100
0010
1000
0001
0100
0001
0010
0100
1000
0001
0010
,
0001
0100
0010
1000
0001
0100
0001
0010
0100
1000
0001
0100
0001
1000
0100
0010
0001
0100
0001
1000
0010
0100
0001
0100
,
0010
1000
0001
0010
0001
1000
0010
0100
0010
1000
0001
0100
0001
1000
0100
0010
0001
1000
0100
1000
0001
0100
0010
0100
,
0001
1000
0010
1000
0001
0100
0001
0010
0100
1000
0001
0010
0001
1000
0100
1000
0001
0100
0010
1000
0010
0100
0001
1000
,
0100
1000
0001
0100
0010
0100
0001
1000
0010
1000
0100
0010
0001
1000
0100
1000
0001
0100
0010
0100
0001
1000
0010
0100
,
0001
1000
0100
1000
0001
0010
0100
1000
0001
0100
0001
1000
0010
0100
0001
0100
,
0010
1000
0001
1000
0100
0010
0001
1000
0100
1000
0010
0100
0001
0100
0010
1000
,
0001
1000
0010
0100
0001
0100
0010
1000
0100
1000
0001
0010
0100
1000
0010
0100
,
0001
0100
0010
1000
0001
0010
0100
1000
0001
0100
0010
1000
0001
0100
0001
1000
,
0010
0100
0010
1000
0001
0010
0001
0100
0010
1000
0001
0100
0001
1000
0100
0010
,
0001
1000
0010
1000
0100
0010
0001
0100
0010
1000
0010
0100
0001
1000
0001
0010
,
0100
1000
0010
0100
0001
1000
0001
0100
0010
0100
0001
1000
0100
1000
0010
0100
,
0001
0100
0010
1000
0001
1000
0010
0100
0010
1000
0001
0010
0100
1000
0001
0100
,
0001
0010
0100
1000
0010
0100
0001
1000
0100
1000
0001
0100
0010
0100
0001
1000
,
0010
1000
0100
0010
0001
0100
0010
1000
0001
0100
0010
0100
0001
1000
0010
1000
,
0100
0010
0000
0010
0001
0000
1000
0000
0001
0100
0000
0010
0100
0000
0001
0000
,
1000
0010
0000
0100
0001
0000
1000
0000
0100
0010
0000
0010
0001
0000
1000
0000
,
0010
0100
0000
0001
0100
0000
0010
0000
1000
0001
0000
0010
0001
0000
0100
0000
,
0010
1000
0000
0001
0010
0100
1000
0001
0100
0010
1000
0010
0100
0001
1000
0100
,
0020
0000
0000
0000
,
0000
0000
0000
0000
,
0000
0030
0000
0000
0000
0000
0000
0000
0000
0000
0000
0000
0000
0000
0000
0000
;
