#TITLE:Einsatz (Full ver.);
#SUBTITLE:Dies Irae OP theme;
#ARTIST:Sakakibara Yui;
#TITLETRANSLIT:;
#SUBTITLETRANSLIT:;
#ARTISTTRANSLIT:;
#CREDIT:;
#BANNER:Einsatz full.png;
#BACKGROUND:Einsatz full.jpg;
#LYRICSPATH:;
#CDTITLE:cdtitle.png;
#MUSIC:Einsatz full.mp3;
#OFFSET:1.290;
#SAMPLESTART:64.580;
#SAMPLELENGTH:21.420;
#SELECTABLE:YES;
#BPMS:0.000=145.010;
#STOPS:;
#BGCHANGES:;
// cache tags:
#FIRSTBEAT:4.000;
#LASTBEAT:526.000;
#SONGFILENAME:Songs/alice 4th complete step/Einsatz full/Einsatz full.sm;
#HASMUSIC:1;
#HASBANNER:1;
#MUSICLENGTH:224.086;
// end cache tags

//---------------dance-single - ----------------
#NOTES:
     dance-single:
     :
     Challenge:
     19:
     1.000,1.000,1.000,0.772,1.000,1823.000,678.000,173.000,0.000,87.000:
0000
0000
0000
0000
,
1000
0100
1001
0100
1010
0100
1100
0010
,
1001
0100
0011
1101
0000
1011
0000
1110
,
0000
0000
0000
0000
0000
0000
0000
0000
0000
1001
0010
0000
0101
0000
0000
0000
0000
0000
0000
0000
0000
0000
0000
0000
,
0000
0000
1100
0000
1001
0000
1100
0000
0220
0000
0000
0000
0000
0330
1001
0001
,
0110
0010
1100
0100
2020
0000
0000
3030
0202
0000
0000
0000
0000
0000
0303
0000
,
1001
0010
1100
1010
0101
0010
1100
0011
,
0202
0000
0000
0303
2020
0000
0000
3030
,
1000
0000
1001
0100
0010
0000
1000
0000
1001
0100
0010
0000
1000
0000
1001
0100
0010
0000
1000
0000
1001
0100
0010
0000
0100
0000
0101
0000
1100
0000
0011
0000
,
1010
0100
0011
1000
0101
0010
1100
0001
0010
1000
0011
0100
0010
0001
0110
1000
,
0101
0010
1001
0010
1100
0001
0110
1000
0100
0010
1001
0100
0001
1000
0110
1000
,
0101
0010
0011
0100
1000
0100
0011
0100
0001
1000
0011
0100
0001
1000
0110
1000
,
0101
0010
1100
0001
0010
0100
1001
0100
1000
0001
0110
1000
0101
0010
1100
0011
,
1002
0000
0100
0010
1000
0010
0100
0013
2100
0000
0001
0010
0001
0010
3001
0100
,
1020
0000
0100
1030
0012
0000
0103
1000
0201
0000
0310
0001
2100
0000
0001
3010
,
2010
0000
0100
0001
0100
0001
3100
1000
0021
0000
1000
0100
1000
0100
1030
0001
,
2010
0000
3101
0100
0012
0000
1103
0100
1010
0001
0100
0010
1000
0001
0101
0010
,
1100
1001
0100
1001
0000
0110
0000
0000
1100
1010
0000
1100
0011
0100
0010
1000
,
1200
0001
0010
0301
2000
0010
0001
3010
0200
0001
0010
0301
2000
0010
0001
3010
,
0200
0001
0010
0301
2000
0010
0001
3010
0200
0001
0010
0301
2000
0010
3001
0010
,
2200
0000
0301
0010
0100
0010
0001
3100
0022
0000
1030
0100
0010
0100
1000
0013
,
0220
0000
1300
0100
0001
0100
1000
0031
1100
0010
1100
0010
1001
1010
0100
0011
,
1002
0100
1000
0103
0020
1000
0100
1030
0002
0100
1000
0103
0020
1000
0100
1030
,
0002
0100
1000
0103
0020
1000
0100
1030
0002
0100
1000
0103
0020
1000
0130
1000
,
0022
0000
0130
1000
0010
0103
0011
1000
0220
0000
1300
0001
1000
0100
1031
0000
,
1100
0010
0100
0011
0000
0100
0011
1000
0110
0000
0100
1001
0010
1001
0000
0110
,
1100
0000
1100
0000
0011
1100
0000
1100
0000
1001
0010
0000
1001
0100
0000
0100
,
0101
1010
0101
0000
1100
0011
0000
0011
0000
1001
0100
0000
1001
0010
0110
0000
,
1100
0011
1100
0000
1001
0110
0000
0110
0000
1001
0110
0000
1001
0110
0000
0110
,
2000
0000
3012
0000
0000
1203
0000
0000
0321
1000
0130
2001
0100
3010
0011
1000
,
1100
0010
0101
0010
1000
0010
0101
0010
1000
0010
0101
0010
1000
0010
0101
0010
,
1100
0001
0110
0001
1000
0001
0110
0001
1000
0001
0110
0001
1000
0001
0110
0001
,
2100
0000
0011
0100
0001
0100
0010
0100
3012
0000
1100
0010
1000
0010
0100
0013
,
2001
0000
0000
0000
0000
0000
0000
0000
0000
0000
0000
0000
0000
0000
0000
0000
0000
0000
0000
0000
0000
0000
0000
0000
0101
0000
0000
0000
0000
0000
0000
0000
0000
0000
0000
0000
0010
0000
0000
0000
0000
0000
0000
0000
0000
0000
0000
0000
0100
0000
0000
0000
0000
0000
0000
0000
0000
0000
0000
0000
0010
0000
0000
0000
0000
0000
0000
0000
0000
0000
0000
0000
0011
0000
0000
0000
0000
0000
0000
0000
0000
0000
0000
0000
3100
0000
0000
0000
0000
0000
0000
0000
0000
0000
0000
0000
0001
0000
0000
0000
0000
0000
0010
0000
0000
0000
0000
0000
0100
0000
0000
0000
0000
0000
0000
0000
0000
0000
0000
0000
0010
0000
0000
0000
0000
0000
0100
0000
0000
0000
0000
0000
1000
0000
0000
0000
0000
0000
0000
0000
0000
0000
0000
0000
0001
0000
0000
0000
0000
0000
0000
0000
0010
0000
0000
0000
0000
0000
0000
0000
0100
0000
0000
0000
0000
0000
0000
0000
1000
0000
0000
0000
0000
0000
0000
0000
0100
0000
0000
0000
0000
0000
0000
0000
0010
0000
0000
0000
0000
0000
0000
0000
,
1001
0000
0100
0000
1011
0000
0100
1010
0000
1010
0100
0000
1011
0000
0110
0000
,
1001
0001
0110
0000
1010
1000
0101
0000
0011
0010
1100
0001
0110
0010
1100
0011
,
1001
0100
0010
1001
0100
0010
1001
0001
0110
1000
0001
1100
0010
0001
0110
0010
,
1001
0100
0010
1001
0100
0010
1001
0100
0011
1000
0100
0011
0100
1000
1001
0010
,
2100
0000
0001
0011
0100
0001
0010
3001
0210
0000
1000
1010
0001
1000
0001
0310
,
1002
0010
0100
0100
0010
1000
1100
0013
1001
0010
0110
0010
0101
1100
0010
0100
,
1001
0100
0011
1000
0010
0001
1100
0010
1000
0001
1010
0100
0010
0001
1100
0010
,
1001
0100
0011
0100
1000
0100
1001
0010
0100
1000
0110
0001
0010
1000
0101
0010
,
2020
3030
0101
2020
0000
0000
0000
3030
0202
0303
1010
0202
0000
0000
0000
0303
,
0011
0100
1000
0100
1011
0000
0100
0100
0011
1000
0101
1000
0011
0100
0000
0110
,
1001
0010
0100
0010
1001
0010
0100
0010
1100
0001
0011
0001
0100
0010
0100
0010
,
2002
3003
0000
0000
0100
0000
0000
0000
0010
0000
0000
0000
2002
0000
0000
0000
3003
0000
0000
0000
1000
0000
0000
0000
0022
0000
0000
0000
0033
0000
0000
0000
1000
0000
0000
0000
0220
0000
0000
0000
0330
0000
0000
0000
1000
0000
0000
0000
0011
0000
0000
0000
0100
0000
0000
0000
1000
0000
0000
0000
0021
0000
0000
0000
,
0000
0000
0000
0000
0100
0000
0000
0000
0001
0000
0000
0000
0130
0000
0000
0000
2002
3003
0000
0000
0010
0000
0000
0000
0001
0000
0000
0000
1100
0000
0000
0000
0000
0000
0000
0000
0010
0000
0000
0000
0202
0000
0000
0000
0303
0000
0000
0000
1000
0000
0000
0000
0220
0000
0000
0000
0330
0000
0000
0000
1000
0000
0000
0000
,
0100
1000
0001
0010
0101
1000
0011
0100
0011
1000
1100
0001
0100
0010
2002
3003
,
0001
2200
3300
0001
0220
0330
1000
0022
0033
0100
1000
0100
0011
0001
0011
0100
,
1010
0000
0000
0010
0000
0000
1001
0000
0000
0100
0000
0000
1001
0000
0000
0010
0000
0000
0100
0000
0000
0110
0000
0000
1001
0000
0000
0000
0000
0000
0000
0000
0010
0100
0001
0000
0000
0000
0000
0000
1110
0000
0000
0000
0000
0000
0000
0000
,
2002
3003
0000
0000
0000
0000
0000
0000
0000
0000
0000
0000
0000
0000
0000
0000
0000
0000
0000
0000
0000
0000
0000
0000
0000
0000
0000
0000
0000
0000
0000
0000
0021
0000
0000
0000
1000
0000
0000
0000
0100
0000
0000
0000
1030
0000
0000
0000
0002
0000
0000
0000
0100
0000
0000
0000
1000
0000
0000
0000
0103
0000
0000
0000
,
0020
1000
0100
1030
0002
0100
1000
0103
0020
1000
0100
1030
0002
0100
1000
0103
,
0020
1000
0100
1030
0002
0100
1003
0100
0022
0000
1030
0100
0010
0100
1000
0013
,
2200
0000
0301
0010
0100
0010
0001
3100
0220
0000
0031
0010
1000
0010
0001
1300
,
0011
0100
0011
0100
1001
0101
0010
1100
2001
0010
0001
3010
0200
0001
0010
0301
,
2000
0010
0001
3010
0200
0001
0010
0301
2000
0010
0001
3010
0200
0001
0010
0301
,
2000
0010
0001
3010
0200
0001
0310
0001
2200
0000
0310
0001
0100
3010
1100
0001
,
0220
0000
0031
1000
0001
0010
1301
0000
0011
0100
0010
1100
0000
0010
1100
0001
,
0110
0000
0010
1001
0100
1001
0000
0110
0011
0000
0011
0000
0110
1001
0000
0110
,
0000
1001
0100
0000
1001
0010
0000
0010
1100
0011
1100
0000
1001
0110
0000
0110
,
0000
0110
1001
0000
1001
0100
0110
0000
1010
0101
1010
0000
1001
0110
0000
0110
,
0000
1001
0110
0000
1001
0110
0000
0110
0002
0000
2103
0000
0000
3021
0000
0000
,
1230
0001
0010
1302
0010
0100
1103
0001
0011
0100
1010
0100
0001
0100
1010
0100
,
0001
0100
1010
0100
0001
0100
1010
0100
0011
1000
0110
1000
0001
1000
0110
1000
,
0001
1000
0110
1000
0001
1000
0110
1000
0012
0000
1100
0010
1000
0010
0100
0010
,
2103
0000
0000
0000
0011
0000
0100
0000
0001
0000
0100
0000
0010
0000
3100
0000
0001
0010
1000
0000
0001
0010
0100
0000
0001
0010
1000
0000
0001
0010
0100
0000
,
0001
0001
1000
1010
0100
0001
1000
0010
1001
0000
0010
0000
1101
0000
0010
0101
,
0000
0101
0010
0000
1101
0000
0110
0000
1001
1000
0110
1000
1100
0001
0011
1100
,
0010
1001
0110
0100
1001
0100
0011
1100
1001
0010
0100
1001
0010
0100
1001
1000
,
0110
0001
1000
0011
0100
1000
0110
0100
1001
0010
0100
1001
0010
0100
1001
0010
,
1100
0001
0010
1100
0010
0001
1001
0100
0012
0000
1000
1100
0010
1000
0100
1003
,
0120
0000
0001
0101
1000
0001
1000
0130
2001
0100
0010
0010
0100
0001
0011
3100
,
0001
0010
1001
1100
0011
0100
1010
1000
0101
0010
0001
1100
1010
0010
1001
0100
,
1010
0100
0011
1100
0001
1010
0101
0010
2001
0100
0010
3100
0001
1000
0101
0010
,
1001
0100
1100
0011
0100
0010
1010
0001
0220
0330
1001
0220
0000
0001
1000
0330
,
2002
3003
0110
2002
0000
0100
0010
3003
0101
0010
1000
0010
0101
0010
1000
0110
,
1001
0000
0000
0000
0100
0000
0100
0000
1010
0000
0000
0000
0000
0000
0000
0000
1000
0100
0001
0000
1000
0100
0010
0000
1001
0000
0110
0000
0000
0000
1000
0000
,
0011
0001
0110
0100
1010
1000
0101
0010
1001
0100
1000
0010
1000
0100
0010
0001
,
1000
0100
1000
0010
0100
1000
0100
0010
0001
1000
0100
1000
0010
0100
1000
0100
,
0001
0010
0100
0010
0001
0100
0010
1000
0100
0001
0100
0010
0100
1000
0100
0010
,
1000
0100
0010
0001
1000
0100
0010
0001
0001
0100
1000
0100
0010
0100
1000
0100
,
0001
0000
0000
0010
0000
0000
1000
0000
0100
0000
1000
0000
0021
0000
0000
0000
0000
0000
0000
0000
0030
0000
0000
0000
1001
0000
0000
0000
0000
0000
0100
0000
0000
0100
0000
0000
1010
0000
0000
0000
0000
0000
0100
0000
0000
0000
0000
0000
,
1001
0000
0010
0010
0101
0010
0000
0100
1001
0000
0100
0100
1010
0000
0100
0000
,
1001
0000
0010
0010
0101
0010
0000
0100
0011
1000
0100
1000
0011
1000
0100
1000
,
0011
1000
0100
1000
0011
0000
0100
0000
1010
0010
0010
0010
1100
0000
1001
0110
,
0000
1001
0110
0000
1001
0001
0110
0001
1100
0100
1001
0100
0100
0100
1001
0100
,
0100
0100
1001
0100
0100
0100
1001
0100
0011
0010
1001
0010
0010
0010
1001
0010
,
0010
0010
1001
0010
0010
0010
1001
0010
1100
0011
0110
1000
0101
0010
0011
0100
,
1100
0001
1001
0110
1100
0010
0011
1000
1001
1001
0000
0110
0110
0000
0101
0101
,
0000
0000
0000
1010
0000
0000
1010
0000
0000
0000
0000
0000
0101
0000
0000
1000
0000
0000
0010
0000
0000
0100
0000
0000
1001
0000
0000
0010
0000
0000
0011
0000
0000
0010
0000
0000
1100
0000
0000
1000
0000
0000
0010
0000
0001
0000
0100
0000
,
1001
0000
0000
0000
1010
0000
0010
0000
0100
1000
0100
0000
0001
0000
0100
0010
0100
0000
1000
0000
0001
0010
0100
0000
0001
0000
1001
0000
1100
0000
0100
0000
,
1010
1001
0010
0110
2002
0000
0000
3003
0102
0000
1010
0000
1103
0100
0011
0000
,
2010
0000
0000
0000
0000
0000
0000
0000
3101
0000
0000
0000
0000
0000
0000
0000
0012
0000
0000
0000
0000
0000
0000
0000
1103
0000
0000
0000
0000
0000
0000
0000
1001
0000
0000
0000
0000
0000
0000
0000
0000
0000
0000
0000
0100
0010
0000
0000
0000
0000
0000
0000
0000
0000
0000
0000
1001
0000
0000
0000
0000
0000
0000
0000
,
0000
0000
0000
0000
0000
0000
0000
0000
0000
0000
0000
0000
0100
0000
0000
0000
0000
0000
0010
0000
0000
0000
0000
0000
0000
0000
0000
0000
0000
0000
0000
0000
0000
0000
0000
0000
0000
0000
0000
0000
0000
0000
0000
0000
0000
0000
0000
0000
1001
0000
0000
0000
0000
0000
0000
0000
0000
0000
0000
0000
0000
0000
0000
0000
0000
0000
0000
0000
0000
0000
0000
0000
0000
0000
0000
0000
0000
0000
0000
0000
0000
0000
0000
0000
0000
0000
0000
0000
0000
0000
0000
0000
0000
0000
0000
0000
1000
0000
0000
0000
0000
0000
0000
0000
0100
0000
0000
0000
0000
0000
0000
0000
1000
0000
0000
0000
0000
0000
0000
0000
0001
0000
0000
0000
0000
0000
0000
0000
0010
0000
0000
0000
0000
0000
0000
0000
0001
0000
0000
0000
0000
0000
0000
0000
0100
0000
0000
0000
0000
0000
0000
0000
1000
0000
0000
0000
0000
0000
0000
0000
0010
0000
0000
0000
0000
0000
0000
0000
1000
0000
0000
0000
0000
0000
0000
0000
0100
0000
0000
0000
0000
0000
0000
0000
0010
0000
0000
0000
0000
0000
0000
0000
,
0100
0001
0010
0001
0100
1000
0010
0001
0100
0010
1000
0100
0001
0010
0001
1000
0100
1000
0010
0001
0010
0100
1000
0100
,
0001
0010
0001
0100
0010
1000
0100
1000
0010
0100
0001
0010
1000
0100
0001
0100
1000
0010
0001
0100
1000
0001
0010
0100
,
1000
0010
0100
0001
0010
0001
0100
0010
1000
0100
1000
0001
0100
0010
0100
0001
1000
0001
0010
0100
0010
1000
0001
1000
,
0001
0000
0000
0000
0000
0000
0000
0000
0010
0000
0000
0000
0000
0000
0000
0000
0001
0000
0000
0000
0000
0000
0000
0000
1000
0000
0000
0000
0000
0000
0000
0000
0100
0000
0000
0000
0000
0000
0000
0000
0010
0000
0000
0000
0000
0000
0000
0000
1000
0000
0000
0000
0000
0000
0000
0000
0100
0000
0000
0000
0000
0000
0000
0000
1000
0000
0000
0000
0000
0000
0000
0000
0001
0000
0000
0000
0000
0000
0000
0000
0010
0000
0000
0000
0000
0000
0000
0000
0100
0000
0000
0000
0000
0000
0000
0000
0010
0000
0000
0000
0000
0000
0001
0000
0000
0000
0000
0000
1000
0000
0000
0000
0000
0000
0000
0000
0000
0000
0000
0000
0010
0000
0000
0000
0000
0000
0001
0000
0000
0000
0000
0000
0100
0000
0000
0000
0000
0000
0000
0000
0000
0000
0000
0000
0010
0000
0000
0000
0000
0000
0001
0000
0000
0000
0000
0000
1000
0000
0000
0000
0000
0000
0000
0000
0000
0000
0000
0000
0010
0000
0000
0000
0000
0000
0001
0000
0000
0000
0000
0000
0100
0000
0000
0000
0000
0000
0000
0000
0000
0000
0000
0000
,
0001
0010
1000
0000
0001
0010
0100
0000
0001
0010
1000
0000
0001
0010
0100
0000
0001
0000
0011
0000
0100
0000
0001
0000
0011
0000
1000
0000
0001
0000
0011
0000
,
0100
0001
0011
1000
0110
1001
0110
1001
1111
0000
0000
0000
0000
0000
0000
0000
,
0000
0000
1100
0000
0000
0011
0000
0000
0000
0000
1111
0000
0000
0000
0000
0000
,
0000
0000
0000
0000
0000
0000
0000
0000
2010
0000
3001
0010
1100
0100
0011
1000
,
0102
0000
0013
1000
0101
0100
1010
0000
1002
0010
0100
0010
1000
1100
0010
1003
,
0110
0001
1001
0010
0110
1000
0100
0001
1010
0100
0011
1000
1100
0010
1001
0000
,
0101
0100
1001
0010
1100
1000
0011
0000
1001
0100
0001
1100
1010
0100
1000
0011
,
1001
0100
0010
1001
1010
0010
0101
0000
0220
0330
1001
0220
0000
1000
0001
0330
,
2002
3003
0110
2002
0000
0010
0100
3103
1100
0100
0011
0001
1100
0100
0011
0010
,
1100
0100
0011
0001
1100
0100
0011
0010
1100
1000
0011
0001
1100
1000
0011
0010
,
1100
0000
0001
0010
0100
1000
0011
0000
0110
0000
1001
0000
0110
0000
1001
0000
1001
0000
0100
0000
0010
0000
1001
0000
0100
0000
0010
0000
1001
0000
0001
0000
,
0110
1000
0001
1100
0010
0001
0110
0010
1001
0100
0010
1001
0100
0010
1001
0100
,
0011
1000
0100
0011
0100
1000
1001
0010
2100
0001
0011
0100
0001
0010
0100
3010
,
0210
1000
1001
0010
1000
0001
1300
0010
0102
1000
0010
0100
0010
1000
1010
0103
,
1000
0011
1001
0010
1100
0100
0011
1100
0001
0010
0110
0010
0001
0010
0110
0010
,
0001
0010
0110
0010
0001
0010
0110
0010
1000
0010
0110
0010
1000
0010
0110
0010
,
1000
0010
0110
0010
1000
0010
0110
0010
0220
0330
1001
0120
0000
1000
0100
0130
,
2002
3003
0110
2001
0000
0100
0010
3010
0101
1000
0011
0100
0101
1000
0011
0100
,
1010
0001
1100
0010
1010
0001
1100
0010
1001
0100
0011
1100
1001
0010
0100
0010
,
1100
0001
1001
0001
0110
0010
0010
0010
1001
1000
0110
1000
0011
0100
1001
0011
,
0100
0001
1010
0100
0001
0010
1100
0011
1001
0100
0011
0010
0101
1000
1010
0100
,
0011
0001
1000
0110
1001
0010
0100
1010
0110
0001
1010
1000
0011
1100
0011
1100
,
1010
0100
0011
1000
1001
0011
0100
1000
0110
1001
0011
0100
1001
1000
0101
0010
,
1100
1000
0011
1000
0110
0100
1010
0101
0011
1000
0110
0100
1001
0110
1010
0001
,
1100
1001
0110
0010
1100
0011
1100
0011
1010
1000
1100
0010
0011
1000
1001
0110
,
0011
1000
1100
0001
0101
1000
0011
0100
1001
0100
1100
0010
0101
1000
0011
0110
,
1000
0100
1010
0001
0110
1001
0100
0011
1100
1000
0011
0100
1001
0100
1010
0100
,
1100
0010
1001
0001
0110
0100
1001
0010
1100
0001
0110
0010
1100
0010
1001
0100
,
0001
0010
1000
0001
1100
0011
0010
1100
0011
0001
1100
0011
0010
1100
0011
0001
,
1010
0100
1001
0010
0110
1000
1000
0100
2201
0010
0001
3310
1202
0010
1000
0313
,
1022
0100
1000
0133
2021
0100
0001
3130
1001
0010
1100
1010
0101
1000
0011
1100
,
1001
0000
0000
0110
0000
0000
0101
0000
0000
0010
0000
0000
1010
0000
0000
0100
0000
0000
0101
0000
0000
0010
0000
0000
1101
0000
0000
0000
0000
0000
0000
0000
0111
0000
0000
0000
0000
0000
0000
0000
1011
0000
0000
0000
0000
0000
0000
0000
,
1111
0000
1101
0000
1110
0000
2222
0000
0000
0000
0000
0000
,
0000
0000
3333
0000
;
