#TITLE:Magical Sanctuary;
#SUBTITLE:;
#ARTIST:Kobaryo;
#TITLETRANSLIT:;
#SUBTITLETRANSLIT:;
#ARTISTTRANSLIT:;
#CREDIT:;
#BANNER:magical sanctuary bn.png;
#BACKGROUND:magical sanctuary bg.png;
#LYRICSPATH:;
#CDTITLE:;
#MUSIC:Magical Sanctuary.ogg;
#OFFSET:0.009;
#SAMPLESTART:110.991;
#SAMPLELENGTH:11.531;
#SELECTABLE:YES;
#BPMS:0.000=166.500;
#STOPS:;
#BGCHANGES:;
// cache tags:
#FIRSTBEAT:12.000;
#LASTBEAT:380.000;
#SONGFILENAME:Songs/SPEEEDCOOOORE 4/Magical Sanctuary - [CondorTalon]/Magical Sanctuary.sm;
#HASMUSIC:1;
#HASBANNER:1;
#MUSICLENGTH:140.819;
// end cache tags

//---------------dance-single - CondorTalon----------------
#NOTES:
     dance-single:
     CondorTalon:
     Challenge:
     13:
     1.000,1.000,0.121,0.305,1.000,1015.000,17.000,43.000,23.000,0.000:
0000
0000
0000
0000
,
0000
0000
0000
0000
,
0000
0000
0000
0000
,
0001
0000
1000
0010
0000
0100
0000
0001
,
0010
0000
0100
1000
0000
0001
0000
0100
,
0010
0000
0100
0001
0000
1000
0000
0100
,
0010
0000
0001
1000
0001
0100
0020
2030
,
3001
0010
0100
1000
0001
0100
0010
1000
,
0100
0000
1000
0000
0001
0000
0010
0000
0001
0000
1000
0000
0100
0010
0001
1000
,
0001
0100
0010
1000
0010
0100
0001
0010
,
0001
0000
1000
0000
0010
0000
0100
0000
0010
1000
0001
0000
0010
0000
0100
0010
,
0002
0000
0000
0000
,
0000
0000
0000
0000
1003
0001
1000
0001
,
1000
0000
0100
0100
0001
0000
1000
0010
0000
0100
0001
0010
0100
1000
0001
0000
,
1000
0100
0010
0001
1000
0000
0010
0100
0001
1000
0001
0010
0100
1000
0001
0000
,
1000
0000
0010
0010
0001
0000
1000
0001
0000
0100
0010
1000
0010
1000
0100
0000
,
0010
0000
0000
0001
0000
0000
1000
0000
0000
0001
0000
0000
0100
0000
0000
0000
0000
0000
0010
0000
0000
1000
0000
0000
0001
0000
0000
1000
0000
0000
0100
0000
0000
0010
0000
0000
0001
0000
1000
0000
0010
0000
1000
0000
0000
0010
0000
0000
,
1000
0000
0001
0000
0100
0000
0010
1000
0001
0010
0100
1000
0100
1000
0001
0100
,
0010
0000
0000
1000
0000
0000
0001
0000
0000
0000
0000
0000
0010
0000
0000
0000
0000
0000
0100
0000
0000
1000
0000
0000
0100
0000
0000
0010
0000
0000
0001
0000
0000
0100
0000
0000
0010
0000
1000
0000
0010
0000
0100
0000
0000
0001
0000
0000
,
1000
0000
0100
0000
0010
0000
0001
1000
0010
1000
0010
0100
0001
0010
0100
1000
,
0001
0100
0001
0000
1000
0000
0010
0100
0001
1000
0100
0010
0002
0000
2003
0000
,
3001
0000
0010
0010
1000
0000
0100
0010
0000
0001
1000
0001
0100
0010
1000
0000
,
0001
0010
0100
0010
0001
0000
1000
0010
0100
0001
1000
0100
0010
0001
1000
0000
,
0001
0000
0100
0100
1000
0000
0001
0100
0000
0010
0000
1000
0001
0010
0100
0000
,
0010
0000
0000
0001
0000
0000
1000
0000
0000
0010
0000
0000
0100
0000
0000
0000
0000
0000
0001
0000
0000
0010
0000
0000
0100
0000
0000
1000
0000
0000
0100
0000
0000
1000
0000
0000
0001
0000
0100
0000
0010
0000
1000
0000
0000
0001
0000
0000
,
0010
0000
0100
0000
1000
0000
0001
0100
0001
0100
0010
1000
0100
0010
0001
1000
,
0001
0000
0000
0100
0000
0000
0010
0000
0000
0000
0000
0000
1000
0000
0000
0000
0000
0000
0001
0000
0000
0010
0000
0000
0001
0000
0000
0100
0000
0000
0010
0000
0000
1000
0000
0000
0001
0000
0010
0000
0100
0000
2000
0000
0000
0000
0000
0000
,
3001
0000
0000
0000
0000
0000
0100
0000
0000
0000
0000
0000
0010
0000
0000
0000
0000
0000
1000
0000
0000
0100
0000
0000
0010
0000
0000
0100
0000
0000
1000
0000
0000
0001
0000
0000
0100
0000
0000
0010
0000
0000
1000
0000
0001
0000
1000
0000
,
0010
0000
0000
0100
0000
0000
0001
0000
0000
0010
0000
0000
0100
0000
0000
1000
0000
0000
0001
0000
0000
1000
0000
0000
0001
0000
0000
0010
0000
0000
0100
0000
1000
0000
0001
0000
2000
0000
0000
0000
0000
0000
3020
0000
0000
0000
0000
0000
,
0130
0001
0010
M001
,
1000
0M00
001M
0100
0001
0000
10M0
0100
,
0010
0000
0001
0000
1000
0000
0M10
000M
,
0100
0000
M000
0000
0001
0000
0000
0000
0020
0000
0230
0000
1300
0001
1000
0001
,
0010
0000
0001
1000
0100
0100
0001
1000
0010
0100
0001
0100
0010
1000
0100
0010
,
0001
0000
1000
0001
0100
0100
1000
0001
0010
0100
0010
0001
1000
0010
0200
0000
,
0301
0000
1000
0001
0010
0010
1000
0001
0010
0100
0010
0001
0100
0010
1000
0001
,
1000
0000
0001
1000
0010
0010
0001
1000
0100
0010
0001
1000
0004
0000
0103
0010
,
1000
0000
0000
0000
0000
0000
0001
0000
0000
0100
0000
0000
0010
0000
0000
0010
0000
0000
0001
0000
0000
1000
0000
0000
0010
0000
0000
0100
0000
0000
0001
0000
0000
1000
0000
0000
0100
0000
0000
0010
0000
0000
0001
0000
1000
0000
0001
0000
,
1000
0000
0000
0000
0000
0000
0001
0000
0000
0010
0000
0000
0100
0000
0000
0100
0000
0000
0001
0000
0000
1000
0000
0000
0100
0000
0000
0010
0000
0000
0100
0000
1000
0000
0001
0000
0100
0000
0000
0010
0000
0000
1000
0000
0001
0000
0010
0000
,
0001
0000
0000
0000
0000
0000
1000
0000
0000
0010
0000
0000
0100
0000
0000
0100
0000
0000
1000
0000
0000
0001
0000
0000
1000
0000
0000
0100
0000
0000
0010
0000
0000
0100
0000
0000
1000
0000
0000
0010
0000
0000
0100
0000
0001
0000
1000
0000
,
0001
0000
0000
0000
0000
0000
1000
0000
0000
0100
0000
0000
0010
0000
0000
0010
0000
0000
1000
0000
0000
0001
0000
0000
0100
0000
0000
0001
0000
0000
1000
0000
0100
0000
0010
0000
0002
0000
0000
0000
0000
0000
2003
0000
0000
0000
0000
0000
,
3010
0000
0000
0100
0000
0000
0001
0000
0000
1000
0000
0000
0100
0000
0000
0010
0000
0000
0001
0000
0000
1000
0000
0000
0001
0000
0000
0100
0000
0000
0010
0000
0000
1000
0000
0000
0001
0000
0000
0010
0000
0000
0100
0000
1000
0000
0001
0000
,
1000
0000
0000
0010
0000
0000
0100
0000
0000
0001
0000
0000
1000
0000
0000
0100
0000
0000
0010
0000
0000
0001
0000
0000
1000
0000
0000
0010
0000
0000
0100
0000
0001
0000
0100
0000
0010
0000
0000
1000
0000
0000
0001
0000
0010
0000
0100
0000
,
1000
0000
0000
0001
0000
0000
1000
0000
0000
0010
0000
0000
0100
0000
0000
0001
0000
0000
1000
0000
0000
0100
0000
0000
0010
0000
0000
0001
0000
0000
0010
0000
0000
0100
0000
0000
1000
0000
0000
0010
0000
0000
0100
0000
0001
0000
1000
0000
,
0001
0000
0000
0010
0000
0000
0100
0000
0000
1000
0000
0000
0100
0000
0000
1000
0000
0000
0001
0000
0000
0100
0000
0000
0001
0000
0000
0010
0000
0000
0100
0000
1000
0000
0100
0000
2000
0000
0000
3002
0000
0000
0203
0000
0000
0000
0000
0000
,
0310
1000
00M1
1000
0000
010M
0010
0M01
,
1000
00M1
M100
0010
0000
1000
00M1
0100
,
0010
0000
1000
0000
0M01
0000
0010
0000
0100
1000
0100
0010
0001
1000
0010
0100
,
0001
0000
0000
0000
10M0
0000
0000
0000
010M
000M
000M
0000
10M0
0000
0000
0000
0M10
0000
0000
0000
000M
0000
0000
0000
0100
0000
0000
0000
M000
0000
0000
0000
,
0001
0000
0M10
0000
0001
0000
1000
0000
0001
0100
0010
1000
0001
1000
0100
0010
,
0001
0010
0100
0010
0001
1000
0010
0100
0001
1000
0100
1000
0001
0010
0100
0010
,
0001
1000
0010
0100
0001
0010
0100
1000
0001
0100
0010
1000
0010
0100
0001
1000
,
0001
0000
0000
0000
,
2000
0000
0000
0000
3002
0000
0000
1003
0020
0000
0000
0000
0000
0000
0000
0000
,
0130
0000
0000
0001
0000
0000
1000
0100
1000
0000
0000
1000
0000
0000
1000
0000
,
0002
0000
0000
0000
0000
0000
0023
0000
0000
0000
0000
0000
0230
0000
0000
0000
0000
0000
0000
0000
0000
1300
0000
0000
0004
0000
0000
0000
0000
0000
0000
0000
0000
0000
0000
0000
0000
0000
0000
0000
0000
0000
1003
0000
0100
0000
0010
0000
,
0100
0000
0000
1000
0000
0000
0001
0000
0000
0100
0000
0000
0010
0000
0000
0100
0000
0000
0001
0000
1000
0000
0100
0000
0010
0000
0000
0000
0000
0000
0001
0000
0000
1000
0000
0000
0010
0000
0100
0000
0001
0000
1000
0000
0000
0100
0000
0000
,
0020
0000
0000
0000
0032
0000
0000
1003
0020
0000
0000
0000
0230
0000
0000
0000
,
0301
0000
0000
0000
0000
0000
0000
0000
0000
0010
0000
0000
0000
0000
0000
0000
0000
0000
0100
0000
1000
0000
0100
0000
0010
0000
0000
0000
0000
0000
0000
0000
0000
0010
0000
0000
0000
0000
0000
0000
0000
0000
0010
0000
0000
0000
0000
0000
,
0001
0000
0000
1000
0000
0000
0001
0000
0000
0100
0000
0000
0010
0000
0000
1000
0000
0000
0100
0000
0000
0010
0000
0000
0001
0000
0000
0010
0000
0000
0100
0000
0000
1000
0000
0000
0001
0000
0000
1000
0000
0000
0001
0000
0100
0000
0010
0000
,
2000
0000
3200
0000
0320
0000
0032
0000
0203
0000
0310
1000
0001
0010
0001
1000
,
0020
0000
0000
0000
0000
0000
0000
0000
0000
0000
0000
0000
0000
0000
0000
0130
0000
0000
0001
0000
0000
1000
0000
0000
0001
0000
0000
0000
0000
0000
0010
0000
0000
0100
0000
0000
1000
0000
0000
0000
0000
0000
0001
0000
0100
0000
0010
0000
,
1000
0000
0000
0000
0000
0000
0001
0000
0000
0000
0000
0000
0010
0000
0000
0000
0000
0000
0100
0000
0000
1000
0000
0000
0001
0000
0000
0000
0000
0000
0100
0000
0010
0000
1000
0000
0001
0000
0000
0000
0000
0000
0010
0000
0100
0000
1000
0000
,
0200
0000
0000
0000
0000
0000
0000
0000
0000
0000
0000
0000
0310
0000
0000
0000
0000
0000
0001
0000
0000
1000
0000
0000
0001
0000
0000
0000
0000
0000
0100
0000
0000
0010
0000
0000
1000
0000
0000
0000
0000
0000
0001
0000
0010
0000
0100
0000
,
1000
0000
0000
0000
0000
0000
0001
0000
0000
0000
0000
0000
1000
0000
0000
0000
0000
0000
0010
0000
0000
0100
0000
0000
0001
0000
0000
0010
0000
0000
0100
0000
1000
0000
0001
0000
0200
0000
0000
0000
0000
0000
0000
0000
0000
0000
0000
0000
,
0310
0000
1000
0000
0001
0000
0100
0010
1000
0000
0001
0000
0010
0000
0400
0000
,
1300
0001
0010
0001
1000
0010
0100
0010
1000
0001
0010
0100
1000
0000
0004
0000
,
1003
0040
1030
0400
0310
0004
1003
0400
0310
0004
0103
0040
1030
0004
4003
0000
,
3100
0000
0010
0000
0100
0000
0040
0000
0000
0000
0000
0000
0031
0000
1000
0000
0001
0000
4000
0000
0000
0000
0000
0000
3010
0000
0000
0100
0000
0000
0001
0000
0100
0000
0010
0000
0000
0000
0000
0000
0000
0000
0000
0000
0000
0000
0000
0000
,
1000
0000
0010
0000
0100
0000
0001
0000
1000
0010
0100
0010
1000
0000
0001
0000
,
0100
0000
0001
0000
0010
0000
0100
0000
1000
0001
1000
0010
0100
0000
0001
0000
,
1000
0000
0010
0000
1000
0000
0100
0000
0010
0001
0010
0100
1000
0000
0001
0000
,
1000
0000
0010
0000
1000
0000
0001
0000
0010
0100
0010
0001
1000
0000
0010
0000
,
0100
0000
0001
0000
1000
0000
0100
0000
0010
0100
1000
0001
1000
0000
0010
0000
,
0100
0000
0001
0000
1000
0000
0100
0000
0010
0100
1000
0001
1000
0000
0010
0000
,
0100
0000
0001
0000
1000
0000
0010
0000
1000
0100
0010
0001
1000
0000
0010
0000
,
0000
0000
0000
4000
,
3001
0000
0010
0000
0100
0000
0010
0000
0001
1000
0001
0100
0010
0000
1000
0100
,
0010
0000
0001
0000
1000
0000
0010
0000
0100
0001
1000
0001
0010
0100
2000
0000
,
3001
0000
0100
0000
0010
0000
1000
0000
0100
0010
0001
1000
0001
0000
0100
0010
,
1000
0000
0000
0000
0000
0000
0001
0000
0000
0000
0000
0000
0010
0000
0000
0000
0000
0000
0100
0000
0000
0000
0000
0000
0010
0000
0000
0001
0000
0000
1000
0000
0010
0000
1000
0000
0002
0000
0000
0000
0000
0000
2003
0000
0000
0000
0000
0000
,
3100
0000
0010
0000
0100
0000
1000
0000
0001
0100
0010
0100
0001
0000
1000
0100
,
0010
0000
0001
0000
1000
0000
0001
0000
0010
0001
0010
0100
0010
0100
2000
0000
,
3001
0000
0100
0000
0010
0000
1000
0000
0100
0010
0001
1000
0001
0000
0100
0010
,
1000
0000
0000
0000
0000
0000
0001
0000
0000
0000
0000
0000
0010
0000
0000
0100
0000
0000
1000
0000
0001
0000
1000
0000
0040
0000
0000
0000
0000
0000
0430
0000
0000
0000
0000
0000
0300
0000
0000
0000
0000
0000
0000
0000
0000
0000
0000
0000
,
0001
0000
0000
0010
0000
0000
0100
0000
0000
1000
0000
0000
0100
0000
0000
1000
0000
0000
0010
0000
0000
0100
0000
0000
0001
0000
0000
1000
0000
0000
0001
0000
0000
0010
0000
0000
0001
0000
0000
1000
0000
0000
0010
0000
0100
0000
0001
0000
,
1000
0000
0000
0100
0000
0000
0010
0000
0000
0100
0000
0000
1000
0000
0000
0100
0000
0000
0010
0000
0000
0001
0000
0000
1000
0000
0010
0000
0100
0000
0010
0000
0000
1000
0000
0000
0001
0000
0010
0000
0100
0000
2000
0000
0000
0000
0000
0000
,
3001
0000
0000
0100
0000
0000
0001
0000
0000
0010
0000
0000
0001
0000
0000
1000
0000
0000
0001
0000
0000
0010
0000
0000
0100
0000
0000
0010
0000
0000
0001
0000
0000
1000
0000
0000
0010
0000
0000
0100
0000
0000
0001
0000
1000
0000
0100
0000
,
0010
0001
1000
0010
0100
0001
1000
0100
1000
0004
1003
0040
0230
0000
0302
0000
,
1003
0000
0000
0100
0000
0000
0010
0000
0000
0001
0000
0000
1000
0000
0000
0001
0000
0000
0100
0000
0000
0010
0000
0000
1000
0000
0000
0010
0000
0000
1000
0000
0000
0100
0000
0000
0010
0000
0000
0001
0000
0000
1000
0000
0010
0000
0100
0000
,
0010
0000
0000
1000
0000
0000
0001
0000
0000
0010
0000
0000
0100
0000
0000
1000
0000
0000
0100
0000
0000
1000
0000
0000
0010
0000
1000
0000
0001
0000
0100
0000
0000
0001
0000
0000
0010
0000
0100
0000
1000
0000
0200
0000
0000
0000
0000
0000
,
0310
0000
0000
0001
0000
0000
1000
0000
0000
0001
0000
0000
0100
0000
0000
0010
0000
0000
1000
0000
0000
0001
0000
0000
0010
0000
0000
0100
0000
0000
1000
0000
0000
0100
0000
0000
1000
0000
0000
0100
0000
0000
0010
0000
0001
0000
1000
0000
,
0001
0000
0000
0100
0000
0000
0010
0000
0000
1000
0000
0000
0100
0000
0000
1000
0000
0000
0001
0000
0100
0000
0010
0000
1000
0000
0000
0004
0000
0000
0013
0000
0100
0000
1000
0000
0100
0000
0010
0000
0001
0000
1000
0000
0001
0000
0100
0000
,
0002
0000
0000
0000
,
0000
0000
0000
0000
,
0003
0000
0000
0000
;
