#TITLE:JANEJANA;
#SUBTITLE:;
#ARTIST:T.E.M.P.O. feat. Mohammed&Emi;
#TITLETRANSLIT:;
#SUBTITLETRANSLIT:;
#ARTISTTRANSLIT:;
#CREDIT:;
#BANNER:JANEJANA.png;
#BACKGROUND:JANEJANAbg.png;
#LYRICSPATH:;
#CDTITLE:;
#MUSIC:JANEJANA.ogg;
#OFFSET:-0.518;
#SAMPLESTART:61.830;
#SAMPLELENGTH:12.000;
#SELECTABLE:YES;
#DISPLAYBPM:125.000;
#BPMS:0.000=125.000;
#STOPS:103.000=0.220
,110.500=0.220
;
#BGCHANGES:;
// cache tags:
#FIRSTBEAT:8.000;
#LASTBEAT:174.500;
#SONGFILENAME:Songs/Rodd's Revival/JANEJANA (Rodd Steps)/JANEJANA (Rodd Steps).sm;
#HASMUSIC:1;
#HASBANNER:1;
#MUSICLENGTH:87.655;
// end cache tags

//---------------dance-single - R. Farias----------------
#NOTES:
     dance-single:
     R. Farias:
     Challenge:
     9:
     0.742,0.747,0.297,0.160,0.616,415.000,26.000,14.000,4.000,0.000:

0000
0000
0000
0000
,
0000
0000
0000
0000
,
1001
0000
1000
0100
0000
0010
0001
0100
0010
0000
0100
0001
0000
1000
0100
0010
,
0001
0000
1000
0100
0000
0010
0100
1000
0001
0000
0100
0010
0100
0000
0001
0000
,
1001
0000
0000
1000
0100
1000
0100
0000
0000
0010
0100
0010
0100
0000
0000
0010
0000
0000
0001
0000
0000
0100
0000
0000
,
0101
0000
0100
0010
0000
0010
1000
0100
0010
0100
1000
0001
0100
0000
0010
0000
,
0110
0000
0000
0010
1000
0010
1000
0000
0000
0100
1000
0100
1000
0000
0000
0100
0000
0000
0010
0000
0000
0001
0000
0000
,
0101
0110
1010
1100
1001
1100
0110
0011
,
0001
0010
0001
0000
0100
0010
1000
0000
0100
0010
0100
0000
0010
0001
0100
0000
,
0001
0100
0001
0000
0100
0010
1000
0000
0100
0010
0001
0000
0001
0010
0100
0000
,
1000
0001
0100
0000
0010
1000
0001
0000
0100
0010
0100
0000
0010
1000
0010
0000
,
1000
0100
1000
0000
0001
1000
0001
0000
0100
0000
0010
0000
0100
0000
0001
0000
,
1000
0100
0010
0000
0010
0100
1000
0000
1000
0001
0100
0000
0100
0010
1000
0000
,
0100
0010
0001
0000
0100
0010
0100
0000
0010
1000
0010
0000
1000
0100
1000
0000
,
0001
1000
0001
0000
0100
0001
0100
0000
0010
1000
0100
0000
0010
0001
0100
0000
,
0110
0000
1000
0000
1010
0000
1000
0000
1100
0000
0000
0100
0010
0000
0000
0010
,
0001
0100
0010
0100
0001
1000
0100
0001
,
0100
0010
0001
0100
0020
0000
2030
0000
,
3100
0010
0100
1000
0001
0100
1000
0100
,
0010
0100
0010
0100
0010
0000
1000
0000
0200
0000
0000
0000
0320
0000
0000
0000
,
0031
0000
0100
0000
0010
0000
0100
0000
0002
0000
0000
2003
0000
0000
3200
0000
,
0302
0000
0000
0203
0000
0000
0320
0000
0032
0000
0000
0000
0103
0000
0010
0000
,
0100
0000
0001
0000
1000
0000
0100
0000
0020
0000
0000
0032
0000
0000
0103
0000
,
0101
0000
0100
0000
0110
0000
0010
0000
1010
0000
0000
1000
0001
0000
0000
0001
,
0100
0000
0010
0000
0100
0000
0001
0000
1000
0100
1000
0000
0001
0000
0100
0000
,
0010
0000
0100
0000
0001
0000
1000
0000
0100
0010
0100
0000
M11M
0000
0010
0000
,
0001
0100
1000
0100
0010
1000
0100
0010
,
0100
1000
0001
0100
0101
M1M1
0100
0010
,
0100
0001
1000
0100
0001
0100
0010
0100
,
0010
0000
0001
0000
0100
0010
0100
0000
0110
0000
0010
0000
1000
0000
0100
0000
,
0001
0100
1000
0010
0100
1000
0100
0010
,
1000
0000
0000
0000
0000
0000
0100
0000
0000
0000
0000
0000
0010
0000
0001
0000
0010
0000
0100
0000
1000
0000
0100
0000
0010
0000
0001
0000
0010
0000
0100
0000
1000
0000
0100
0000
0010
0000
0000
0000
0000
0000
0001
0000
0000
0100
0000
0000
,
0010
0000
0010
1000
0100
0000
0100
0010
0001
0000
0100
0000
0010
0000
1000
0000
,
0100
0000
0010
0000
0100
0000
1000
0000
0001
0000
0100
0000
0010
0000
1000
0100
,
0010
0000
0010
0100
1000
0000
0001
0100
0010
0000
0010
1000
0001
0000
0100
0010
,
0100
0000
0010
1000
0010
1000
0010
0000
1000
0000
0100
0000
0010
0000
0001
0100
,
0001
0000
0100
0010
0100
0000
0010
1000
0010
0000
1000
0100
1000
0000
0001
0100
,
0010
0000
1000
0100
0010
0000
0001
0100
0001
0000
0100
0000
0010
0000
1000
0100
,
0010
0000
0001
0100
0010
0000
1000
0100
0010
0000
0100
1000
0001
0000
0100
0010
,
0100
0000
0010
0000
0110
0000
0010
0000
1010
0000
1000
0000
1100
0000
0100
0010
,
0001
0000
0001
0100
0000
0100
0010
0000
0010
1000
0000
1000
0100
0000
0010
0100
,
0010
0000
0001
0010
0001
0000
0001
1000
0000
1000
0100
0000
0110
0000
0010
0100
,
0010
0000
0001
0100
0000
0010
1000
0000
0100
0010
0000
0100
1000
0000
0001
0100
,
0001
0000
0100
0010
0100
0000
0000
0020
0000
0000
0030
0000
0000
0000
0000
0000
;
