#TITLE:We Are the Crystal Gems;
#SUBTITLE:Steven Universe Opening;
#ARTIST:Rebecca Sugar, Aivi, & Surasshu;
#TITLETRANSLIT:;
#SUBTITLETRANSLIT:;
#ARTISTTRANSLIT:;
#CREDIT:Owem;
#BANNER:../banner.png;
#BACKGROUND:../bg.png;
#LYRICSPATH:;
#CDTITLE:../cdtitleowem.png;
#MUSIC:Rebecca Sugar, Aivi, & Surasshu - We Are the Crystal Gems - Steven Universe Opening.ogg;
#OFFSET:-0.206;
#SAMPLESTART:94.877;
#SAMPLELENGTH:29.999;
#SELECTABLE:YES;
#DISPLAYBPM:185.000;
#BPMS:0.000=170.000,5.000=160.000,46.000=166.667,57.000=166.000,74.000=165.000,98.000=173.000,106.000=175.000,130.000=179.000,146.000=178.000,158.000=177.000,166.000=178.000,178.000=179.000,190.000=175.000,200.000=180.000,209.000=185.000;
#STOPS:;
#BGCHANGES:;
// cache tags:
#FIRSTBEAT:2.875;
#LASTBEAT:420.000;
#SONGFILENAME:Songs/Owem's Simfiles 08 - 1.2/We Are the Crystal Gems - [Owem] v1.0.0/We Are the Crystal Gems.sm;
#HASMUSIC:1;
#HASBANNER:1;
#MUSICLENGTH:143.333;
// end cache tags

//---------------dance-single - 13+ (Owem)----------------
#NOTES:
     dance-single:
     13+ (Owem):
     Challenge:
     13:
     1.000,1.000,0.167,0.844,1.000,881.000,24.000,121.000,0.000,0.000:
0000
0000
0000
0000
0000
0000
0000
0000
0000
0000
0000
0000
0000
0000
0000
0000
0000
0000
0000
0000
0000
0000
0000
0000
0000
0000
0000
0000
0000
0000
0000
0000
0000
0000
0000
0000
0000
0000
0000
0000
0000
0000
0000
0000
0000
0000
1000
0000
0000
0000
0000
0000
0000
0000
0000
0010
0000
0000
0000
0000
0000
0000
0000
0000
,
0100
0000
0001
0000
1000
0000
0100
0000
0020
0000
0000
0030
0001
0000
2000
0000
,
0000
3000
0000
0000
0010
0200
0300
0002
,
0003
0000
0000
0000
2000
0000
0000
0000
3000
0000
0000
0000
0100
0000
0000
0000
0010
0000
0000
0000
0001
0000
0000
0000
2000
0000
0000
0000
3000
0000
0000
0010
,
0000
0000
0000
0100
0000
0000
0000
0001
0000
0000
0000
2000
0000
0000
0000
0000
3000
0000
0000
0000
0000
0000
0100
0000
0000
0000
0010
0000
0000
0000
0001
0000
,
0000
0000
0000
1000
0000
0000
0000
0000
0000
0000
0010
0000
0000
0000
0000
0000
0100
0000
0000
0000
0000
0000
0000
0000
0002
0000
0000
0000
0000
0000
0000
0000
0003
0000
0000
0000
1000
0000
0000
0000
0000
0000
0020
0000
0000
0000
0000
0000
,
0030
0200
0000
0300
0000
0000
0001
0000
2000
0000
0000
3000
0100
0000
0020
0000
,
0030
0001
0100
0010
2000
3000
0001
2000
,
0000
3000
0200
0000
0300
0000
0000
0000
0000
0220
0000
0330
0000
0000
0010
0000
,
0001
0000
1000
0000
0001
0000
0000
0000
0210
0000
0000
0300
0010
0000
2000
0000
,
0000
3000
0002
0000
0003
0000
0020
0000
0000
0000
0030
0000
0100
0000
1000
0000
,
0001
1000
0010
0100
0102
0003
2000
3000
,
0200
0000
0300
0000
0010
0000
0012
0000
0000
0003
0000
0000
1000
0000
0010
0000
,
0100
0010
1000
0001
0020
0030
0100
2000
,
3000
0002
0003
0200
0310
0000
1000
0001
,
1000
0000
0100
0000
0010
0000
0001
0000
0200
0000
0000
0000
0320
0000
0000
0030
,
2000
0000
0000
3000
0001
0000
0201
0000
0310
0000
0000
0000
1000
0000
0001
0000
,
0000
0000
0010
0000
0200
0000
0300
0000
2100
0000
0000
3000
0000
0000
0010
0000
,
0100
0000
0001
0000
1000
0000
0001
0000
0020
0000
0000
0000
0100
0030
0100
0000
,
2000
0001
3001
0100
0020
0000
1030
0001
,
0000
1000
0100
0010
0001
2000
0000
3020
,
0000
0130
0001
1000
0002
0000
0103
0020
,
0000
0030
2000
0000
0000
3000
0002
0000
0103
0000
0020
0000
0000
0000
1030
0000
,
0001
0000
0100
0000
0001
0000
1000
0000
1200
0000
0000
0300
0020
0030
0000
0002
,
0000
0000
0000
0000
2003
0000
0000
0000
0000
0000
0000
0000
0000
0000
0000
0000
3010
0200
0000
0000
0000
0000
0000
0000
0000
0000
0000
0000
0000
0000
0000
0000
,
0000
0000
0000
0000
0000
0000
0000
0000
0000
0000
0000
0000
0000
0000
0000
0000
0000
0000
0000
0000
0000
0000
0000
0000
0000
0000
0000
0000
0000
0000
0000
0000
0000
0000
0000
0000
0000
0000
0000
0000
0000
0000
0000
0000
0000
0000
0000
0000
0000
0000
0000
0000
0000
0000
0000
0000
0000
0000
0000
0000
0000
0000
0000
0000
0000
0000
0000
0000
0000
0000
0000
0000
0000
0000
0000
0000
0000
0000
0000
0000
0000
0000
0000
0000
0000
0000
0000
0000
0000
0000
0000
0000
0000
0000
0000
0000
0302
0000
0000
0000
0000
0000
0000
0000
0000
0000
0000
0000
0000
0000
0000
0000
0000
0000
0000
0000
0000
0000
0000
0000
0000
0000
0000
0000
0000
0000
0000
0000
0000
0000
0000
0000
0000
0000
0000
0000
0000
0000
0000
0000
0000
0000
0000
0000
1003
0000
0000
0000
0000
0000
0000
0000
0000
0000
0010
0000
0000
0000
0000
0000
0000
0000
0000
1000
0000
0000
0000
0000
0000
0000
0000
0000
0000
0001
0000
0000
0000
0000
0000
0000
0000
0000
0100
0000
0000
0000
0000
0000
0000
0000
0000
0000
,
0010
0000
0000
0000
0000
0000
0000
0000
0000
0000
0100
0000
0000
0000
0000
0000
0000
0000
0000
0001
0000
0000
0000
0000
0000
0000
0000
0000
0000
1000
0000
0000
0000
0000
0000
0000
0000
0000
0100
0000
0000
0000
0000
0000
0000
0000
0000
0000
0010
0000
0000
0000
0000
0000
0000
0000
0000
0000
0001
0000
0000
0000
0000
0000
0000
0000
0000
1000
0000
0000
0000
0000
0000
0000
0000
0000
0000
0001
0000
0000
0000
0000
0000
0000
0000
0000
0100
0000
0000
0000
0000
0000
0000
0000
0000
0000
0020
0000
0000
0000
0000
0000
0000
0000
0000
0000
0000
0000
0000
0000
0000
0000
0000
0000
0000
0000
0000
0000
0000
0000
0000
0000
0000
0000
0000
0000
0000
0000
0000
0000
0000
0000
0000
0000
0000
0000
0000
0000
0000
0000
0000
0000
0000
0000
0230
0000
0000
0000
0000
0000
0000
0000
0000
0000
0000
0000
0000
0000
0000
0000
0000
0000
0000
0000
0000
0000
0000
0000
0000
0000
0000
0000
0000
0000
0000
0000
0000
0000
0000
0000
0000
0000
0000
0000
0000
0000
0000
0000
0000
0000
0000
0000
,
0000
0000
0000
0000
0000
0000
0000
0000
0000
0000
0000
0000
0000
0000
0000
0000
0000
0000
0000
0000
0000
0000
0000
0000
0000
0000
0000
0000
0000
0000
0000
0000
0000
0000
0000
0000
0000
0000
0000
0000
0000
0000
0000
0000
0000
0000
0000
0000
0000
0000
0000
0000
0000
0000
0000
0000
0000
0000
0000
0000
0000
0000
0000
0000
0000
0000
0000
0000
0000
0000
0000
0000
0000
0000
0000
0000
0000
0000
0000
0000
0000
0000
0000
0000
0000
0000
0000
0000
0000
0000
0000
0000
0000
0000
0000
0000
0302
0000
0000
0000
0000
0000
0000
0000
0000
0000
0000
0000
0000
0000
0000
0000
0000
0000
0000
0000
0000
0000
0000
0000
0000
0000
0000
0000
0000
0000
0000
0000
0000
0000
0000
0000
0000
0000
0000
0000
0000
0000
0000
0000
0000
0000
0000
0000
1003
0000
0000
0000
0000
0000
0000
0000
0000
0000
0100
0000
0000
0000
0000
0000
0000
0000
0000
1000
0000
0000
0000
0000
0000
0000
0000
0000
0000
0001
0000
0000
0000
0000
0000
0000
0000
0000
0100
0000
0000
0000
0000
0000
0000
0000
0000
0000
,
0010
0000
0000
0000
0000
0000
0000
0000
0000
0000
0100
0000
0000
0000
0000
0000
0000
0000
0000
0001
0000
0000
0000
0000
0000
0000
0000
0000
0000
1000
0000
0000
0000
0000
0000
0000
0000
0000
0100
0000
0000
0000
0000
0000
0000
0000
0000
0000
0010
0000
0000
0000
0000
0000
0000
0000
0000
0000
0001
0000
0000
0000
0000
0000
0000
0000
0000
1000
0000
0000
0000
0000
0000
0000
0000
0000
0000
0001
0000
0000
0000
0000
0000
0000
0000
0000
0010
0000
0000
0000
0000
0000
0000
0000
0000
0000
0200
0000
0000
0000
0000
0000
0000
0000
0000
0000
0000
0000
0000
0000
0000
0000
0000
0000
0000
0000
0000
0000
0000
0000
0000
0000
0000
0000
0000
0000
0000
0000
0000
0000
0000
0000
0000
0000
0000
0000
0000
0000
0000
0000
0000
0000
0000
0000
2300
0000
0000
0000
0000
0000
0000
0000
0000
0000
0000
0000
0000
0000
0000
0000
0000
0000
0000
0000
0000
0000
0000
0000
0000
0000
0000
0000
0000
0000
0000
0000
0000
0000
0000
0000
0000
0000
0000
0000
0000
0000
0000
0000
0000
0000
0000
0000
,
0000
0000
0000
0000
0000
0000
0000
0000
0000
0000
0000
0000
0000
0000
0000
0000
0000
0000
0000
0000
0000
0000
0000
0000
0000
0000
0000
0000
0000
0000
0000
0000
0000
0000
0000
0000
0000
0000
0000
0000
0000
0000
0000
0000
0000
0000
0000
0000
0000
0000
0000
0000
0000
0000
0000
0000
0000
0000
0000
0000
0000
0000
0000
0000
0000
0000
0000
0000
0000
0000
0000
0000
0000
0000
0000
0000
0000
0000
0000
0000
0000
0000
0000
0000
0000
0000
0000
0000
0000
0000
0000
0000
0000
0000
0000
0000
3010
0000
0000
0000
0000
0000
0000
0000
0000
0000
0100
0000
0000
0000
0000
0000
0000
0000
0000
0001
0000
0000
0000
0000
0000
0000
0000
0000
0000
1000
0000
0000
0000
0000
0000
0000
0000
0000
0001
0000
0000
0000
0000
0000
0000
0000
0000
0000
0010
0000
0000
0000
0000
0000
0000
0000
0000
0000
0100
0000
0000
0000
0000
0000
0000
0000
0000
1000
0000
0000
0000
0000
0000
0000
0000
0000
0000
0100
0000
0000
0000
0000
0000
0000
0000
0000
0010
0000
0000
0000
0000
0000
0000
0000
0000
0000
,
0001
0000
0000
0000
0000
0000
0000
0000
0000
0000
1000
0000
0000
0000
0000
0000
0000
0000
0000
0010
0000
0000
0000
0000
0000
0000
0000
0000
0000
1000
0000
0000
0000
0000
0000
0000
0000
0000
0001
0000
0000
0000
0000
0000
0000
0000
0000
0000
0100
0000
0000
0000
0000
0000
0000
0000
0000
0000
0010
0000
0000
0000
0000
0000
0000
0000
0000
1000
0000
0000
0000
0000
0000
0000
0000
0000
0000
0001
0000
0000
0000
0000
0000
0000
0000
0000
0100
0000
0000
0000
0000
0000
0000
0000
0000
0000
0002
0000
0000
0000
0000
0000
0000
0000
0000
0000
0000
0000
0000
0000
0000
0000
0000
0000
0000
0000
0000
0000
0000
0000
0000
0000
0000
0000
0000
0000
0000
0000
0000
0000
0000
0000
0000
0000
0000
0000
0000
0000
0000
0000
0000
0000
0000
0000
1003
0000
0000
0000
0000
0000
0000
0000
0000
0000
0000
0000
0000
0000
0000
0000
0000
0000
0000
0000
0000
0000
0000
0000
0100
0000
0000
0000
0000
0000
0000
0000
0000
0000
0000
0000
0000
0000
0000
0000
0000
0000
0000
0000
0000
0000
0000
0000
,
0010
0001
1000
0001
0100
0000
0010
1000
,
0000
0010
0100
0001
1001
0000
0100
0010
,
0001
0000
0000
1000
0000
0000
0010
0000
0200
0000
0000
0000
0001
0000
0000
0000
,
0302
0000
0000
2003
3010
0000
0100
0001
,
0000
1000
0100
0010
0002
0003
2000
3000
,
0020
0000
0230
0000
0302
0000
0003
1000
,
0100
0000
0000
1000
0000
0000
0010
0000
0200
0000
0000
0000
0001
0000
0300
0000
,
0002
0000
0003
2000
3100
0000
0010
0001
,
0000
0000
1000
0000
0010
0000
1000
0000
0002
0000
0000
0003
0100
0000
0020
0000
,
0000
0030
2000
0000
0000
3000
0002
0000
0013
0000
0000
0000
0100
0000
1000
0000
,
0010
0000
0000
0000
0000
0100
0000
0000
0000
0000
0001
0000
0000
0000
0000
0000
2000
0000
0000
0000
0000
0000
0000
0000
3000
0000
0000
0000
0000
0000
0000
0000
,
0010
0000
0000
0200
0301
0000
1000
0010
,
0100
0001
1000
0001
0011
0010
0000
0110
,
0000
1100
0000
1002
0000
0003
0100
0010
,
1000
0000
0000
0001
0000
0000
0100
0000
0020
0000
0000
0030
0000
0000
2000
0000
,
0000
3000
0020
0000
0130
0000
0001
1000
,
0000
0000
0100
0000
0010
0000
0001
0000
1000
0000
0000
0010
0000
0000
0100
0000
,
0002
0000
0003
0000
2000
0000
0000
0000
3000
0000
0000
0020
0000
0000
0000
0030
,
0100
0000
0001
0000
1000
0010
0000
0100
,
0002
0000
0003
0000
2000
0000
0000
0000
3000
0000
0000
0200
0000
0000
0000
0300
,
0010
0000
0001
0000
1000
0001
0000
0100
,
0010
2000
3001
0010
,
0200
0000
1300
0010
0000
0100
0000
0001
,
2000
3200
0310
0001
,
2000
0000
0000
0000
3000
0000
0010
0000
0000
0000
0100
0001
0100
0000
0010
0000
,
2000
0000
0000
3000
2000
0000
0000
0000
3010
0000
0000
0000
0100
0000
0000
0000
,
0002
0000
0003
1000
0000
0010
0000
0100
,
0020
2030
3001
0010
,
0200
0000
0300
1000
0000
0001
0000
1000
,
0010
0000
0100
0001
1000
0000
0001
0000
0010
0100
1000
0001
1000
0010
0100
0001
,
1000
0100
0010
0001
1000
0001
0100
0010
,
2000
0000
0000
0000
3002
0000
0000
0000
0013
0000
0100
1000
0100
0000
0010
0000
,
0001
1000
0001
0200
0000
0320
1030
0001
,
0200
0000
0000
0300
0200
0000
0000
0000
0310
0000
1000
0001
1000
0000
0100
0000
,
0020
0000
0000
0030
0001
0100
0010
0000
1000
0000
0001
0000
1000
0000
0100
0000
,
0120
0000
0000
0030
0002
0000
0000
0000
1003
0000
0010
0100
0001
0000
1000
0000
,
0100
0000
0000
0000
0000
0000
0010
0000
0000
0000
0000
0000
0001
0000
0000
0000
0000
0000
1000
0000
0000
0000
0000
0000
0010
0000
0000
1000
0000
0000
0010
0000
0000
0100
0000
0000
0001
0000
0000
0000
1000
0000
0000
0000
0010
0000
0000
0000
,
0200
0000
0000
0000
0000
0000
0000
0000
0000
0000
0300
0000
0102
0000
0000
0000
0000
0000
1003
0000
0000
0100
0000
0000
,
0010
0000
0000
0000
0001
0000
0000
0000
0010
0000
0000
0000
0001
0000
0000
0000
0000
0000
1000
0000
0000
0000
0000
0000
0110
0000
0000
0000
0000
0000
0000
0000
0000
0101
0000
0000
0000
0000
0000
0000
0000
0000
1001
0000
0000
0000
0000
0000
,
1200
0000
0000
0000
0000
0000
0000
0000
0000
0000
0000
0000
0310
0000
0000
0000
0001
0000
0000
0000
1000
0000
0000
0000
0001
0000
0000
0100
0000
0000
0010
0000
0000
1000
0000
0000
0001
0000
0000
0100
0000
0000
0001
0000
0000
1000
0000
0000
,
0100
0010
0100
1000
0001
0010
0001
1000
0010
1000
0001
0100
0010
1000
0001
0100
,
0001
1000
0100
0010
0001
1000
0010
1000
0001
1000
0001
0010
0100
1000
0001
0010
,
0001
0100
0010
1000
0001
0100
0010
0100
0001
1000
0100
0010
0001
1000
0100
1000
,
0010
1000
0001
0100
0010
0100
0001
1000
0100
0010
0001
1000
0100
1000
0001
0100
,
0001
0010
0100
1000
0001
1000
0010
0100
0001
1000
0010
1000
0001
0100
0001
1000
,
0100
0010
0001
1000
0100
1000
0010
0100
0001
1000
0100
1000
0010
0100
0001
0100
,
0010
1000
0001
0010
0001
1000
0100
0010
0001
1000
0100
1000
0001
0100
0001
1000
,
0010
0100
0001
0100
0010
1000
0001
1000
0100
0010
0001
1000
0100
1000
0001
0010
,
0001
0100
0010
1000
0001
0100
0001
1000
0100
0010
0100
1000
0001
0010
0001
1000
,
0010
1000
0001
0100
0010
1000
0001
0100
0001
1000
0100
0010
0001
1000
0010
1000
,
0001
1000
0001
0010
0100
1000
0001
0010
0001
0100
0010
1000
0001
0100
0010
0100
,
0001
1000
0100
0010
0001
1000
0100
1000
0010
1000
0001
0100
0010
0100
0001
1000
,
0100
0010
0001
1000
0100
1000
0001
0100
0001
0010
0100
1000
0001
1000
0010
0100
,
0001
1000
0010
1000
0001
0100
0001
1000
0100
0010
0001
1000
0100
1000
0010
0100
,
0001
1000
0100
1000
0010
0100
0001
0100
0010
1000
0001
0010
0001
1000
0100
0010
,
0001
1000
0100
1000
0001
0100
0001
1000
0010
0100
0001
0100
0010
1000
0001
1000
,
0100
0010
0001
1000
0100
1000
0001
0010
0001
0100
0010
1000
0100
1000
0001
0100
,
0001
1000
0100
0010
0100
1000
0001
0100
0020
0000
0000
0000
0030
0000
0000
0000
,
0000
0000
0000
0000
0200
0000
0000
0300
0202
0000
0000
0303
0110
0000
2020
0000
,
3030
0000
0010
0100
0002
0000
0003
0000
2000
0000
0000
0000
3100
0010
0001
1000
,
0001
0000
0000
0000
0200
0000
0000
0300
0010
0000
1000
0000
0001
0000
1000
0000
,
0200
0000
0000
0300
0010
0000
0002
0000
1003
0100
0010
0001
1000
0001
0100
0010
,
1000
0001
0100
0001
0010
0100
1000
0001
0010
0001
1000
0001
0100
0010
0100
0001
,
0100
0010
1000
0100
1000
0001
0100
0001
0010
0100
1000
0001
0010
0001
0100
0010
,
1000
0001
0100
0010
0100
0001
1000
0100
0010
0100
1000
0001
1000
0010
1000
0010
,
0100
0001
1000
0001
0100
0010
0100
0001
1000
0100
0010
0001
1000
0100
1000
0010
,
1000
0001
0100
0010
1000
0001
0010
0100
1000
0001
0010
0001
0100
0010
1000
0001
,
0100
0001
1000
0100
0010
0001
1000
0100
1000
0010
1000
0001
0100
0001
0010
0100
,
1000
0001
0010
0001
0100
0010
1000
0001
0100
0010
0100
0001
1000
0100
0010
0001
,
1000
0100
1000
0001
0010
0001
1000
0100
0010
0100
1000
0001
0010
0001
0100
0010
,
1000
0001
0100
0010
0100
0001
1000
0100
0010
0000
0000
0001
0000
0000
0000
1000
,
0000
0010
0000
0000
0000
0000
0100
0000
0101
0000
0000
0000
0000
0000
0000
0000
,
0002
0000
0000
0003
2000
0000
0000
0000
,
3000
0000
0100
0000
0000
0000
0110
0000
0000
0012
0000
0000
0000
0000
0000
0000
,
0003
0000
0000
0000
;
