#TITLE:EXPLOSIVE;
#SUBTITLE:- Remix -;
#ARTIST:Bond;
#TITLETRANSLIT:;
#SUBTITLETRANSLIT:;
#ARTISTTRANSLIT:;
#CREDIT:;
#BANNER:explosive-banner.png;
#BACKGROUND:explosive-bg.png;
#LYRICSPATH:;
#CDTITLE:cdtitle.gif;
#MUSIC:Bond - Classified - Explosive Remix.mp3;
#OFFSET:-0.060;
#SAMPLESTART:100.000;
#SAMPLELENGTH:12.000;
#SELECTABLE:YES;
#BPMS:0.000=114.860,28.000=105.000,29.000=100.000,30.000=95.000,31.000=90.000,32.000=114.860,184.500=76.573,216.500=114.860;
#STOPS:;
#BGCHANGES:;
// cache tags:
#FIRSTBEAT:0.000;
#LASTBEAT:341.000;
#SONGFILENAME:Songs/toune/Bond - Explosive Remix/Bond - Classified - Explosive Remix.sm;
#HASMUSIC:1;
#HASBANNER:1;
#MUSICLENGTH:190.648;
// end cache tags

//---------------dance-single - ----------------
#NOTES:
     dance-single:
     :
     Challenge:
     9:
     0.779,0.805,0.467,0.504,0.978,855.000,89.000,96.000,0.000,1.000:
1000
0001
0100
0010
2000
0000
0000
0000
0000
0000
3200
0000
0000
0000
0000
0000
,
0302
0000
2003
0000
0000
3020
0000
0000
,
0230
0302
0000
0000
,
0000
0000
0000
0000
0000
0003
0000
0000
,
1000
0010
0001
0010
0200
0000
0000
0000
0000
0000
2300
0000
0000
0000
0000
0000
,
3002
0000
0203
0000
0000
0302
0000
0000
,
0023
2030
0000
0000
,
0000
0000
0000
0000
,
3000
0000
1001
0001
0001
0001
0001
0000
1010
0010
0010
0010
0000
0000
1000
0000
,
0011
0000
1100
1000
1000
1000
1000
0000
0011
0010
0010
0010
0000
0000
1000
0000
,
0101
0000
1100
0100
0100
0100
0100
0000
1001
0001
0001
0001
0000
0000
1000
0000
,
0110
0000
0011
0001
0001
0001
0001
0000
1010
1000
1000
1000
0000
0000
0001
0010
,
0100
1000
0110
0010
0010
0010
0110
0000
0011
0001
0101
0001
0000
0000
0101
0000
,
1010
0000
1100
1000
1000
1000
1001
0000
0110
0100
0101
0100
0000
0000
1100
0000
,
0011
0000
1010
0010
0010
0010
1010
0000
0101
0100
0110
0100
0000
0000
0101
0000
,
1010
0000
0110
0100
0100
0100
0101
0000
1001
0001
0011
0001
0000
0000
1000
0100
,
0010
0001
0020
0000
0000
0000
0000
0000
2030
0000
0000
0000
0000
0000
3200
0000
,
0000
0302
0000
0000
2003
0000
0000
0020
,
3030
0000
1000
0100
0010
0001
0110
0000
0010
1000
0001
0100
0010
0100
1000
0100
,
0010
0001
0001
0100
0100
0010
0010
1000
1000
0100
0010
0001
0010
0100
0010
0001
,
0100
1000
1000
0010
0010
0100
0100
0001
0001
0010
1000
0100
0010
0100
1000
0100
,
1000
0010
0001
0010
0100
1000
0110
0000
1000
0010
0100
0001
1000
0010
0100
1000
,
0100
0010
0002
0000
1003
0100
0020
0000
0031
0010
0200
0000
0310
0100
1000
0100
,
0010
0001
2000
0000
3001
0010
0200
0000
1300
0100
0020
0000
0130
0010
0001
0010
,
0100
1000
0020
0000
0130
0010
0200
0000
0301
0010
0002
0000
1003
0100
0010
0001
,
0010
0100
1000
0100
0010
0001
0010
0100
0010
0001
0010
0100
1000
0100
0010
0100
,
1000
0100
0010
0001
0010
0100
2000
0000
3100
0010
0001
0100
0010
1000
0010
0100
,
0001
0010
0100
1000
0100
0010
0002
0000
0013
0100
1000
0010
0100
0001
0100
0010
,
1000
0100
0010
0001
1000
0010
0200
0000
0310
1000
0001
0100
0010
0001
0100
0010
,
1000
0100
0000
0011
0000
1100
0000
0000
1001
0000
0000
0110
0000
1001
0000
0000
,
0000
0000
1000
0010
0100
0001
0020
0000
1030
0100
0001
0010
1000
0001
0100
0010
,
0100
1000
0100
0100
0001
0001
0010
0010
1000
1000
0100
0001
0010
1000
0001
0100
,
0010
1000
0010
0010
1000
1000
0100
0100
0001
0001
0010
1000
0100
0001
1000
0010
,
0100
0001
0010
1000
0100
0010
0002
0000
0013
1000
0100
0001
0010
0100
1000
0001
,
0100
0010
1000
1000
0100
0010
0002
0000
0103
0010
1000
0100
0001
0010
1000
0001
,
0100
0010
0001
0001
0010
0100
2000
0000
3010
0100
0001
0010
1000
0100
0001
1000
,
0010
0100
1000
0001
1000
0100
0020
0000
1030
0001
0100
0010
0001
0100
0010
1000
,
0001
0100
0010
1100
0000
0011
0000
0000
1001
0000
0000
1010
0000
0101
0000
0000
,
0000
0000
2001
0010
0100
0010
3001
0000
0210
0001
0010
1000
0300
0000
0010
0000
,
1001
0000
2100
0010
0001
0010
0100
3000
0012
0100
1000
0100
0003
0010
0100
1000
,
0100
0010
1002
0100
0010
0100
1003
0000
2001
0010
0100
0010
3000
0000
0001
0000
,
0110
0000
2010
0001
0100
0010
3001
0000
0201
0010
1000
0310
0000
0000
1000
0000
,
0110
0000
1000
0100
0010
0001
0010
0000
0100
1000
0100
0010
0001
0000
0110
0000
,
0000
0000
0001
0010
0100
1000
0100
0000
0010
0001
0010
0100
1000
0000
0110
0000
,
0000
0000
2000
0100
0010
0001
3010
0000
0110
1000
0100
0010
0001
0000
1001
0000
,
0000
0000
0002
0010
0100
1000
0103
0000
0110
0001
0010
0100
1000
0000
0002
0000
,
0003
0000
0000
2000
0000
0000
0000
0000
0000
0000
0000
0000
0000
0000
0000
0000
0000
0000
0000
3200
0000
0000
0000
0000
,
0000
0000
0000
0000
0000
0000
0000
0302
0000
0000
0000
0023
0000
0000
0000
0000
0000
0000
0000
0000
0000
0000
0000
0000
,
0000
2030
0000
0000
0000
0000
0000
0000
0000
0000
0000
0000
0000
0000
0000
3002
0000
0000
0000
0203
0000
0000
0000
0000
,
0000
0000
0000
0000
0000
0000
0300
0020
0000
0000
0000
2030
0000
0000
0000
0000
0000
0000
0000
0000
0000
0000
0000
3002
,
0000
0000
0000
0023
0000
0000
0000
0000
0000
0000
0000
0000
0000
0000
0000
2030
0000
0000
0000
3200
0000
0000
0000
0000
,
0000
0000
0000
0000
0000
0000
0000
0000
0000
0000
0000
0302
0000
0000
0000
0000
0000
0000
0000
0000
0000
0000
0000
0000
,
0000
0000
0000
0023
0000
0000
0000
0000
0000
0000
0000
0000
0000
0000
0000
2030
0000
0000
0000
3200
0000
0000
0000
0000
,
0000
0000
0000
0000
0000
0000
0000
0000
0000
0001
0000
0010
0000
0000
0000
1000
0000
0000
0000
0000
0000
0010
0000
0301
,
0000
0000
1000
0010
0100
0001
2000
0000
3100
0010
1000
0001
0100
0001
0010
0100
,
1000
0100
0010
0010
0001
0001
1000
1000
0100
0100
0010
0001
1000
0010
0100
1000
,
0001
0010
0100
0100
1000
1000
0001
0001
0010
0010
0100
1000
0010
0100
0001
1000
,
0100
0010
0001
0100
0010
1000
0002
0000
0103
0010
1000
0001
0100
0010
0001
1000
,
0010
0100
0001
0010
0100
1000
0200
0000
0310
0001
1000
0010
0100
0001
0010
1000
,
0100
0001
0010
0100
1000
0100
0020
0000
0130
1000
0001
0010
1000
0001
0100
0010
,
1000
0100
0010
0001
0010
0100
2000
0000
3010
0100
0001
0010
1000
0100
0010
0001
,
0010
0100
0000
1100
0000
0011
0000
0000
1001
0000
0000
0110
0000
1001
0000
0000
,
0000
0000
0001
1000
0010
0100
0002
0000
1003
0100
0010
0001
0100
0010
1000
0001
,
0010
1000
0100
0100
0010
0010
0001
0001
1000
1000
0010
0100
0001
1000
0010
1000
,
0100
0001
0010
0010
0100
0100
1000
1000
0001
0001
0100
0010
1000
0001
0100
0001
,
0010
1000
0100
0001
1000
0010
0200
0000
1300
0001
0010
1000
0001
0100
0010
1000
,
0001
0010
0100
1000
0100
0010
0002
0000
1003
0100
0010
0001
0010
0100
1000
0010
,
0001
0100
0010
0010
1000
1000
0001
0001
0100
0100
0010
1000
0100
0001
0010
0100
,
1000
0010
0100
0100
0001
0001
1000
1000
0010
0010
0100
0001
0010
1000
0100
0010
,
0001
0100
0010
1000
0001
0100
0020
0000
1030
0100
0010
0001
1000
0010
0100
0001
,
0010
1000
0100
0010
0001
0010
0002
0000
1003
0010
0100
1000
0001
0100
0010
1000
,
0100
0001
0010
0100
1000
0100
2000
0000
3100
0001
0010
1000
0001
0100
0010
0001
,
1000
0100
0010
0001
0010
1000
0200
0000
0310
0001
1000
0001
0100
0010
0100
1000
,
0001
0010
0000
1100
0000
0011
0000
0000
1001
0000
0000
0101
0000
1010
0000
0000
,
0000
0000
1002
0100
0010
0100
1003
0000
0120
1000
0100
0001
0130
0000
1000
0000
,
0110
0000
2001
0010
0100
0010
3001
0000
0210
0001
0010
1300
0010
0000
0001
0010
,
0100
1000
0200
0000
0000
0000
0000
0000
0320
0000
0000
0000
0000
0000
2030
0000
,
0000
3002
0000
0000
0203
0000
0000
0320
,
0000
2030
0000
0000
0000
0000
0000
3000
,
0000
0000
0000
0000
0000
0000
0000
0000
0000
0000
0000
0000
0000
0000
1000
0100
,
0010
0001
0020
0000
0000
0000
0000
0000
0230
0000
0000
0000
0000
0000
2300
0000
,
0000
3002
0000
0000
0203
0000
0000
0320
,
0000
1130
0000
0000
0011
0000
0000
0011
,
0011
0101
0000
0000
1010
0000
0000
1010
,
1010
0110
0000
0000
0110
0000
0000
1100
,
0110
0022
0033
0000
0000
0000
0000
0000
;
