#TITLE:Speedcore Sunday;
#SUBTITLE:;
#ARTIST:Interrupt Vector;
#TITLETRANSLIT:;
#SUBTITLETRANSLIT:;
#ARTISTTRANSLIT:;
#CREDIT:;
#BANNER:speedcoresunday-bn.png;
#BACKGROUND:speedcoresunday-bg.png;
#LYRICSPATH:;
#CDTITLE:cdtitle.png;
#MUSIC:interruptvector-speedcore_sunday.mp3;
#OFFSET:-1.263;
#SAMPLESTART:32.483;
#SAMPLELENGTH:12.000;
#SELECTABLE:YES;
#BPMS:0.000=200.000,235.000=205.000,236.000=210.000,240.500=220.000,244.500=230.000,248.000=260.000,249.000=280.001,253.000=285.001,258.500=290.001,259.500=320.002,264.500=330.002,265.500=360.003,271.000=400.004,272.000=410.004,275.000=420.004,280.000=400.004,386.500=205.004,387.000=200.004,615.000=205.004,616.000=200.004,663.000=100.002,709.000=200.000;
#STOPS:;
#BGCHANGES:;
// cache tags:
#FIRSTBEAT:4.000;
#LASTBEAT:666.000;
#SONGFILENAME:Songs/Community Keyboard Megapack - Volume 3/(Bursurk Lurk) speedcore sunday/interruptvector - speedcore_sunday.sm;
#HASMUSIC:1;
#HASBANNER:1;
#MUSICLENGTH:190.889;
// end cache tags

//---------------dance-single - Hard----------------
#NOTES:
     dance-single:
     Hard:
     Challenge:
     13:
     1.000,1.000,0.812,0.131,0.731,1352.000,155.000,25.000,0.000,0.000:
0000
0000
0000
0000
,
1000
0001
1000
0001
1000
0001
1000
0001
1000
0000
1001
0000
0010
0100
0010
0000
,
1000
0100
0010
0001
0010
0100
1000
0000
0010
0000
0001
0000
0010
0000
0001
0010
0100
0000
0000
0000
1000
0000
0100
0010
0001
0000
0000
0000
0010
0000
0000
0000
,
0001
0010
0100
1000
0001
0100
0010
1000
0001
0000
1001
0000
0010
0100
0010
0000
,
1000
0100
0010
0001
1000
0100
0010
0000
1000
0000
0001
0010
0100
1000
0001
0010
0100
0000
0000
0000
1000
0000
0010
0100
1000
0000
0000
0000
0011
0000
0000
0000
,
0100
0100
0010
0010
0001
0001
1000
1000
,
0100
0000
0000
0000
0100
0000
0000
0000
0010
0000
0000
0000
0010
0000
0000
0000
1000
0000
0000
0000
1001
0000
0000
0000
0100
0000
0010
0000
1000
0100
0010
0001
,
1000
0100
0010
0001
1000
0010
0100
0001
0010
0000
0100
0000
0001
0010
0100
0000
,
0001
0010
0100
1000
0001
0010
0100
1000
0001
0010
0100
1000
0001
0000
0010
0100
1000
0000
0000
0000
1000
0000
0001
0010
0100
0000
0000
0000
1000
0000
0000
0000
,
0001
0010
0100
1000
0001
0100
0010
1000
0001
0000
1001
0000
0010
0100
0010
0000
,
1000
0100
0010
0001
1000
0100
0010
0001
1000
0100
0010
0001
1000
0000
0100
0010
0001
0000
0000
0000
0010
0000
0001
0010
0100
0000
0000
0000
1000
0000
0000
0000
,
0100
0000
0000
0000
0001
0000
1000
0100
0010
0000
0000
0000
0001
0000
1000
0100
0010
0000
0000
0000
0100
0000
0001
0010
0100
0000
0000
0000
0001
0000
1000
0100
,
0010
0000
0000
0000
0001
0000
0010
0100
1000
0000
0000
0000
1000
0000
0200
0000
0000
0000
0000
0000
0000
0000
0000
0000
0000
0000
0000
0000
0000
0000
0000
0000
,
0310
0000
0000
0000
0001
0000
0000
0000
0010
0000
0000
0000
0100
0000
0000
0000
0001
0000
0000
0000
1000
0000
0000
0000
0010
0100
1000
0000
0001
0000
0010
0000
,
0100
0000
1000
0000
0010
0000
0000
0000
1000
0000
0000
0000
0001
0000
0000
0000
0100
0000
0000
0000
1000
0000
0100
0010
0001
0000
0010
0100
1000
0000
0000
0000
,
0010
0001
0100
0010
1000
0000
0100
0000
,
0010
0000
0000
0000
0001
0000
0000
0000
1000
0000
0000
0000
0010
0000
0000
0000
0100
0000
0000
0000
0001
0000
1000
0100
0010
0000
0001
0010
0100
0000
0000
0000
,
0100
0001
1000
0010
0100
0000
1000
0000
,
0100
0000
0000
0000
0001
0000
0000
0000
1000
0000
0000
0000
0010
0000
0000
0000
0100
0000
0000
0000
0010
0000
1000
0100
0010
0000
0001
0010
0100
0000
0000
0000
,
1000
0001
0100
0010
1000
0000
0100
0000
,
0010
0000
0000
0000
1000
0000
0000
0000
0001
0000
0000
0000
0010
0000
0000
0000
0100
0000
0000
0000
0010
0000
1000
0001
0100
0000
0010
1000
0001
0000
0000
0000
,
0100
0000
0110
0000
0000
1000
1100
0000
,
0010
0000
0110
0000
0000
0100
0110
0000
,
1000
0000
1001
0000
0000
0001
0011
0000
,
1000
0000
0110
0000
0000
0100
0110
0000
,
0001
0010
0100
1000
1000
0100
0010
0001
,
0100
0010
1000
0001
0010
0100
0001
1000
,
0010
0100
0001
1000
0010
0100
0001
1000
,
0010
0100
0001
1000
0010
0001
0100
0001
,
1000
0010
1000
0001
1000
0010
1000
0100
1000
0010
1000
0100
0010
0001
1000
0010
,
0100
0001
1000
0100
0010
0001
0010
0100
1000
0000
0000
0000
0010
0000
0000
0000
,
0100
0001
0010
1000
0100
0001
0010
0100
,
0001
0010
0100
1000
0001
0100
0010
1000
0001
0000
0000
0000
1010
0000
0000
0000
,
0100
0011
1000
0110
,
0001
0000
0110
0000
0000
0100
1100
0000
,
0010
0000
1100
0000
0000
0100
1010
0000
,
0100
0000
0011
0000
0000
0001
1010
0000
,
0100
0000
0011
0000
0000
0100
0011
0000
,
0100
0000
1001
0000
0000
0001
1100
0000
,
0010
0000
0101
0000
0000
0001
1100
0000
,
0001
0000
1100
0000
0000
1000
0101
0000
,
0001
0010
0100
1000
0001
0100
0010
1000
0001
0010
0100
1000
0100
0010
0001
1000
,
0100
0000
0010
0000
0001
0000
1000
0000
0001
0000
0010
0100
1000
0000
0000
0000
0100
0000
0000
0000
0010
0000
0000
0000
1000
0000
0000
0000
0000
0000
0000
0000
,
0010
0100
0001
1000
0100
0010
0001
0100
,
1000
0100
0010
0001
1000
0010
0100
0001
1000
0000
0000
0000
0010
0000
0000
0000
,
1000
0100
1000
0010
1000
0001
1000
0010
1000
0100
1000
0100
0010
0001
1000
0010
,
0100
0001
1000
0100
0010
0001
1000
0010
0100
0000
0000
0000
0100
0000
0000
0000
,
1000
0100
0010
1000
0001
0100
0010
1000
,
0001
0100
0010
1000
0001
0010
0100
1000
0001
0000
0000
0000
0110
0000
0000
0000
,
1000
0010
0100
1000
0010
0001
1000
0100
,
0000
0010
0100
0001
1000
0010
0100
0001
,
0000
0010
0100
0010
0001
1000
0100
0010
,
0000
0100
0010
1000
0001
0100
0010
1000
,
0000
0010
1000
0001
0100
0010
1000
0001
,
0000
0100
0001
1000
0010
0100
0001
0010
,
0000
1000
0100
0010
0001
1000
0010
0100
,
0000
0100
0010
1000
0001
0100
0010
1000
,
0000
0100
0010
1000
0001
0100
0010
0001
,
0000
0100
0010
1000
0100
0010
0001
0100
,
0000
0100
0001
1000
0010
0100
0001
0010
,
0000
0100
0001
1000
0010
0100
0001
0010
,
0000
0100
0001
1000
0100
0010
0001
0100
,
0010
0000
0100
0001
0100
0010
1000
0100
,
0010
0001
0010
0000
1000
0001
0100
0010
,
1000
0100
0001
1000
0010
0100
0000
1000
,
0010
0100
0001
1000
0010
0100
1000
0100
,
0010
0100
0000
0001
0100
0010
1000
0100
,
0010
0001
0100
0010
1000
0001
0100
0000
,
1000
0100
0010
1000
0001
0100
0010
1000
,
0100
0010
0100
0001
1000
0010
0100
0000
,
0001
1000
0010
0100
0001
1000
0100
0010
,
0001
0100
0010
1000
0100
0010
0001
0000
,
1000
0100
0010
0100
0001
1000
0010
0100
,
0001
0010
0100
1000
0001
0100
0010
0000
,
1000
0100
0010
0100
0001
1000
0010
0100
,
0001
0010
0100
0001
1000
0010
0100
0000
,
1000
0100
0010
0001
1000
0010
0100
0001
,
1000
0010
0100
0001
1000
0010
0100
0000
,
0001
1000
0010
0100
1000
0100
0010
0001
,
1000
0010
0100
0001
1000
0010
0100
0000
,
0001
0100
0010
1000
0100
0010
0001
1000
,
0100
0001
1000
0010
0100
0001
1000
0000
,
0001
0100
0010
1000
0100
0010
0001
1000
,
0010
0100
0001
1000
0010
0100
0010
0000
,
1000
0010
0100
0001
0010
0100
1000
0001
,
0100
0001
0010
1000
0001
0100
0010
0000
,
1000
0100
0010
0100
0001
1000
0010
0100
,
0001
0010
0100
0001
1000
0010
0100
0000
,
1000
0010
0100
0001
1000
0100
0010
0001
,
1000
0010
0100
0001
1000
0010
0100
0000
,
0001
0100
0010
1000
0100
0010
0001
1000
,
0010
0100
0001
1000
0010
0100
0010
0000
,
1000
0010
0100
0001
1000
0100
0010
0001
,
1000
0010
0100
0001
1000
0010
0100
0000
,
0001
0100
0010
1000
0100
0010
0001
1000
,
0010
0100
0001
1000
0010
0100
0001
0000
,
1000
0100
0010
0001
0010
0100
0110
0000
,
0110
0000
0000
0000
0000
0000
0000
0000
0110
0000
0000
0000
1001
0000
0000
0000
0100
0000
0010
0000
1000
0100
0010
0001
1000
0000
0000
0000
0100
0000
0000
0000
,
0010
1000
0001
0100
0010
1000
0001
0100
,
0010
0000
0100
0000
1000
0000
0010
0000
0001
0000
1000
0000
0100
0000
0010
0100
,
0000
0000
0001
0010
0001
0100
0001
0100
0001
1000
0001
1000
0001
0010
0001
0010
,
0001
0010
0100
0010
0100
0010
1000
0001
1000
0010
1000
0010
1001
0000
0100
0000
,
0011
1000
1010
0100
0011
0100
1100
1000
,
0110
0001
0101
1000
1010
0010
0101
1000
,
1010
0010
0101
0001
1010
1000
0101
0010
,
1010
1000
0110
0001
1001
1000
0110
0010
,
1010
1000
0101
0010
1010
0100
0110
0001
,
1001
1000
0101
0010
1010
1000
0101
0010
,
0011
0100
0110
0010
1100
0100
0011
0001
,
1010
0100
0101
1000
1100
0010
0011
0100
,
0110
0010
1100
0100
0011
0100
0110
1000
,
1100
0001
1001
0010
0110
0100
1001
1000
,
0110
0100
1001
0100
0110
0010
1100
0100
,
0011
0001
1100
0100
0011
1000
0110
0000
,
0000
0000
0000
0011
0000
0000
1100
0000
,
0000
0000
0000
0110
0000
0000
1001
0000
,
0000
0000
0110
0000
0000
1001
0000
0110
,
0000
0000
0000
0000
0000
0000
0000
1100
,
0000
0000
0000
0110
0000
1001
0110
0110
,
1100
0000
0000
0000
0000
0000
0110
1100
,
0011
0000
0110
0000
0000
1001
0110
0000
,
0000
0110
0000
1001
0000
0110
1001
0000
,
0000
0011
1100
0000
0000
0000
0000
0110
,
0000
0000
0000
0000
0000
1100
0000
0110
,
0000
0000
0000
0011
0000
1100
0110
0011
,
1010
0000
0000
1001
,
0000
0000
0000
0110
0000
0000
1001
0000
,
0000
0000
0000
0011
0000
0000
1100
0000
,
0000
0000
0000
1100
0000
0000
0011
0000
,
0000
0000
0000
1001
0000
0000
0200
0000
,
0302
0000
2003
0000
3200
0320
0000
0000
,
2030
0000
3200
0010
0320
0000
2030
0000
,
0000
3200
0000
0320
,
0000
0032
0000
0023
,
0230
0000
2300
0000
3002
0023
0000
0000
,
0230
0000
2300
0100
3020
0000
0032
0000
,
0000
0000
0023
0000
0000
0100
0230
0000
,
0000
0000
0000
0000
2300
0000
0000
0000
0000
0000
0000
0000
3001
0010
0001
0100
,
0001
0000
1000
0000
0001
0000
0100
0000
0001
0010
0100
1000
0001
0000
0010
0000
0100
0000
1000
0000
0001
0000
0100
0000
0010
0000
0000
0000
0000
0000
0000
0000
,
1001
0000
0000
0000
0100
0000
0010
0000
0100
0000
0001
0000
1000
0000
0100
0010
,
0000
0000
1000
0100
1000
0010
1000
0010
1000
0001
1000
0001
1000
0010
1000
0010
,
0100
0010
0100
0010
0100
0001
0100
0001
0100
0000
0100
0000
1001
0000
0010
0000
,
1100
0001
1100
0010
0101
0101
1000
0010
,
0101
0010
1100
0001
1100
0010
0101
0010
,
1000
0001
1100
0010
1000
0100
1010
0001
,
1000
0000
0010
0000
1100
0000
0001
0000
1000
0000
0010
0000
0001
0010
0100
1000
,
0001
0000
0100
0000
0010
0000
1000
0000
0001
0010
0100
0000
0010
0100
1000
0000
0001
0000
0100
0000
0001
0000
0100
0000
0001
0000
0000
0000
0000
0000
0000
0000
,
1001
0000
0000
0000
1100
0000
0101
0000
0110
0000
0000
0000
1000
0000
0100
0010
,
0000
0000
0001
0010
0001
0100
0001
1000
0001
0100
0001
0010
0001
0100
0001
0100
,
0010
0100
0010
0100
0001
0100
0001
1000
0001
1000
0001
0100
1001
0000
0010
0000
,
1100
0010
0101
1000
0110
0110
0001
1000
,
0011
0100
0011
1000
0101
0010
1001
0100
,
0010
1000
0101
0010
0100
1000
0011
0100
,
0010
0100
1010
0001
0100
0010
1001
0000
,
0010
0100
0001
1000
,
0010
0100
0001
1000
,
0010
0100
0001
1000
,
0010
0000
0000
0000
0100
0000
0000
0000
0010
0000
0000
0000
0001
0010
0100
1000
,
0001
0010
0100
1000
0001
0100
0010
1000
0001
0100
0010
1000
0100
0010
0001
1000
,
0100
0010
0001
1000
0001
0100
0010
1000
0001
0100
0010
1000
0001
0010
0100
1000
,
0001
0010
0100
1000
0010
0100
0010
1000
0010
0100
0010
1000
0100
0001
0100
0010
,
0100
0001
0100
0010
0001
0010
0100
1000
0001
0010
0100
1000
0001
0100
0010
1000
,
0001
0100
0010
1000
0100
0010
0001
1000
0100
0010
0001
1000
0001
0100
0001
1000
,
0001
0100
0001
1000
0001
0100
0010
1000
0001
0100
0010
1000
0100
0010
0001
1000
,
0100
0010
0001
1000
0010
0100
0010
1000
0010
0100
0010
1000
0001
0010
0100
1000
,
0001
0010
0100
1000
0001
0100
0010
1000
0001
0100
0010
1000
0001
0000
0000
0000
,
0100
0001
1000
0000
;

//---------------dance-single - Copied from Hard----------------
#NOTES:
     dance-single:
     Copied from Hard:
     Hard:
     11:
     1.000,1.000,0.812,0.131,0.676,1331.000,155.000,25.000,0.000,0.000:
0000
0000
0000
0000
,
1000
0001
1000
0001
1000
0001
1000
0001
1000
0000
1001
0000
0010
0100
0010
0000
,
1000
0000
0001
0000
1000
0000
0001
0000
0010
0000
0001
0000
0010
0000
0001
0010
0100
0000
0000
0000
1000
0000
0100
0010
0001
0000
0000
0000
0010
0000
0000
0000
,
0001
0010
0100
1000
0001
0100
0010
1000
0001
0000
1001
0000
0010
0100
0010
0000
,
1000
0000
0010
0000
1000
0000
0010
0000
1000
0000
0001
0000
0100
0000
0001
0000
0100
0000
0000
0000
1000
0000
0010
0100
1000
0000
0000
0000
0011
0000
0000
0000
,
0100
0100
0010
0010
0001
0001
1000
1000
,
0100
0000
0000
0000
0100
0000
0000
0000
0010
0000
0000
0000
0010
0000
0000
0000
1000
0000
0000
0000
1001
0000
0000
0000
0100
0000
0010
0000
1000
0100
0010
0001
,
1000
0100
0010
0001
1000
0010
0100
0001
0010
0000
0100
0000
0001
0010
0100
0000
,
0001
0000
0100
0000
0001
0000
0100
0000
0001
0000
0100
0000
0001
0000
0010
0100
1000
0000
0000
0000
1000
0000
0001
0010
0100
0000
0000
0000
1000
0000
0000
0000
,
0001
0010
0100
1000
0001
0100
0010
1000
0001
0000
1001
0000
0010
0100
0010
0000
,
1000
0000
0010
0000
1000
0000
0010
0000
1000
0000
0010
0000
1000
0000
0100
0010
0001
0000
0000
0000
0010
0000
0001
0010
0100
0000
0000
0000
1000
0000
0000
0000
,
0100
0000
0000
0000
0001
0000
1000
0100
0010
0000
0000
0000
0001
0000
1000
0100
0010
0000
0000
0000
0100
0000
0001
0010
0100
0000
0000
0000
0001
0000
1000
0100
,
0010
0000
0000
0000
0001
0000
0010
0100
1000
0000
0000
0000
1000
0000
0200
0000
0000
0000
0000
0000
0000
0000
0000
0000
0000
0000
0000
0000
0000
0000
0000
0000
,
0310
0000
0000
0000
0001
0000
0000
0000
0010
0000
0000
0000
0100
0000
0000
0000
0001
0000
0000
0000
1000
0000
0000
0000
0010
0100
1000
0000
0001
0000
0010
0000
,
0100
0000
1000
0000
0010
0000
0000
0000
1000
0000
0000
0000
0001
0000
0000
0000
0100
0000
0000
0000
1000
0000
0100
0010
0001
0000
0010
0100
1000
0000
0000
0000
,
0010
0001
0100
0010
1000
0000
0100
0000
,
0010
0000
0000
0000
0001
0000
0000
0000
1000
0000
0000
0000
0010
0000
0000
0000
0100
0000
0000
0000
0001
0000
1000
0100
0010
0000
0001
0010
0100
0000
0000
0000
,
0100
0001
1000
0010
0100
0000
1000
0000
,
0100
0000
0000
0000
0001
0000
0000
0000
1000
0000
0000
0000
0010
0000
0000
0000
0100
0000
0000
0000
0010
0000
1000
0100
0010
0000
0001
0010
0100
0000
0000
0000
,
1000
0001
0100
0010
1000
0000
0100
0000
,
0010
0000
0000
0000
1000
0000
0000
0000
0001
0000
0000
0000
0010
0000
0000
0000
0100
0000
0000
0000
0010
0000
1000
0001
0100
0000
0010
1000
0001
0000
0000
0000
,
0100
0000
0110
0000
0000
1000
1100
0000
,
0010
0000
0110
0000
0000
0100
0110
0000
,
1000
0000
1001
0000
0000
0001
0011
0000
,
1000
0000
0110
0000
0000
0100
0110
0000
,
0001
0010
0100
1000
1000
0100
0010
0001
,
0100
0010
1000
0001
0010
0100
0001
1000
,
0010
0100
0001
1000
0010
0100
0001
1000
,
0010
0100
0001
1000
0010
0001
0100
0001
,
1000
0010
1000
0001
1000
0010
1000
0100
1000
0010
1000
0100
0010
0001
1000
0010
,
0100
0001
1000
0100
0010
0001
0010
0100
1000
0000
0000
0000
0010
0000
0000
0000
,
0100
0001
0010
1000
0100
0001
0010
0100
,
0001
0010
0100
1000
0001
0100
0010
1000
0001
0000
0000
0000
1010
0000
0000
0000
,
0100
0011
1000
0110
,
0001
0000
0110
0000
0000
0100
1100
0000
,
0010
0000
1100
0000
0000
0100
1010
0000
,
0100
0000
0011
0000
0000
0001
1010
0000
,
0100
0000
0011
0000
0000
0100
0011
0000
,
0100
0000
1001
0000
0000
0001
1100
0000
,
0010
0000
0101
0000
0000
0001
1100
0000
,
0001
0000
1100
0000
0000
1000
0101
0000
,
0001
0010
0100
1000
0001
0100
0010
1000
0001
0010
0100
1000
0100
0010
0001
1000
,
0100
0000
0010
0000
0001
0000
1000
0000
0001
0000
0010
0100
1000
0000
0000
0000
0100
0000
0000
0000
0010
0000
0000
0000
1000
0000
0000
0000
0000
0000
0000
0000
,
0010
0100
0001
1000
0100
0010
0001
0100
,
1000
0100
0010
0001
1000
0010
0100
0001
1000
0000
0000
0000
0010
0000
0000
0000
,
1000
0100
1000
0010
1000
0001
1000
0010
1000
0100
1000
0100
0010
0001
1000
0010
,
0100
0001
1000
0100
0010
0001
1000
0010
0100
0000
0000
0000
0100
0000
0000
0000
,
1000
0100
0010
1000
0001
0100
0010
1000
,
0001
0100
0010
1000
0001
0010
0100
1000
0001
0000
0000
0000
0110
0000
0000
0000
,
1000
0010
0100
1000
0010
0001
1000
0100
,
0000
0010
0100
0001
1000
0010
0100
0001
,
0000
0010
0100
0010
0001
1000
0100
0010
,
0000
0100
0010
1000
0001
0100
0010
1000
,
0000
0010
1000
0001
0100
0010
1000
0001
,
0000
0100
0001
1000
0010
0100
0001
0010
,
0000
1000
0100
0010
0001
1000
0010
0100
,
0000
0100
0010
1000
0001
0100
0010
1000
,
0000
0100
0010
1000
0001
0100
0010
0001
,
0000
0100
0010
1000
0100
0010
0001
0100
,
0000
0100
0001
1000
0010
0100
0001
0010
,
0000
0100
0001
1000
0010
0100
0001
0010
,
0000
0100
0001
1000
0100
0010
0001
0100
,
0010
0000
0100
0001
0100
0010
1000
0100
,
0010
0001
0010
0000
1000
0001
0100
0010
,
1000
0100
0001
1000
0010
0100
0000
1000
,
0010
0100
0001
1000
0010
0100
1000
0100
,
0010
0100
0000
0001
0100
0010
1000
0100
,
0010
0001
0100
0010
1000
0001
0100
0000
,
1000
0100
0010
1000
0001
0100
0010
1000
,
0100
0010
0100
0001
1000
0010
0100
0000
,
0001
1000
0010
0100
0001
1000
0100
0010
,
0001
0100
0010
1000
0100
0010
0001
0000
,
1000
0100
0010
0100
0001
1000
0010
0100
,
0001
0010
0100
1000
0001
0100
0010
0000
,
1000
0100
0010
0100
0001
1000
0010
0100
,
0001
0010
0100
0001
1000
0010
0100
0000
,
1000
0100
0010
0001
1000
0010
0100
0001
,
1000
0010
0100
0001
1000
0010
0100
0000
,
0001
1000
0010
0100
1000
0100
0010
0001
,
1000
0010
0100
0001
1000
0010
0100
0000
,
0001
0100
0010
1000
0100
0010
0001
1000
,
0100
0001
1000
0010
0100
0001
1000
0000
,
0001
0100
0010
1000
0100
0010
0001
1000
,
0010
0100
0001
1000
0010
0100
0010
0000
,
1000
0010
0100
0001
0010
0100
1000
0001
,
0100
0001
0010
1000
0001
0100
0010
0000
,
1000
0100
0010
0100
0001
1000
0010
0100
,
0001
0010
0100
0001
1000
0010
0100
0000
,
1000
0010
0100
0001
1000
0100
0010
0001
,
1000
0010
0100
0001
1000
0010
0100
0000
,
0001
0100
0010
1000
0100
0010
0001
1000
,
0010
0100
0001
1000
0010
0100
0010
0000
,
1000
0010
0100
0001
1000
0100
0010
0001
,
1000
0010
0100
0001
1000
0010
0100
0000
,
0001
0100
0010
1000
0100
0010
0001
1000
,
0010
0100
0001
1000
0010
0100
0001
0000
,
1000
0100
0010
0001
0010
0100
0110
0000
,
0110
0000
0000
0000
0000
0000
0000
0000
0110
0000
0000
0000
1001
0000
0000
0000
0100
0000
0010
0000
1000
0100
0010
0001
1000
0000
0000
0000
0100
0000
0000
0000
,
0010
1000
0001
0100
0010
1000
0001
0100
,
0010
0000
0100
0000
1000
0000
0010
0000
0001
0000
1000
0000
0100
0000
0010
0100
,
0000
0000
0001
0010
0001
0100
0001
0100
0001
1000
0001
1000
0001
0010
0001
0010
,
0001
0010
0100
0010
0100
0010
1000
0001
1000
0010
1000
0010
1001
0000
0100
0000
,
0011
1000
1010
0100
0011
0100
1100
1000
,
0110
0001
0101
1000
1010
0010
0101
1000
,
1010
0010
0101
0001
1010
1000
0101
0010
,
1010
1000
0110
0001
1001
1000
0110
0010
,
1010
1000
0101
0010
1010
0100
0110
0001
,
1001
1000
0101
0010
1010
1000
0101
0010
,
0011
0100
0110
0010
1100
0100
0011
0001
,
1010
0100
0101
1000
1100
0010
0011
0100
,
0110
0010
1100
0100
0011
0100
0110
1000
,
1100
0001
1001
0010
0110
0100
1001
1000
,
0110
0100
1001
0100
0110
0010
1100
0100
,
0011
0001
1100
0100
0011
1000
0110
0000
,
0000
0000
0000
0011
0000
0000
1100
0000
,
0000
0000
0000
0110
0000
0000
1001
0000
,
0000
0000
0110
0000
0000
1001
0000
0110
,
0000
0000
0000
0000
0000
0000
0000
1100
,
0000
0000
0000
0110
0000
1001
0110
0110
,
1100
0000
0000
0000
0000
0000
0110
1100
,
0011
0000
0110
0000
0000
1001
0110
0000
,
0000
0110
0000
1001
0000
0110
1001
0000
,
0000
0011
1100
0000
0000
0000
0000
0110
,
0000
0000
0000
0000
0000
1100
0000
0110
,
0000
0000
0000
0011
0000
1100
0110
0011
,
1010
0000
0000
1001
,
0000
0000
0000
0110
0000
0000
1001
0000
,
0000
0000
0000
0011
0000
0000
1100
0000
,
0000
0000
0000
1100
0000
0000
0011
0000
,
0000
0000
0000
1001
0000
0000
0200
0000
,
0302
0000
2003
0000
3200
0320
0000
0000
,
2030
0000
3200
0010
0320
0000
2030
0000
,
0000
3200
0000
0320
,
0000
0032
0000
0023
,
0230
0000
2300
0000
3002
0023
0000
0000
,
0230
0000
2300
0100
3020
0000
0032
0000
,
0000
0000
0023
0000
0000
0100
0230
0000
,
0000
0000
0000
0000
2300
0000
0000
0000
0000
0000
0000
0000
3001
0010
0001
0100
,
0001
0000
1000
0000
0001
0000
0100
0000
0001
0010
0100
1000
0001
0000
0010
0000
0100
0000
1000
0000
0001
0000
0100
0000
0010
0000
0000
0000
0000
0000
0000
0000
,
1001
0000
0000
0000
0100
0000
0010
0000
0100
0000
0001
0000
1000
0000
0100
0010
,
0000
0000
1000
0100
1000
0010
1000
0010
1000
0001
1000
0001
1000
0010
1000
0010
,
0100
0010
0100
0010
0100
0001
0100
0001
0100
0000
0100
0000
1001
0000
0010
0000
,
1100
0001
1100
0010
0101
0101
1000
0010
,
0101
0010
1100
0001
1100
0010
0101
0010
,
1000
0001
1100
0010
1000
0100
1010
0001
,
1000
0000
0010
0000
1100
0000
0001
0000
1000
0000
0010
0000
0001
0010
0100
1000
,
0001
0000
0100
0000
0010
0000
1000
0000
0001
0010
0100
0000
0010
0100
1000
0000
0001
0000
0100
0000
0001
0000
0100
0000
0001
0000
0000
0000
0000
0000
0000
0000
,
1001
0000
0000
0000
1100
0000
0101
0000
0110
0000
0000
0000
1000
0000
0100
0010
,
0000
0000
0001
0010
0001
0100
0001
1000
0001
0100
0001
0010
0001
0100
0001
0100
,
0010
0100
0010
0100
0001
0100
0001
1000
0001
1000
0001
0100
1001
0000
0010
0000
,
1100
0010
0101
1000
0110
0110
0001
1000
,
0011
0100
0011
1000
0101
0010
1001
0100
,
0010
1000
0101
0010
0100
1000
0011
0100
,
0010
0100
1010
0001
0100
0010
1001
0000
,
0010
0100
0001
1000
,
0010
0100
0001
1000
,
0010
0100
0001
1000
,
0010
0000
0000
0000
0100
0000
0000
0000
0010
0000
0000
0000
0001
0010
0100
1000
,
0001
0010
0100
1000
0001
0100
0010
1000
0001
0100
0010
1000
0100
0010
0001
1000
,
0100
0010
0001
1000
0001
0100
0010
1000
0001
0100
0010
1000
0001
0010
0100
1000
,
0001
0010
0100
1000
0010
0100
0010
1000
0010
0100
0010
1000
0100
0001
0100
0010
,
0100
0001
0100
0010
0001
0010
0100
1000
0001
0010
0100
1000
0001
0100
0010
1000
,
0001
0100
0010
1000
0100
0010
0001
1000
0100
0010
0001
1000
0001
0100
0001
1000
,
0001
0100
0001
1000
0001
0100
0010
1000
0001
0100
0010
1000
0100
0010
0001
1000
,
0100
0010
0001
1000
0010
0100
0010
1000
0010
0100
0010
1000
0001
0010
0100
1000
,
0001
0010
0100
1000
0001
0100
0010
1000
0001
0100
0010
1000
0001
0000
0000
0000
,
0100
0001
1000
0000
;
