#TITLE:Voyager;
#SUBTITLE:;
#ARTIST:Pendulum;
#TITLETRANSLIT:;
#SUBTITLETRANSLIT:;
#ARTISTTRANSLIT:;
#CREDIT:;
#BANNER:voyagerbn.png;
#BACKGROUND:voyagerbg.png;
#LYRICSPATH:;
#CDTITLE:;
#MUSIC:voyager.ogg;
#OFFSET:-0.279;
#SAMPLESTART:69.760;
#SAMPLELENGTH:22.230;
#SELECTABLE:YES;
#DISPLAYBPM:173.000;
#BPMS:0.000=172.721,652.000=172.780,716.000=173.100,720.000=172.721,784.000=172.707,972.000=172.725;
#STOPS:;
#BGCHANGES:;
// cache tags:
#FIRSTBEAT:8.000;
#LASTBEAT:1044.000;
#SONGFILENAME:Songs/Pendulum/Voyager/voyager.sm;
#HASMUSIC:1;
#HASBANNER:1;
#MUSICLENGTH:367.333;
// end cache tags

//---------------dance-single - I. Pyles----------------
#NOTES:
     dance-single:
     I. Pyles:
     Beginner:
     1:
     0.023,0.035,0.000,0.000,0.000,59.000,0.000,0.000,0.000,0.000:
0000
0000
0000
0000
,
0000
0000
0000
0000
,
0010
0000
0000
0000
,
0000
0000
0000
0000
,
0000
0000
0000
0000
,
0000
0000
0000
0000
,
0010
0000
0000
0000
,
0000
0000
0000
0000
,
0000
0000
0000
0000
,
0000
0000
0000
0000
,
1000
0000
0000
0000
,
0000
0000
0000
0000
,
0000
0000
0000
0000
,
0000
0000
0000
0000
,
0100
0000
0000
0000
,
0000
0000
0000
0000
,
0000
0000
0000
0000
,
0000
0000
0000
0000
,
0010
0000
0000
0000
,
0000
0000
0000
0000
,
0000
0000
0000
0000
,
0000
0000
0000
0000
,
1000
0000
0000
0000
,
0000
0000
0000
0000
,
0000
0000
0000
0000
,
0000
0000
0000
0000
,
0100
0000
0000
0000
,
0000
0000
0000
0000
,
0000
0000
0000
0000
,
0000
0000
0000
0000
,
0010
0000
0000
0000
,
0000
0000
0000
0000
,
0000
0000
0000
0000
,
0000
0000
0000
0000
,
0001
0000
0000
0000
,
0000
0000
0000
0000
,
0000
0000
0000
0000
,
0000
0000
0000
0000
,
0010
0000
0000
0000
,
0000
0000
0000
0000
,
0000
0000
0000
0000
,
0000
0000
0000
0000
,
0001
0000
0000
0000
,
0000
0000
0000
0000
,
0000
0000
0000
0000
,
0000
0000
0000
0000
,
1000
0000
0000
0000
,
0000
0000
0000
0000
,
0000
0000
0000
0000
,
0000
0000
0000
0000
,
0010
0000
0000
0000
,
0000
0000
0000
0000
,
0000
0000
0000
0000
,
0000
0000
0000
0000
,
0010
0000
0000
0000
,
0000
0000
0000
0000
,
0000
0000
0000
0000
,
0000
0000
0000
0000
,
0100
0000
0000
0000
,
0000
0000
0000
0000
,
0000
0000
0000
0000
,
0000
0000
0000
0000
,
1000
0000
0000
0000
,
0000
0000
0000
0000
,
0000
0000
0000
0000
,
0000
0000
0000
0000
,
0010
0000
0000
0000
,
0000
0000
0000
0000
,
0000
0000
0000
0000
,
0000
0000
0000
0000
,
0000
0000
0000
0000
,
0000
0000
0000
0000
,
0000
0000
0000
0000
,
0000
0000
0000
0000
,
0000
0000
0000
0000
,
0000
0000
0000
0000
,
0000
0000
0000
0000
,
0000
0000
0000
0000
,
0000
0000
0000
0000
,
0000
0000
0000
0000
,
0000
0000
0000
0000
,
0000
0000
0000
0000
,
0000
0000
0000
0000
,
0100
0000
0000
0000
,
0000
0000
0000
0000
,
0000
0000
0000
0000
,
0000
0000
0000
0000
,
1000
0000
0000
0000
,
0000
0000
0000
0000
,
0000
0000
0000
0000
,
0000
0000
0000
0000
,
1000
0000
0000
0000
,
0000
0000
0000
0000
,
0000
0000
0000
0000
,
0000
0000
0000
0000
,
1000
0000
0000
0000
,
0000
0000
0000
0000
,
0000
0000
0000
0000
,
0000
0000
0000
0000
,
0100
0000
0000
0000
,
0000
0000
0000
0000
,
0000
0000
0000
0000
,
0000
0000
0000
0000
,
1000
0000
0000
0000
,
0000
0000
0000
0000
,
0000
0000
0000
0000
,
0000
0000
0000
0000
,
0001
0000
0000
0000
,
0000
0000
0000
0000
,
0000
0000
0000
0000
,
0000
0000
0000
0000
,
1000
0000
0000
0000
,
0000
0000
0000
0000
,
0000
0000
0000
0000
,
0000
0000
0000
0000
,
0100
0000
0000
0000
,
0000
0000
0000
0000
,
0000
0000
0000
0000
,
0000
0000
0000
0000
,
1000
0000
0000
0000
,
0000
0000
0000
0000
,
0000
0000
0000
0000
,
0000
0000
0000
0000
,
0010
0000
0000
0000
,
0000
0000
0000
0000
,
0000
0000
0000
0000
,
0000
0000
0000
0000
,
1000
0000
0000
0000
,
0000
0000
0000
0000
,
0000
0000
0000
0000
,
0000
0000
0000
0000
,
0100
0000
0000
0000
,
0000
0000
0000
0000
,
0000
0000
0000
0000
,
0000
0000
0000
0000
,
1000
0000
0000
0000
,
0000
0000
0000
0000
,
0000
0000
0000
0000
,
0000
0000
0000
0000
,
0010
0000
0000
0000
,
0000
0000
0000
0000
,
0000
0000
0000
0000
,
0000
0000
0000
0000
,
0100
0000
0000
0000
,
0000
0000
0000
0000
,
0000
0000
0000
0000
,
0000
0000
0000
0000
,
1000
0000
0000
0000
,
0000
0000
0000
0000
,
0000
0000
0000
0000
,
0000
0000
0000
0000
,
1000
0000
0000
0000
,
0000
0000
0000
0000
,
0000
0000
0000
0000
,
0000
0000
0000
0000
,
0100
0000
0000
0000
,
0000
0000
0000
0000
,
0000
0000
0000
0000
,
0000
0000
0000
0000
,
0100
0000
0000
0000
,
0000
0000
0000
0000
,
0000
0000
0000
0000
,
0000
0000
0000
0000
,
0100
0000
0000
0000
,
0000
0000
0000
0000
,
0000
0000
0000
0000
,
0000
0000
0000
0000
,
0000
0000
0000
0000
,
0000
0000
0000
0000
,
0000
0000
0000
0000
,
0000
0000
0000
0000
,
0000
0000
0000
0000
,
0000
0000
0000
0000
,
0000
0000
0000
0000
,
0000
0000
0000
0000
,
0000
0000
0000
0000
,
0000
0000
0000
0000
,
0000
0000
0000
0000
,
0000
0000
0000
0000
,
0000
0000
0000
0000
,
0010
0000
0000
0000
,
0000
0000
0000
0000
,
0000
0000
0000
0000
,
0000
0000
0000
0000
,
0010
0000
0000
0000
,
0000
0000
0000
0000
,
0000
0000
0000
0000
,
0000
0000
0000
0000
,
0010
0000
0000
0000
,
0000
0000
0000
0000
,
0000
0000
0000
0000
,
0000
0000
0000
0000
,
0001
0000
0000
0000
,
0000
0000
0000
0000
,
0000
0000
0000
0000
,
0000
0000
0000
0000
,
1000
0000
0000
0000
,
0000
0000
0000
0000
,
0000
0000
0000
0000
,
0000
0000
0000
0000
,
0010
0000
0000
0000
,
0000
0000
0000
0000
,
0000
0000
0000
0000
,
0000
0000
0000
0000
,
0100
0000
0000
0000
,
0000
0000
0000
0000
,
0000
0000
0000
0000
,
0000
0000
0000
0000
,
1000
0000
0000
0000
,
0000
0000
0000
0000
,
0000
0000
0000
0000
,
0000
0000
0000
0000
,
0001
0000
0000
0000
,
0000
0000
0000
0000
,
0000
0000
0000
0000
,
0000
0000
0000
0000
,
0010
0000
0000
0000
,
0000
0000
0000
0000
,
0000
0000
0000
0000
,
0000
0000
0000
0000
,
0100
0000
0000
0000
,
0000
0000
0000
0000
,
0000
0000
0000
0000
,
0000
0000
0000
0000
,
1000
0000
0000
0000
,
0000
0000
0000
0000
,
0000
0000
0000
0000
,
0000
0000
0000
0000
,
1000
0000
0000
0000
,
0000
0000
0000
0000
,
0000
0000
0000
0000
,
0000
0000
0000
0000
,
1000
0000
0000
0000
,
0000
0000
0000
0000
,
0000
0000
0000
0000
,
0000
0000
0000
0000
,
1000
0000
0000
0000
,
0000
0000
0000
0000
,
0000
0000
0000
0000
,
0000
0000
0000
0000
,
1000
0000
0000
0000
,
0000
0000
0000
0000
,
0000
0000
0000
0000
,
0000
0000
0000
0000
,
1000
0000
0000
0000
,
0000
0000
0000
0000
,
0000
0000
0000
0000
,
0000
0000
0000
0000
,
0010
0000
0000
0000
,
0000
0000
0000
0000
,
0000
0000
0000
0000
,
0000
0000
0000
0000
,
0010
0000
0000
0000
,
0000
0000
0000
0000
,
0000
0000
0000
0000
,
0000
0000
0000
0000
,
1000
0000
0000
0000
,
0000
0000
0000
0000
,
0000
0000
0000
0000
,
0000
0000
0000
0000
,
0010
0000
0000
0000
;

//---------------dance-single - I. Pyles----------------
#NOTES:
     dance-single:
     I. Pyles:
     Easy:
     12:
     0.851,1.000,0.049,0.193,1.000,2065.000,18.000,71.000,255.000,0.000:
0000
0000
0000
0000
,
0000
0000
0000
0000
,
1000
0100
1000
0100
0010
0000
0100
0010
0001
1000
0001
1000
0100
0000
0010
0001
,
1000
0100
1000
0100
0010
0000
0100
0010
0001
1000
0010
1000
0100
0000
0010
0001
,
1000
0100
1000
0100
0010
0000
0100
0010
0001
1000
0001
1000
0100
0000
0010
0001
,
1000
0100
1000
0100
0010
0000
0100
0010
0001
1000
0001
1000
0100
0000
0010
0001
,
1000
0010
1000
0010
0100
0000
0010
0100
0001
1000
0001
1000
0010
0000
0100
0001
,
1000
0010
1000
0010
0100
0000
0010
0100
0001
1000
0100
1000
0010
0000
0100
0001
,
1000
0010
1000
0010
0100
0000
0010
0100
0001
1000
0001
1000
0010
0000
0100
0001
,
1000
0010
1000
0010
0100
0000
0010
0100
0001
1000
0001
1000
0010
0000
0100
0001
,
1000
0100
1000
0100
0010
0000
0100
0010
0001
1000
0001
1000
0100
0000
0010
0001
,
1000
0100
1000
0100
0010
0000
0100
0010
0001
1000
0010
1000
0100
0000
0010
0001
,
1000
0100
1000
0100
0010
0000
0100
0010
0001
1000
0001
1000
0100
0000
0010
0001
,
1000
0100
1000
0100
0010
0000
0100
0010
0001
1000
0001
1000
0100
0000
0010
0001
,
1000
0010
1000
0010
0100
0000
0010
0100
0001
1000
0001
1000
0010
0000
0100
0001
,
1000
0010
1000
0010
0100
0000
0010
0100
0001
1000
0100
1000
0010
0000
0100
0001
,
1000
0010
1000
0010
0100
0000
0010
0100
0001
1000
0001
1000
0010
0000
0100
0001
,
1000
0010
1000
0010
0100
0000
0010
0100
0001
1000
0001
1000
0010
0000
0100
0001
,
1000
0100
0010
0000
0100
0000
1000
0001
0000
0001
0100
0000
0010
0000
0000
0000
,
1000
0010
0100
0000
0010
0000
1000
0001
0000
0001
0010
0000
0100
0000
0000
0000
,
1000
0010
0100
0000
0010
0000
1000
0001
0000
0001
0010
0000
0100
0000
0000
0000
,
1000
0010
0100
0000
0010
0000
1000
0001
0000
0001
0010
0000
0100
0000
0000
0000
,
1000
0100
0010
0000
0100
0000
1000
0001
0000
0001
0100
0000
0010
0000
0000
0000
,
1000
0010
0100
0000
0010
0000
1000
0001
0000
0001
0010
0000
0100
0000
0000
0000
,
1000
0100
0010
0000
0100
0000
1000
0001
0000
0001
0100
0000
0010
0000
0000
0000
,
1000
0010
0100
0000
0010
0000
1000
0001
0000
0001
0010
0000
0100
0000
0000
0000
,
1000
0100
0010
0000
0100
0000
1000
0001
0000
0001
0100
0000
0010
0000
0000
0000
,
1000
0100
0010
0000
0100
0000
1000
0001
0000
0001
0100
0000
0010
0000
0000
0000
,
1000
0100
0010
0000
0100
0000
1000
0001
0000
0001
0100
0000
0010
0000
0000
0000
,
1000
0010
0100
0000
0010
0000
1000
0001
0000
0001
0010
0000
0100
0000
0000
0000
,
1000
0100
0010
0000
0100
0000
1000
0001
0000
0001
0100
0000
0010
0000
0000
0000
,
1000
0010
0100
0000
0010
0000
1000
0001
0000
0001
0010
0000
0100
0000
0000
0000
,
1000
0100
0010
0000
0100
0000
1000
0001
0000
0001
0100
0000
0010
0000
0000
0000
,
1000
0010
0100
0000
0010
0000
1000
0001
0000
0001
0010
0000
0100
0000
0000
0000
,
1000
0000
0001
0100
0001
0000
1000
0001
0000
1000
0001
0000
0100
0000
0000
0000
,
0001
0000
1000
0100
1000
0000
0001
1000
0000
0001
1000
0000
0100
0000
0000
0000
,
1000
0000
0001
0100
0001
0000
1000
0001
0000
1000
0001
0000
0100
0000
0010
1000
,
0001
0000
1000
0100
1000
0000
0001
1000
0000
0001
1000
0000
0100
1000
0010
0100
,
0001
0000
0100
0010
0100
0000
0001
1000
0000
0001
0010
0000
0100
0000
0000
0000
,
1000
0000
0100
0010
0100
0000
1000
0001
0000
1000
0010
0000
0100
0001
1000
0000
,
0001
0100
0001
1000
0001
0100
0001
1000
0010
0100
0001
1000
0010
0100
0001
1000
,
0100
0010
0001
0010
0100
0010
0001
1000
0010
0100
0001
1000
0001
0100
0001
1000
,
0001
0000
1000
0010
1000
0000
0001
1000
0000
0001
1000
0000
0010
0000
0000
0000
,
1000
0000
0001
0010
0001
0000
1000
0001
0000
1000
0001
0000
0010
0000
0000
0000
,
0001
0000
1000
0010
1000
0000
0001
1000
0000
0001
1000
0000
0010
0000
0100
0001
,
1000
0000
0001
0010
0001
0000
1000
0001
0000
1000
0001
0000
0010
0001
0100
0010
,
1000
0000
0010
0100
0010
0000
1000
0001
0000
1000
0100
0000
0010
0000
0000
0000
,
0001
0000
0010
0100
0010
0000
0001
1000
0000
0001
0100
0000
0010
1000
0001
0000
,
1000
0010
1000
0001
1000
0010
1000
0001
0100
0010
1000
0001
0100
0010
1000
0001
,
0010
0100
1000
0100
0010
0100
1000
0001
0100
0010
1000
0001
1000
0010
1000
0001
,
1000
0000
0001
0100
0001
0000
1000
0001
0000
1000
0001
0000
0100
0000
0000
0000
,
0001
0000
1000
0100
1000
0000
0001
1000
0000
0001
1000
0000
0100
0000
0000
0000
,
1000
0000
0001
0100
0001
0000
1000
0001
0000
1000
0001
0000
0100
0000
0010
1000
,
0001
0000
1000
0100
1000
0000
0001
1000
0000
0001
1000
0000
0100
1000
0010
0100
,
0001
0000
0100
0010
0100
0000
0001
1000
0000
0001
0010
0000
0100
0000
0000
0000
,
1000
0000
0100
0010
0100
0000
1000
0001
0000
1000
0010
0000
0100
0001
1000
0000
,
0001
0100
0001
1000
0001
0100
0001
1000
0010
0100
0001
1000
0010
0100
0001
1000
,
0100
0010
0001
0010
0100
0010
0001
1000
0010
0100
0001
1000
0001
0100
0001
1000
,
0001
0000
1000
0010
1000
0000
0001
1000
0000
0001
1000
0000
0010
0000
0000
0000
,
1000
0000
0001
0010
0001
0000
1000
0001
0000
1000
0001
0000
0010
0000
0000
0000
,
0001
0000
1000
0010
1000
0000
0001
1000
0000
0001
1000
0000
0010
0000
0100
0001
,
1000
0000
0001
0010
0001
0000
1000
0001
0000
1000
0001
0000
0010
0001
0100
0010
,
1000
0000
0010
0100
0010
0000
1000
0001
0000
1000
0100
0000
0010
0000
0000
0000
,
0001
0000
0010
0100
0010
0000
0001
1000
0000
0001
0100
0000
0010
1000
0001
0000
,
1000
0010
1000
0001
1000
0010
1000
0001
0100
0010
1000
0001
0100
0010
1000
0001
,
0010
0100
1000
0100
0010
0100
1000
0001
0100
0010
1000
0001
1000
0010
1000
0001
,
0200
0000
0000
0000
,
0000
0000
0000
0000
,
0000
0000
0000
0000
,
000M
000M
000M
000M
000M
000M
000M
000M
000M
000M
000M
000M
000M
000M
000M
000M
,
000M
0000
0000
0000
,
0000
0300
MMMM
0000
0000
0000
0000
0000
,
0000
0000
0000
0000
,
00M0
00M0
00M0
0000
0M00
0M00
0M00
0000
M000
M000
M000
0000
00M0
0000
0M00
0M00
,
0M00
0M00
0M00
0M00
0M00
0M00
0M00
0M00
0M00
0M00
0M00
0000
0000
0000
0000
0000
,
0000
0000
0000
0000
,
000M
000M
000M
0000
0000
0M00
0M00
0M00
0000
00M0
00M0
00M0
0000
0000
0000
0000
,
0M00
0M00
0M00
0000
00M0
00M0
00M0
0000
000M
000M
000M
0000
0M00
0000
00M0
00M0
,
00M0
00M0
00M0
00M0
00M0
00M0
00M0
00M0
00M0
00M0
00M0
0000
0000
0000
0000
0000
,
0000
0000
0000
0000
,
00M0
00M0
00M0
0000
M000
0000
000M
000M
000M
0000
0M00
0M00
0M00
0000
00M0
0000
,
M000
M000
M000
0000
000M
0M00
0000
0000
0000
0000
000M
0M00
0000
0000
0000
0000
,
0000
0000
0000
0000
0000
0000
0000
0000
0000
0000
0000
0000
00M0
00M0
00M0
00M0
,
0004
0000
0000
0000
0000
0000
0000
0003
,
1000
0100
0000
0100
0010
0000
0001
0000
0000
0100
0010
0000
1000
0001
0100
0000
,
0004
0000
0000
0023
0000
0430
0000
0300
,
1000
0001
0000
0001
0000
0100
0000
0100
0010
1000
0001
0000
0010
0001
1000
0000
,
0004
0000
0000
0000
0000
0000
0000
0003
,
1000
0100
0000
0100
0010
0000
0001
0000
0000
0100
0010
0000
1000
0001
0100
0000
,
0004
0000
0000
0023
0000
0430
0000
0300
,
0020
0000
0032
0000
0003
0200
0320
0030
,
4000
0000
0000
0000
0000
0000
0000
3000
,
0001
0010
0000
0010
0100
0000
1000
0000
0000
0010
0100
0000
0001
1000
0010
0000
,
4000
0000
0000
3200
0000
0340
0000
0030
,
0001
1000
0000
1000
0000
0010
0000
0010
0100
0001
1000
0000
0100
1000
0001
0000
,
4000
0000
0000
0000
0000
0000
0000
3000
,
0001
0010
0000
0010
0100
0000
1000
0000
0000
0010
0100
0000
0001
1000
0010
0000
,
4000
0000
0000
3200
0000
0340
0000
0030
,
000M
000M
000M
0000
M000
M000
M000
0000
0M00
0M00
0M00
0000
0M00
0M00
0M00
0000
,
1000
0000
0001
0100
0000
0010
0100
0000
0001
1000
0000
0010
0100
0001
1000
0000
,
0001
0000
1000
0010
0000
0100
0010
0000
1000
0001
0000
0100
0010
1000
0001
1000
,
0100
0020
0000
0032
0000
0103
0020
0000
,
1030
0001
0000
0001
0000
0100
0000
0100
0010
1000
0001
0000
0010
0001
1000
0000
,
0001
0000
1000
0010
0000
0100
0010
0000
1000
0001
0000
0100
0010
1000
0010
1000
,
0001
0000
1000
0010
0000
0100
0010
0000
1000
0001
0000
0100
0010
1000
0010
1000
,
0004
0000
0000
0023
0000
0430
0000
0300
,
1000
0100
1000
0001
0100
0001
0010
0001
1000
0010
1000
0100
1000
0001
0100
0001
,
0010
0000
0100
0010
0000
0001
0010
0000
0100
1000
0000
0100
0010
0001
1000
0000
,
0001
0000
1000
0010
0000
0100
0010
0000
1000
0001
0000
0100
0010
1000
0001
1000
,
0100
0020
0000
0032
0000
0103
0020
0000
,
1030
0001
0000
0001
0000
0100
0000
0100
0010
1000
0001
0000
0010
0001
1000
0000
,
0001
0000
1000
0010
0000
0100
0010
0000
1000
0001
0000
0100
0010
1000
0001
0000
,
1000
0000
0001
0100
0000
0010
0100
0000
0001
1000
0000
0010
0100
0001
1000
0000
,
0100
0020
0000
0032
0000
0103
0020
0000
,
1030
0001
0000
0001
0000
0100
0000
0100
0010
1000
0001
0000
0010
0001
1000
0000
,
0004
0000
0000
0000
0000
0000
0000
0003
,
1000
0100
0010
0000
0001
0100
0010
0000
1000
0100
0010
0000
0001
0100
0010
0000
,
4000
0000
0000
3200
0000
0340
0000
0030
,
0001
0010
0100
0000
1000
0010
0100
0000
0001
0010
0100
0000
1000
0010
0100
0000
,
0004
0000
0000
0000
0000
0000
0000
0003
,
1000
0100
0000
0100
0010
0000
0001
0000
0000
0100
0010
0000
1000
0001
0100
0000
,
0004
0000
0000
0023
0000
0430
0000
0300
,
2000
0000
3002
0000
0003
0100
0020
0000
,
4030
0000
0000
0000
0000
0000
0000
3000
,
0001
0010
0000
0010
0100
0000
1000
0000
0000
0010
0100
0000
0001
1000
0010
0000
,
4000
0000
0000
3200
0000
0340
0000
0030
,
0001
1000
0000
1000
0000
0010
0000
0010
0100
0001
1000
0000
0100
1000
0001
0000
,
4000
0000
0000
0000
0000
0000
0000
3000
,
0001
0010
0000
0010
0100
0000
1000
0000
0000
0010
0100
0000
0001
1000
0010
0000
,
4000
0000
0000
3200
0000
0340
0000
0030
,
M000
M000
M000
0000
000M
000M
000M
0000
00M0
00M0
00M0
0000
00M0
00M0
00M0
0000
,
0001
1000
0000
1000
0000
0010
0000
0100
0000
0001
0000
0100
0001
1000
0001
0000
,
0020
0000
0130
1000
0002
0000
0023
0000
,
0030
0000
0001
1000
0000
0010
0000
0100
0000
0001
0000
0010
0100
1000
0001
0000
,
2000
0000
0000
0000
3001
0010
0001
0100
,
0001
1000
0000
1000
0000
0010
0000
0100
0000
0001
0000
0100
0001
1000
0001
0000
,
0020
0000
0130
1000
0002
0000
0023
0000
,
0031
0100
0001
1000
0010
1000
0001
0100
0001
1000
0100
1000
0010
1000
0001
1000
,
0001
0100
0010
0100
0010
0100
0001
1000
0010
0100
0010
1000
0001
0100
0001
1000
,
00M0
00M0
00M0
0000
0M00
0M00
0M00
0000
0000
0000
000M
000M
000M
0000
0000
0000
,
1000
0010
1000
0001
1000
0100
1000
0001
1000
0010
0100
0000
0001
0010
0100
0000
,
1000
0010
0100
0000
0001
0010
0100
0000
1000
0010
0100
0000
0001
0010
0100
0000
,
1000
0001
0000
0001
0000
0100
0000
0100
0010
1000
0001
0000
0010
0001
1000
0000
,
0001
0010
0100
0000
1000
0010
0100
0000
0001
0010
0100
0000
1000
0010
0100
0000
,
0001
0100
0010
0000
1000
0100
0010
0000
0001
0100
0010
0000
1000
0100
0010
0000
,
0001
0100
0010
0000
1000
0100
0010
0000
0001
0100
0010
0000
1000
0100
0010
0000
,
0001
0010
0001
1000
0010
1000
0100
1000
0001
0100
0001
0010
0001
1000
0010
1000
,
0200
0000
0000
0000
0310
0000
0000
0100
0010
0001
1000
0000
0100
0010
0001
1000
,
0010
0000
0000
0100
0010
0000
0100
0010
1000
0001
1000
0000
0001
1000
0001
0010
,
0100
0000
0000
0010
0100
0000
0010
0100
1000
0001
1000
0000
0001
1000
0001
0100
,
0010
0000
0000
0000
0100
0000
0010
0100
0001
0010
0001
1000
0010
1000
0001
0100
,
0010
0000
0000
1000
0001
0000
0100
0001
1000
0001
0100
0000
0010
0100
0001
0100
,
0000
0000
0000
0001
1000
0000
0100
1000
0001
1000
0100
0000
0010
0100
1000
0100
,
0000
0000
0000
1000
0001
0000
0010
0001
1000
0001
0010
0000
0100
0010
0001
0010
,
0000
0000
0000
0001
1000
0000
0010
1000
0001
1000
0010
0100
0010
1000
0100
0010
,
0000
0000
0000
0100
1000
0000
0001
1000
0100
1000
0001
0000
0010
0001
1000
0001
,
0000
0000
0000
0100
0001
0000
1000
0001
0100
0001
1000
0000
0010
1000
0001
1000
,
0000
0000
0000
0010
1000
0000
0001
1000
0010
1000
0001
0000
0100
0001
1000
0001
,
0000
0000
0000
0010
0001
0000
1000
0001
0010
0001
1000
0000
0100
1000
0001
1000
,
0000
0000
0000
0001
0010
0000
0100
1000
0001
1000
0100
0000
1000
0001
0010
0001
,
0000
0000
0000
1000
0010
0000
0100
0001
1000
0001
0100
0000
0001
0010
0001
1000
,
0000
0000
0000
0001
0010
0000
0100
1000
0001
1000
0100
0000
1000
0001
0010
0001
,
0000
0000
0000
1000
0010
0000
0100
0001
1000
0001
0100
0000
0001
0010
0001
1000
,
0200
0000
0000
0000
,
0000
0000
0000
0000
,
0000
0000
0000
0000
0000
0000
0000
0000
0000
0000
000M
000M
000M
000M
000M
000M
,
000M
000M
000M
000M
000M
000M
000M
000M
000M
000M
000M
000M
000M
000M
000M
000M
,
000M
0000
0000
0000
,
0000
0300
0000
0000
0000
0000
0000
0000
,
0000
0000
0000
0000
,
0M00
0M00
0M00
0000
00M0
00M0
00M0
0000
000M
000M
000M
0000
0M00
0000
00M0
00M0
,
00M0
00M0
00M0
00M0
00M0
00M0
00M0
00M0
00M0
00M0
00M0
0000
0000
0000
0000
0000
,
0000
0000
0000
0000
,
M000
M000
M000
0000
0000
00M0
00M0
00M0
0000
0M00
0M00
0M00
0000
0000
0000
0000
,
00M0
00M0
00M0
0000
0M00
0M00
0M00
0000
M000
M000
M000
0000
00M0
0000
0M00
0M00
,
0M00
0M00
0M00
0M00
0M00
0M00
0M00
0M00
0M00
0M00
0M00
0000
0000
0000
0000
0000
,
0000
0000
0000
0000
,
0M00
0M00
0M00
0000
000M
0000
M000
M000
M000
0000
00M0
00M0
00M0
0000
0M00
0000
,
000M
000M
000M
0000
M000
00M0
0000
0000
0000
0000
M000
00M0
0000
0000
0000
0000
,
0001
0000
0000
0000
0001
0000
0000
0000
0001
0000
0000
0000
0M00
0M00
0M00
0M00
,
4000
0000
0000
0000
0000
0000
0000
3000
,
0001
0010
0000
0010
0100
0000
1000
0000
0000
0010
0100
0000
0001
1000
0010
0000
,
4000
0000
0000
3200
0000
0340
0000
0030
,
0001
1000
0000
1000
0000
0010
0000
0010
0100
0001
1000
0000
0100
1000
0001
0000
,
4000
0000
0000
0000
0000
0000
0000
3000
,
0001
0010
0000
0010
0100
0000
1000
0000
0000
0010
0100
0000
0001
1000
0010
0000
,
4000
0000
0000
3200
0000
0340
0000
0030
,
0200
0000
2300
0000
3000
0020
0230
0300
,
0004
0000
0000
0000
0000
0000
0000
0003
,
1000
0100
0000
0100
0010
0000
0001
0000
0000
0100
0010
0000
1000
0001
0100
0000
,
0004
0000
0000
0023
0000
0430
0000
0300
,
1000
0001
0000
0001
0000
0100
0000
0100
0010
1000
0001
0000
0010
0001
1000
0000
,
0004
0000
0000
0000
0000
0000
0000
0003
,
1000
0100
0000
0100
0010
0000
0001
0000
0000
0100
0010
0000
1000
0001
0100
0000
,
0004
0000
0000
0023
0000
0430
0000
0300
,
M000
M000
M000
0000
000M
000M
000M
0000
00M0
00M0
00M0
0000
00M0
00M0
00M0
0000
,
0001
0000
1000
0010
0000
0100
0010
0000
1000
0001
0000
0100
0010
1000
0001
0000
,
1000
0000
0001
0100
0000
0010
0100
0000
0001
1000
0000
0010
0100
0001
1000
0001
,
0010
0200
0000
2300
0000
3010
0200
0000
,
0301
1000
0000
1000
0000
0010
0000
0010
0100
0001
1000
0000
0100
1000
0001
0000
,
1000
0000
0001
0100
0000
0010
0100
0000
0001
1000
0000
0010
0100
0001
0100
0001
,
1000
0000
0001
0100
0000
0010
0100
0000
0001
1000
0000
0010
0100
0001
0100
0001
,
4000
0000
0000
3200
0000
0340
0000
0030
,
0001
0010
0001
1000
0010
1000
0100
1000
0001
0100
0001
0010
0001
1000
0010
1000
,
0100
0000
0010
0100
0000
1000
0100
0000
0010
0001
0000
0010
0100
1000
0001
0000
,
1000
0000
0001
0100
0000
0010
0100
0000
0001
1000
0000
0010
0100
0001
1000
0001
,
0010
0200
0000
2300
0000
3010
0200
0000
,
0301
1000
0000
1000
0000
0010
0000
0010
0100
0001
1000
0000
0100
1000
0001
0000
,
1000
0000
0001
0100
0000
0010
0100
0000
0001
1000
0000
0010
0100
0001
1000
0000
,
0001
0000
1000
0010
0000
0100
0010
0000
1000
0001
0000
0100
0010
1000
0001
0000
,
0010
0200
0000
2300
0000
3010
0200
0000
,
0301
1000
0000
1000
0000
0010
0000
0010
0100
0001
1000
0000
0100
1000
0001
0000
,
4000
0000
0000
0000
0000
0000
0000
3000
,
0001
1000
0010
0100
0001
0000
0100
0010
1000
0001
0010
0100
1000
0000
0100
0010
,
0004
0000
0000
0023
0000
0430
0000
0300
,
1000
0001
0100
0010
1000
0000
0010
0100
0001
1000
0100
0010
0001
0000
0010
0100
,
4000
0000
0000
0000
0000
0000
0000
3000
,
0001
0010
0000
0010
0100
0000
1000
0000
0000
0010
0100
0000
0001
1000
0010
0000
,
4000
0000
0000
3200
0000
0340
0000
0030
,
0002
0000
2003
0000
3000
0010
0200
0000
,
0304
0000
0000
0000
0000
0000
0000
0003
,
1000
0100
0000
0100
0010
0000
0001
0000
0000
0100
0010
0000
1000
0001
0100
0000
,
0004
0000
0000
0023
0000
0430
0000
0300
,
1000
0001
0000
0001
0000
0100
0000
0100
0010
1000
0001
0000
0010
0001
1000
0000
,
0004
0000
0000
0000
0000
0000
0000
0003
,
1000
0100
0000
0100
0010
0000
0001
0000
0000
0100
0010
0000
1000
0001
0100
0000
,
0004
0000
0000
0023
0000
0430
0000
0300
,
000M
000M
000M
0000
M000
M000
M000
0000
0M00
0M00
0M00
0000
0M00
0M00
0M00
0000
,
1000
0001
0000
0001
0000
0100
0000
0010
0000
1000
0000
0010
1000
0001
1000
0000
,
0200
0000
0310
0001
2000
0000
3200
0000
,
0300
0000
1000
0001
0000
0100
0000
0010
0000
1000
0000
0100
0010
0001
1000
0000
,
0002
0000
0000
0000
1003
0100
1000
0010
,
1000
0001
0000
0001
0000
0100
0000
0010
0000
1000
0000
0010
1000
0001
1000
0000
,
0200
0000
0310
0001
2000
0000
3200
0000
,
1300
0010
1000
0001
0100
0001
1000
0010
1000
0001
0010
0001
0100
0001
1000
0001
,
1000
0010
0100
0010
0100
0010
1000
0001
0100
0010
0100
0001
1000
0010
1000
0001
,
0200
0000
0320
0000
0000
2030
0000
3000
,
0001
0100
0100
0010
0010
1000
1000
0001
,
0100
0010
0010
0100
0100
0001
0001
0100
,
0001
1000
0000
1000
0000
0010
0000
0010
0100
0001
1000
0000
0100
1000
0001
0000
,
1000
0010
0010
0100
0100
0001
0001
1000
,
0010
0100
0100
0010
0010
1000
1000
0001
,
0100
0010
0010
0100
0100
0001
0001
0100
,
0001
0010
0001
1000
0010
1000
0100
1000
0001
0100
0001
0010
0001
1000
0010
1000
,
0001
0010
0001
0010
0100
0000
0010
0100
1000
0001
1000
0001
0010
0000
0100
1000
,
0001
0010
0001
0010
0100
0000
0010
0100
1000
0001
0100
0001
0010
0000
0100
1000
,
0001
0010
0001
0010
0100
0000
0010
0100
1000
0001
1000
0001
0010
0000
0100
1000
,
0001
0010
0001
0010
0100
0000
0010
0100
1000
0001
1000
0001
0010
0000
0100
1000
,
0001
0100
0001
0100
0010
0000
0100
0010
1000
0001
1000
0001
0100
0000
0010
1000
,
0001
0100
0001
0100
0010
0000
0100
0010
1000
0001
0010
0001
0100
0000
0010
1000
,
0001
0100
0001
0100
0010
0000
0100
0010
1000
0001
1000
0001
0100
0000
0010
1000
,
0001
0100
0001
0100
0010
0000
0100
0010
1000
0001
1000
0001
0100
0000
0010
1000
,
0001
0010
0001
0010
0100
0000
0010
0100
1000
0001
1000
0001
0010
0000
0100
1000
,
0001
0010
0001
0010
0100
0000
0010
0100
1000
0001
0100
0001
0010
0000
0100
1000
,
0001
0010
0001
0010
0100
0000
0010
0100
1000
0001
1000
0001
0010
0000
0100
1000
,
0001
0010
0001
0010
0100
0000
0010
0100
1000
0001
1000
0001
0010
0000
0100
1000
,
0001
0100
0001
0100
0010
0000
0100
0010
1000
0001
1000
0001
0100
0000
0010
1000
,
0001
0100
0001
0100
0010
0000
0100
0010
1000
0001
0010
0001
0100
0000
0010
1000
,
0001
0100
0001
0100
0010
0000
0100
0010
1000
0001
1000
0001
0100
0000
0010
1000
,
0001
0100
0001
0100
0010
0000
0100
0010
1000
0001
1000
0001
0100
0000
0010
1000
,
0200
0000
0000
0000
,
0300
0000
0000
0000
;

//---------------dance-single - I. Pyles----------------
#NOTES:
     dance-single:
     I. Pyles:
     Medium:
     13:
     0.910,1.000,0.049,0.193,1.000,2217.000,18.000,71.000,255.000,0.000:
0000
0000
0000
0000
,
0000
0000
0000
0000
,
1000
0100
1000
0100
0010
0000
0100
0010
0001
1000
0001
1000
0100
0000
0010
0001
,
1000
0100
1000
0100
0010
0000
0100
0010
0001
1000
0010
1000
0100
0000
0010
0001
,
1000
0100
1000
0100
0010
0000
0100
0010
0001
1000
0001
1000
0100
0000
0010
0001
,
1000
0100
1000
0100
0010
0000
0100
0010
0001
1000
0001
1000
0100
0000
0010
0001
,
1000
0010
1000
0010
0100
0000
0010
0100
0001
1000
0001
1000
0010
0000
0100
0001
,
1000
0010
1000
0010
0100
0000
0010
0100
0001
1000
0100
1000
0010
0000
0100
0001
,
1000
0010
1000
0010
0100
0000
0010
0100
0001
1000
0001
1000
0010
0000
0100
0001
,
1000
0010
1000
0010
0100
0000
0010
0100
0001
1000
0001
1000
0010
0000
0100
0001
,
1000
0100
1000
0100
0010
0000
0100
0010
0001
1000
0001
1000
0100
0000
0010
0001
,
1000
0100
1000
0100
0010
0000
0100
0010
0001
1000
0010
1000
0100
0000
0010
0001
,
1000
0100
1000
0100
0010
0000
0100
0010
0001
1000
0001
1000
0100
0000
0010
0001
,
1000
0100
1000
0100
0010
0000
0100
0010
0001
1000
0001
1000
0100
0000
0010
0001
,
1000
0010
1000
0010
0100
0000
0010
0100
0001
1000
0001
1000
0010
0000
0100
0001
,
1000
0010
1000
0010
0100
0000
0010
0100
0001
1000
0100
1000
0010
0000
0100
0001
,
1000
0010
1000
0010
0100
0000
0010
0100
0001
1000
0001
1000
0010
0000
0100
0001
,
1000
0010
1000
0010
0100
0000
0010
0100
0001
1000
0001
1000
0010
0000
0100
0001
,
1000
0100
1000
0100
0010
0000
0100
0010
0001
1000
0001
1000
0100
0000
0010
0001
,
1000
0100
1000
0100
0010
0000
0100
0010
0001
1000
0010
1000
0100
0000
0010
0001
,
1000
0100
1000
0100
0010
0000
0100
0010
0001
1000
0001
1000
0100
0000
0010
0001
,
1000
0100
1000
0100
0010
0000
0100
0010
0001
1000
0001
1000
0100
0000
0010
0001
,
1000
0010
1000
0010
0100
0000
0010
0100
0001
1000
0001
1000
0010
0000
0100
0001
,
1000
0010
1000
0010
0100
0000
0010
0100
0001
1000
0100
1000
0010
0000
0100
0001
,
1000
0010
1000
0010
0100
0000
0010
0100
0001
1000
0001
1000
0010
0000
0100
0001
,
1000
0010
1000
0010
0100
0000
0010
0100
0001
1000
0001
1000
0010
0000
0100
0001
,
1000
0100
1000
0100
0010
0000
0100
0010
0001
1000
0001
1000
0100
0000
0010
0001
,
1000
0100
1000
0100
0010
0000
0100
0010
0001
1000
0010
1000
0100
0000
0010
0001
,
1000
0100
1000
0100
0010
0000
0100
0010
0001
1000
0001
1000
0100
0000
0010
0001
,
1000
0100
1000
0100
0010
0000
0100
0010
0001
1000
0001
1000
0100
0000
0010
0001
,
1000
0010
1000
0010
0100
0000
0010
0100
0001
1000
0001
1000
0010
0000
0100
0001
,
1000
0010
1000
0010
0100
0000
0010
0100
0001
1000
0100
1000
0010
0000
0100
0001
,
1000
0010
1000
0010
0100
0000
0010
0100
0001
1000
0001
1000
0010
0000
0100
0001
,
1000
0010
1000
0010
0100
0000
0010
0100
0001
1000
0001
1000
0010
0000
0100
0001
,
0010
0100
0010
0100
1000
0000
0001
0100
0010
0100
0010
1000
0001
0000
1000
0001
,
0010
0100
0010
0100
1000
0000
0001
0100
0010
0100
0010
1000
0001
0000
1000
0001
,
0100
0010
0100
0010
1000
0000
0001
0010
0100
0010
0100
1000
0001
0000
1000
0001
,
0100
0010
0100
0010
1000
0000
0001
0010
0100
0010
0100
1000
0001
0000
1000
0001
,
0100
0010
1000
0010
0100
0000
0001
1000
0010
1000
0010
1000
0001
0000
1000
0001
,
0010
0100
1000
0100
0010
0000
0001
1000
0100
1000
0100
1000
0001
0000
1000
0001
,
0100
0010
1000
0010
0100
0000
0001
1000
0010
1000
0010
1000
0001
0000
1000
0001
,
0010
0100
1000
0100
0010
0000
0001
1000
0100
1000
0100
1000
0001
0000
1000
0001
,
0010
0100
0010
0100
1000
0000
0001
0100
0010
0100
0010
1000
0001
0000
1000
0001
,
0010
0100
0010
0100
1000
0000
0001
0100
0010
0100
0010
1000
0001
0000
1000
0001
,
0100
0010
0100
0010
1000
0000
0001
0010
0100
0010
0100
1000
0001
0000
1000
0001
,
0100
0010
0100
0010
1000
0000
0001
0010
0100
0010
0100
1000
0001
0000
1000
0001
,
0100
0010
1000
0010
0100
0000
0001
1000
0010
1000
0010
1000
0001
0000
1000
0001
,
0010
0100
1000
0100
0010
0000
0001
1000
0100
1000
0100
1000
0001
0000
1000
0001
,
1000
0100
1000
0100
0010
0000
0100
0010
0001
1000
0001
1000
0100
0000
0010
0001
,
1000
0010
1000
0010
0100
0000
0010
0100
0001
1000
0001
1000
0010
0000
0100
0001
,
0010
0100
0010
0100
1000
0000
0001
0100
0010
0100
0010
1000
0001
0000
1000
0001
,
0010
0100
0010
0100
1000
0000
0001
0100
0010
0100
0010
1000
0001
0000
1000
0001
,
0100
0010
0100
0010
1000
0000
0001
0010
0100
0010
0100
1000
0001
0000
1000
0001
,
0100
0010
0100
0010
1000
0000
0001
0010
0100
0010
0100
1000
0001
0000
1000
0001
,
0100
0010
1000
0010
0100
0000
0001
1000
0010
1000
0010
1000
0001
0000
1000
0001
,
0010
0100
1000
0100
0010
0000
0001
1000
0100
1000
0100
1000
0001
0000
1000
0001
,
0100
0010
1000
0010
0100
0000
0001
1000
0010
1000
0010
1000
0001
0000
1000
0001
,
0010
0100
1000
0100
0010
0000
0001
1000
0100
1000
0100
1000
0001
0000
1000
0001
,
0010
0100
0010
0100
1000
0000
0001
0100
0010
0100
0010
1000
0001
0000
1000
0001
,
0010
0100
0010
0100
1000
0000
0001
0100
0010
0100
0010
1000
0001
0000
1000
0001
,
0100
0010
0100
0010
1000
0000
0001
0010
0100
0010
0100
1000
0001
0000
1000
0001
,
0100
0010
0100
0010
1000
0000
0001
0010
0100
0010
0100
1000
0001
0000
1000
0001
,
0100
0010
1000
0010
0100
0000
0001
1000
0010
1000
0010
1000
0001
0000
1000
0001
,
0010
0100
1000
0100
0010
0000
0001
1000
0100
1000
0100
1000
0001
0000
1000
0001
,
1000
0100
1000
0100
0010
0000
0100
0010
0001
1000
0001
1000
0100
0000
0010
0001
,
1000
0000
0000
0000
1000
0000
0000
0000
0100
0010
0100
1000
0010
0100
0001
1000
,
0200
0000
0000
0000
,
0000
0000
0000
0000
,
0000
0000
0000
0000
,
000M
000M
000M
000M
000M
000M
000M
000M
000M
000M
000M
000M
000M
000M
000M
000M
,
000M
0000
0000
0000
,
0000
0300
MMMM
0000
0000
0000
0000
0000
,
0000
0000
0000
0000
,
00M0
00M0
00M0
0000
0M00
0M00
0M00
0000
M000
M000
M000
0000
00M0
0000
0M00
0M00
,
0M00
0M00
0M00
0M00
0M00
0M00
0M00
0M00
0M00
0M00
0M00
0000
0000
0000
0000
0000
,
0000
0000
0000
0000
,
000M
000M
000M
0000
0000
0M00
0M00
0M00
0000
00M0
00M0
00M0
0000
0000
0000
0000
,
0M00
0M00
0M00
0000
00M0
00M0
00M0
0000
000M
000M
000M
0000
0M00
0000
00M0
00M0
,
00M0
00M0
00M0
00M0
00M0
00M0
00M0
00M0
00M0
00M0
00M0
0000
0000
0000
0000
0000
,
0000
0000
0000
0000
,
00M0
00M0
00M0
0000
M000
0000
000M
000M
000M
0000
0M00
0M00
0M00
0000
00M0
0000
,
M000
M000
M000
0000
000M
0M00
0000
0000
0000
0000
000M
0M00
0000
0000
0000
0000
,
0000
0000
0000
0000
0000
0000
0000
0000
0000
0000
0000
0000
00M0
00M0
00M0
00M0
,
0004
0000
0000
0000
0000
0000
0000
0003
,
1000
0100
0000
0100
0010
0000
0001
0000
0000
0100
0010
0000
1000
0001
0100
0000
,
0004
0000
0000
0023
0000
0430
0000
0300
,
1000
0001
0000
0001
0000
0100
0000
0100
0010
1000
0001
0000
0010
0001
1000
0000
,
0004
0000
0000
0000
0000
0000
0000
0003
,
1000
0100
0000
0100
0010
0000
0001
0000
0000
0100
0010
0000
1000
0001
0100
0000
,
0004
0000
0000
0023
0000
0430
0000
0300
,
0020
0000
0032
0000
0003
0200
0320
0030
,
4000
0000
0000
0000
0000
0000
0000
3000
,
0001
0010
0000
0010
0100
0000
1000
0000
0000
0010
0100
0000
0001
1000
0010
0000
,
4000
0000
0000
3200
0000
0340
0000
0030
,
0001
1000
0000
1000
0000
0010
0000
0010
0100
0001
1000
0000
0100
1000
0001
0000
,
4000
0000
0000
0000
0000
0000
0000
3000
,
0001
0010
0000
0010
0100
0000
1000
0000
0000
0010
0100
0000
0001
1000
0010
0000
,
4000
0000
0000
3200
0000
0340
0000
0030
,
000M
000M
000M
0000
M000
M000
M000
0000
0M00
0M00
0M00
0000
0M00
0M00
0M00
0000
,
1000
0000
0001
0100
0000
0010
0100
0000
0001
1000
0000
0010
0100
0001
1000
0000
,
0001
0000
1000
0010
0000
0100
0010
0000
1000
0001
0000
0100
0010
1000
0001
1000
,
0100
0020
0000
0032
0000
0103
0020
0000
,
1030
0001
0000
0001
0000
0100
0000
0100
0010
1000
0001
0000
0010
0001
1000
0000
,
0001
0000
1000
0010
0000
0100
0010
0000
1000
0001
0000
0100
0010
1000
0010
1000
,
0001
0000
1000
0010
0000
0100
0010
0000
1000
0001
0000
0100
0010
1000
0010
1000
,
0004
0000
0000
0023
0000
0430
0000
0300
,
1000
0100
1000
0001
0100
0001
0010
0001
1000
0010
1000
0100
1000
0001
0100
0001
,
0010
0000
0100
0010
0000
0001
0010
0000
0100
1000
0000
0100
0010
0001
1000
0000
,
0001
0000
1000
0010
0000
0100
0010
0000
1000
0001
0000
0100
0010
1000
0001
1000
,
0100
0020
0000
0032
0000
0103
0020
0000
,
1030
0001
0000
0001
0000
0100
0000
0100
0010
1000
0001
0000
0010
0001
1000
0000
,
0001
0000
1000
0010
0000
0100
0010
0000
1000
0001
0000
0100
0010
1000
0001
0000
,
1000
0000
0001
0100
0000
0010
0100
0000
0001
1000
0000
0010
0100
0001
1000
0000
,
0100
0020
0000
0032
0000
0103
0020
0000
,
1030
0001
0000
0001
0000
0100
0000
0100
0010
1000
0001
0000
0010
0001
1000
0000
,
0004
0000
0000
0000
0000
0000
0000
0003
,
1000
0100
0010
0000
0001
0100
0010
0000
1000
0100
0010
0000
0001
0100
0010
0000
,
4000
0000
0000
3200
0000
0340
0000
0030
,
0001
0010
0100
0000
1000
0010
0100
0000
0001
0010
0100
0000
1000
0010
0100
0000
,
0004
0000
0000
0000
0000
0000
0000
0003
,
1000
0100
0000
0100
0010
0000
0001
0000
0000
0100
0010
0000
1000
0001
0100
0000
,
0004
0000
0000
0023
0000
0430
0000
0300
,
2000
0000
3002
0000
0003
0100
0020
0000
,
4030
0000
0000
0000
0000
0000
0000
3000
,
0001
0010
0000
0010
0100
0000
1000
0000
0000
0010
0100
0000
0001
1000
0010
0000
,
4000
0000
0000
3200
0000
0340
0000
0030
,
0001
1000
0000
1000
0000
0010
0000
0010
0100
0001
1000
0000
0100
1000
0001
0000
,
4000
0000
0000
0000
0000
0000
0000
3000
,
0001
0010
0000
0010
0100
0000
1000
0000
0000
0010
0100
0000
0001
1000
0010
0000
,
4000
0000
0000
3200
0000
0340
0000
0030
,
M000
M000
M000
0000
000M
000M
000M
0000
00M0
00M0
00M0
0000
00M0
00M0
00M0
0000
,
0001
1000
0000
1000
0000
0010
0000
0100
0000
0001
0000
0100
0001
1000
0001
0000
,
0020
0000
0130
1000
0002
0000
0023
0000
,
0030
0000
0001
1000
0000
0010
0000
0100
0000
0001
0000
0010
0100
1000
0001
0000
,
2000
0000
0000
0000
3001
0010
0001
0100
,
0001
1000
0000
1000
0000
0010
0000
0100
0000
0001
0000
0100
0001
1000
0001
0000
,
0020
0000
0130
1000
0002
0000
0023
0000
,
0031
0100
0001
1000
0010
1000
0001
0100
0001
1000
0100
1000
0010
1000
0001
1000
,
0001
0100
0010
0100
0010
0100
0001
1000
0010
0100
0010
1000
0001
0100
0001
1000
,
00M0
00M0
00M0
0000
0M00
0M00
0M00
0000
0000
0000
000M
000M
000M
0000
0000
0000
,
1000
0010
1000
0001
1000
0100
1000
0001
1000
0010
0100
0000
0001
0010
0100
0000
,
1000
0010
0100
0000
0001
0010
0100
0000
1000
0010
0100
0000
0001
0010
0100
0000
,
1000
0001
0000
0001
0000
0100
0000
0100
0010
1000
0001
0000
0010
0001
1000
0000
,
0001
0010
0100
0000
1000
0010
0100
0000
0001
0010
0100
0000
1000
0010
0100
0000
,
0001
0100
0010
0000
1000
0100
0010
0000
0001
0100
0010
0000
1000
0100
0010
0000
,
0001
0100
0010
0000
1000
0100
0010
0000
0001
0100
0010
0000
1000
0100
0010
0000
,
0001
0010
0001
1000
0010
1000
0100
1000
0001
0100
0001
0010
0001
1000
0010
1000
,
0200
0000
0000
0000
0310
0000
0000
0100
0010
0001
1000
0000
0100
0010
0001
1000
,
0010
0000
0000
0100
0010
0000
0100
0010
1000
0001
1000
0000
0001
1000
0001
0010
,
0100
0000
0000
0010
0100
0000
0010
0100
1000
0001
1000
0000
0001
1000
0001
0100
,
0010
0000
0000
0000
0100
0000
0010
0100
0001
0010
0001
1000
0010
1000
0001
0100
,
0010
0000
0000
1000
0001
0000
0100
0001
1000
0001
0100
0000
0010
0100
0001
0100
,
0000
0000
0000
0001
1000
0000
0100
1000
0001
1000
0100
0000
0010
0100
1000
0100
,
0000
0000
0000
1000
0001
0000
0010
0001
1000
0001
0010
0000
0100
0010
0001
0010
,
0000
0000
0000
0001
1000
0000
0010
1000
0001
1000
0010
0100
0010
1000
0100
0010
,
0000
0000
0000
0100
1000
0000
0001
1000
0100
1000
0001
0000
0010
0001
1000
0001
,
0000
0000
0000
0100
0001
0000
1000
0001
0100
0001
1000
0000
0010
1000
0001
1000
,
0000
0000
0000
0010
1000
0000
0001
1000
0010
1000
0001
0000
0100
0001
1000
0001
,
0000
0000
0000
0010
0001
0000
1000
0001
0010
0001
1000
0000
0100
1000
0001
1000
,
0000
0000
0000
0001
0010
0000
0100
1000
0001
1000
0100
0000
1000
0001
0010
0001
,
0000
0000
0000
1000
0010
0000
0100
0001
1000
0001
0100
0000
0001
0010
0001
1000
,
0000
0000
0000
0001
0010
0000
0100
1000
0001
1000
0100
0000
1000
0001
0010
0001
,
0000
0000
0000
1000
0010
0000
0100
0001
1000
0001
0100
0000
0001
0010
0001
1000
,
0200
0000
0000
0000
,
0000
0000
0000
0000
,
0000
0000
0000
0000
0000
0000
0000
0000
0000
0000
000M
000M
000M
000M
000M
000M
,
000M
000M
000M
000M
000M
000M
000M
000M
000M
000M
000M
000M
000M
000M
000M
000M
,
000M
0000
0000
0000
,
0000
0300
0000
0000
0000
0000
0000
0000
,
0000
0000
0000
0000
,
0M00
0M00
0M00
0000
00M0
00M0
00M0
0000
000M
000M
000M
0000
0M00
0000
00M0
00M0
,
00M0
00M0
00M0
00M0
00M0
00M0
00M0
00M0
00M0
00M0
00M0
0000
0000
0000
0000
0000
,
0000
0000
0000
0000
,
M000
M000
M000
0000
0000
00M0
00M0
00M0
0000
0M00
0M00
0M00
0000
0000
0000
0000
,
00M0
00M0
00M0
0000
0M00
0M00
0M00
0000
M000
M000
M000
0000
00M0
0000
0M00
0M00
,
0M00
0M00
0M00
0M00
0M00
0M00
0M00
0M00
0M00
0M00
0M00
0000
0000
0000
0000
0000
,
0000
0000
0000
0000
,
0M00
0M00
0M00
0000
000M
0000
M000
M000
M000
0000
00M0
00M0
00M0
0000
0M00
0000
,
000M
000M
000M
0000
M000
00M0
0000
0000
0000
0000
M000
00M0
0000
0000
0000
0000
,
0001
0000
0000
0000
0001
0000
0000
0000
0001
0000
0000
0000
0M00
0M00
0M00
0M00
,
4000
0000
0000
0000
0000
0000
0000
3000
,
0001
0010
0000
0010
0100
0000
1000
0000
0000
0010
0100
0000
0001
1000
0010
0000
,
4000
0000
0000
3200
0000
0340
0000
0030
,
0001
1000
0000
1000
0000
0010
0000
0010
0100
0001
1000
0000
0100
1000
0001
0000
,
4000
0000
0000
0000
0000
0000
0000
3000
,
0001
0010
0000
0010
0100
0000
1000
0000
0000
0010
0100
0000
0001
1000
0010
0000
,
4000
0000
0000
3200
0000
0340
0000
0030
,
0200
0000
2300
0000
3000
0020
0230
0300
,
0004
0000
0000
0000
0000
0000
0000
0003
,
1000
0100
0000
0100
0010
0000
0001
0000
0000
0100
0010
0000
1000
0001
0100
0000
,
0004
0000
0000
0023
0000
0430
0000
0300
,
1000
0001
0000
0001
0000
0100
0000
0100
0010
1000
0001
0000
0010
0001
1000
0000
,
0004
0000
0000
0000
0000
0000
0000
0003
,
1000
0100
0000
0100
0010
0000
0001
0000
0000
0100
0010
0000
1000
0001
0100
0000
,
0004
0000
0000
0023
0000
0430
0000
0300
,
M000
M000
M000
0000
000M
000M
000M
0000
00M0
00M0
00M0
0000
00M0
00M0
00M0
0000
,
0001
0000
1000
0010
0000
0100
0010
0000
1000
0001
0000
0100
0010
1000
0001
0000
,
1000
0000
0001
0100
0000
0010
0100
0000
0001
1000
0000
0010
0100
0001
1000
0001
,
0010
0200
0000
2300
0000
3010
0200
0000
,
0301
1000
0000
1000
0000
0010
0000
0010
0100
0001
1000
0000
0100
1000
0001
0000
,
1000
0000
0001
0100
0000
0010
0100
0000
0001
1000
0000
0010
0100
0001
0100
0001
,
1000
0000
0001
0100
0000
0010
0100
0000
0001
1000
0000
0010
0100
0001
0100
0001
,
4000
0000
0000
3200
0000
0340
0000
0030
,
0001
0010
0001
1000
0010
1000
0100
1000
0001
0100
0001
0010
0001
1000
0010
1000
,
0100
0000
0010
0100
0000
1000
0100
0000
0010
0001
0000
0010
0100
1000
0001
0000
,
1000
0000
0001
0100
0000
0010
0100
0000
0001
1000
0000
0010
0100
0001
1000
0001
,
0010
0200
0000
2300
0000
3010
0200
0000
,
0301
1000
0000
1000
0000
0010
0000
0010
0100
0001
1000
0000
0100
1000
0001
0000
,
1000
0000
0001
0100
0000
0010
0100
0000
0001
1000
0000
0010
0100
0001
1000
0000
,
0001
0000
1000
0010
0000
0100
0010
0000
1000
0001
0000
0100
0010
1000
0001
0000
,
0010
0200
0000
2300
0000
3010
0200
0000
,
0301
1000
0000
1000
0000
0010
0000
0010
0100
0001
1000
0000
0100
1000
0001
0000
,
4000
0000
0000
0000
0000
0000
0000
3000
,
0001
1000
0010
0100
0001
0000
0100
0010
1000
0001
0010
0100
1000
0000
0100
0010
,
0004
0000
0000
0023
0000
0430
0000
0300
,
1000
0001
0100
0010
1000
0000
0010
0100
0001
1000
0100
0010
0001
0000
0010
0100
,
4000
0000
0000
0000
0000
0000
0000
3000
,
0001
0010
0000
0010
0100
0000
1000
0000
0000
0010
0100
0000
0001
1000
0010
0000
,
4000
0000
0000
3200
0000
0340
0000
0030
,
0002
0000
2003
0000
3000
0010
0200
0000
,
0304
0000
0000
0000
0000
0000
0000
0003
,
1000
0100
0000
0100
0010
0000
0001
0000
0000
0100
0010
0000
1000
0001
0100
0000
,
0004
0000
0000
0023
0000
0430
0000
0300
,
1000
0001
0000
0001
0000
0100
0000
0100
0010
1000
0001
0000
0010
0001
1000
0000
,
0004
0000
0000
0000
0000
0000
0000
0003
,
1000
0100
0000
0100
0010
0000
0001
0000
0000
0100
0010
0000
1000
0001
0100
0000
,
0004
0000
0000
0023
0000
0430
0000
0300
,
000M
000M
000M
0000
M000
M000
M000
0000
0M00
0M00
0M00
0000
0M00
0M00
0M00
0000
,
1000
0001
0000
0001
0000
0100
0000
0010
0000
1000
0000
0010
1000
0001
1000
0000
,
0200
0000
0310
0001
2000
0000
3200
0000
,
0300
0000
1000
0001
0000
0100
0000
0010
0000
1000
0000
0100
0010
0001
1000
0000
,
0002
0000
0000
0000
1003
0100
1000
0010
,
1000
0001
0000
0001
0000
0100
0000
0010
0000
1000
0000
0010
1000
0001
1000
0000
,
0200
0000
0310
0001
2000
0000
3200
0000
,
1300
0010
1000
0001
0100
0001
1000
0010
1000
0001
0010
0001
0100
0001
1000
0001
,
1000
0010
0100
0010
0100
0010
1000
0001
0100
0010
0100
0001
1000
0010
1000
0001
,
0200
0000
0320
0000
0000
2030
0000
3000
,
0001
0100
0100
0010
0010
1000
1000
0001
,
0100
0010
0010
0100
0100
0001
0001
0100
,
0001
1000
0000
1000
0000
0010
0000
0010
0100
0001
1000
0000
0100
1000
0001
0000
,
1000
0010
0010
0100
0100
0001
0001
1000
,
0010
0100
0100
0010
0010
1000
1000
0001
,
0100
0010
0010
0100
0100
0001
0001
0100
,
0001
0010
0001
1000
0010
1000
0100
1000
0001
0100
0001
0010
0001
1000
0010
1000
,
0001
0010
0001
0010
0100
0000
0010
0100
1000
0001
1000
0001
0010
0000
0100
1000
,
0001
0010
0001
0010
0100
0000
0010
0100
1000
0001
0100
0001
0010
0000
0100
1000
,
0001
0010
0001
0010
0100
0000
0010
0100
1000
0001
1000
0001
0010
0000
0100
1000
,
0001
0010
0001
0010
0100
0000
0010
0100
1000
0001
1000
0001
0010
0000
0100
1000
,
0001
0100
0001
0100
0010
0000
0100
0010
1000
0001
1000
0001
0100
0000
0010
1000
,
0001
0100
0001
0100
0010
0000
0100
0010
1000
0001
0010
0001
0100
0000
0010
1000
,
0001
0100
0001
0100
0010
0000
0100
0010
1000
0001
1000
0001
0100
0000
0010
1000
,
0001
0100
0001
0100
0010
0000
0100
0010
1000
0001
1000
0001
0100
0000
0010
1000
,
0001
0010
0001
0010
0100
0000
0010
0100
1000
0001
1000
0001
0010
0000
0100
1000
,
0001
0010
0001
0010
0100
0000
0010
0100
1000
0001
0100
0001
0010
0000
0100
1000
,
0001
0010
0001
0010
0100
0000
0010
0100
1000
0001
1000
0001
0010
0000
0100
1000
,
0001
0010
0001
0010
0100
0000
0010
0100
1000
0001
1000
0001
0010
0000
0100
1000
,
0001
0100
0001
0100
0010
0000
0100
0010
1000
0001
1000
0001
0100
0000
0010
1000
,
0001
0100
0001
0100
0010
0000
0100
0010
1000
0001
0010
0001
0100
0000
0010
1000
,
0001
0100
0001
0100
0010
0000
0100
0010
1000
0001
1000
0001
0100
0000
0010
1000
,
0001
0100
0001
0100
0010
0000
0100
0010
1000
0001
1000
0001
0100
0000
0010
1000
,
0200
0000
0000
0000
,
0300
0000
0000
0000
;

//---------------dance-single - I. Pyles----------------
#NOTES:
     dance-single:
     I. Pyles:
     Hard:
     15:
     1.000,1.000,0.025,0.098,1.000,2917.000,9.000,36.000,255.000,0.000:
0000
0000
0000
0000
,
0000
0000
0000
0000
,
1000
0100
1000
0001
0010
0001
0100
0001
1000
0100
1000
0001
0010
0001
0100
0001
,
1000
0100
1000
0001
0010
0001
0100
0001
1000
0100
1000
0010
0100
0010
0100
0001
,
1000
0100
1000
0001
0010
0001
0100
0001
1000
0100
1000
0001
0010
0001
0100
0001
,
1000
0100
1000
0001
0010
0001
0100
0001
1000
0100
1000
0001
0010
0001
0100
0001
,
1000
0010
1000
0001
0100
0001
0010
0001
1000
0010
1000
0001
0100
0001
0010
0001
,
1000
0010
1000
0001
0100
0001
0010
0001
1000
0010
1000
0100
0010
0100
0010
0001
,
1000
0010
1000
0001
0100
0001
0010
0001
1000
0010
1000
0001
0100
0001
0010
0001
,
1000
0010
1000
0001
0100
0001
0010
0001
1000
0010
1000
0001
0100
0001
0010
0001
,
1000
0100
1000
0010
0100
0010
1000
0001
1000
0100
1000
0010
0100
0010
1000
0001
,
1000
0100
1000
0010
0100
0010
1000
0001
1000
0100
1000
0001
0100
0001
0100
0010
,
1000
0100
1000
0010
0100
0010
1000
0001
1000
0100
1000
0010
0100
0010
1000
0001
,
1000
0100
1000
0010
0100
0010
1000
0001
1000
0100
1000
0010
0100
0010
1000
0001
,
1000
0010
1000
0100
0010
0100
1000
0001
1000
0010
1000
0100
0010
0100
1000
0001
,
1000
0010
1000
0100
0010
0100
1000
0001
1000
0010
1000
0001
0010
0001
0010
0100
,
1000
0010
1000
0100
0010
0100
1000
0001
1000
0010
1000
0100
0010
0100
1000
0001
,
1000
0010
1000
0100
0010
0100
1000
0001
1000
0010
1000
0100
0010
0100
1000
0001
,
0100
0010
1000
0001
0100
0010
0100
0001
0010
0100
1000
0001
0100
0001
1000
0001
,
0010
0100
1000
0001
0010
0100
0010
0001
0100
0010
1000
0001
0010
0001
1000
0001
,
0010
0100
1000
0001
0010
0100
0010
0001
0100
0010
1000
0001
0010
0001
1000
0001
,
0010
0100
1000
0001
0010
0100
0010
0001
0100
0010
1000
0001
0010
0001
1000
0001
,
0100
0010
1000
0001
0100
0010
0100
0001
0010
0100
1000
0001
0100
0001
1000
0001
,
0010
0100
1000
0001
0010
0100
0010
0001
0100
0010
1000
0001
0010
0001
1000
0001
,
0100
0010
1000
0001
0100
0010
0100
0001
0010
0100
1000
0001
0100
0001
1000
0001
,
0010
0100
1000
0001
0010
0100
0010
0001
0100
0010
1000
0001
0010
0001
1000
0001
,
0100
0010
1000
0001
0100
0010
0100
0001
0010
0100
1000
0001
0100
0001
1000
0001
,
0100
0010
1000
0001
0100
0010
0100
0001
0010
0100
1000
0001
0100
0001
1000
0001
,
0100
0010
1000
0001
0100
0010
0100
0001
0010
0100
1000
0001
0100
0001
1000
0001
,
0010
0100
1000
0001
0010
0100
0010
0001
0100
0010
1000
0001
0010
0001
1000
0001
,
0100
0010
1000
0001
0100
0010
0100
0001
0010
0100
1000
0001
0100
0001
1000
0001
,
0010
0100
1000
0001
0010
0100
0010
0001
0100
0010
1000
0001
0010
0001
1000
0001
,
0100
0010
1000
0001
0100
0010
0100
0001
0010
0100
1000
0001
0100
0001
1000
0001
,
0010
0100
1000
0001
0010
0100
0010
0001
0100
0010
1000
0001
0010
0001
1000
0001
,
0100
0001
1000
0001
0010
0001
1000
0010
1000
0001
0100
0001
0010
0100
1000
0001
,
0100
0001
1000
0001
0010
0001
1000
0010
1000
0001
0100
0001
0010
0100
1000
0001
,
0100
0001
1000
0001
0010
0001
1000
0010
1000
0001
0100
0001
0010
0100
1000
0001
,
0100
0001
1000
0001
0010
0001
1000
0010
1000
0001
0100
0001
0010
0100
1000
0001
,
0100
0010
1000
0001
0010
0100
1000
0100
1000
0001
0100
0001
0010
0001
1000
0001
,
0100
0010
1000
0001
0010
0100
1000
0010
0100
0001
0100
0010
1000
0001
0010
0100
,
0010
0001
0010
0100
0010
0001
0010
0100
1000
0001
1000
0100
0010
0001
1000
0001
,
1000
0010
0100
0001
1000
0001
0010
0001
0100
0010
1000
0001
0100
0001
1000
0001
,
0100
0001
1000
0001
0010
0001
1000
0010
1000
0001
0100
0001
0010
0100
1000
0001
,
0100
0001
1000
0001
0010
0001
1000
0010
1000
0001
0100
0001
0010
0100
1000
0001
,
0100
0001
1000
0001
0010
0001
1000
0010
1000
0001
0100
0001
0010
0100
1000
0001
,
0100
0001
1000
0001
0010
0001
1000
0010
1000
0001
0100
0001
0010
0100
1000
0001
,
0100
0010
1000
0001
0010
0100
1000
0100
1000
0001
0100
0001
0010
0001
1000
0001
,
0100
0010
1000
0001
0010
0100
1000
0010
0100
0001
0100
0010
1000
0001
0010
0001
,
0100
0010
1000
0001
0100
0010
0100
0001
0010
0100
1000
0001
0100
0001
1000
0001
,
0100
0010
1000
0001
0100
0010
0100
0001
0010
0100
1000
0001
0100
0001
1000
0001
,
0010
0001
1000
0001
0100
0001
1000
0100
1000
0001
0010
0001
0100
0010
1000
0001
,
0010
0001
1000
0001
0100
0001
1000
0100
1000
0001
0010
0001
0100
0010
1000
0001
,
0010
0001
1000
0001
0100
0001
1000
0100
1000
0001
0010
0001
0100
0010
1000
0001
,
0010
0001
1000
0001
0100
0001
1000
0100
1000
0001
0010
0001
0100
0010
1000
0001
,
0010
0100
1000
0001
0100
0010
1000
0010
1000
0001
0010
0001
0100
0001
1000
0001
,
0010
0100
1000
0001
0100
0010
1000
0100
0010
0001
0010
0100
1000
0001
0100
0010
,
0100
0001
0100
0010
0100
0001
0100
0010
1000
0001
1000
0010
0100
0001
1000
0001
,
1000
0100
0010
0001
1000
0001
0100
0001
0010
0100
1000
0001
0010
0001
1000
0001
,
0010
0001
1000
0001
0100
0001
1000
0100
1000
0001
0010
0001
0100
0010
1000
0001
,
0010
0001
1000
0001
0100
0001
1000
0100
1000
0001
0010
0001
0100
0010
1000
0001
,
0010
0001
1000
0001
0100
0001
1000
0100
1000
0001
0010
0001
0100
0010
1000
0001
,
0010
0001
1000
0001
0100
0001
1000
0100
1000
0001
0010
0001
0100
0010
1000
0001
,
0010
0100
1000
0001
0100
0010
1000
0010
1000
0001
0010
0001
0100
0001
1000
0001
,
0010
0100
1000
0001
0100
0010
1000
0100
0010
0001
0010
0100
1000
0001
0100
0001
,
0010
0100
1000
0001
0010
0100
0010
0001
0100
0010
1000
0001
0010
0001
1000
0001
,
0010
0100
1000
0100
0010
0100
1000
0010
0100
0010
1000
0100
0010
0001
1000
0001
,
0200
0000
0000
0000
,
0000
0000
0000
0000
,
0000
0000
0000
0000
,
000M
000M
000M
000M
000M
000M
000M
000M
000M
000M
000M
000M
000M
000M
000M
000M
,
000M
0000
0000
0000
,
0000
0300
MMMM
0000
0000
0000
0000
0000
,
0000
0000
0000
0000
,
00M0
00M0
00M0
0000
0M00
0M00
0M00
0000
M000
M000
M000
0000
00M0
0000
0M00
0M00
,
0M00
0M00
0M00
0M00
0M00
0M00
0M00
0M00
0M00
0M00
0M00
0000
0000
0000
0000
0000
,
0000
0000
0000
0000
,
000M
000M
000M
0000
0000
0M00
0M00
0M00
0000
00M0
00M0
00M0
0000
0000
0000
0000
,
0M00
0M00
0M00
0000
00M0
00M0
00M0
0000
000M
000M
000M
0000
0M00
0000
00M0
00M0
,
00M0
00M0
00M0
00M0
00M0
00M0
00M0
00M0
00M0
00M0
00M0
0000
0000
0000
0000
0000
,
0000
0000
0000
0000
,
00M0
00M0
00M0
0000
M000
0000
000M
000M
000M
0000
0M00
0M00
0M00
0000
00M0
0000
,
M000
M000
M000
0000
000M
0M00
0000
0000
0000
0000
000M
0M00
0000
0000
0000
0000
,
0000
0000
0000
0000
0000
0000
0000
0000
0000
0000
0000
0000
00M0
00M0
00M0
00M0
,
0004
0000
0000
0000
0000
0000
0000
0003
,
1000
0100
0000
0100
0010
0000
0001
0000
0000
0100
0010
0000
1000
0001
0100
0000
,
0004
0000
0000
0023
0000
0430
0000
0300
,
1000
0001
0000
0001
0000
0100
0000
0100
0010
1000
0001
0000
0010
0001
1000
0000
,
0004
0000
0000
0000
0000
0000
0000
0003
,
1000
0100
0000
0100
0010
0000
0001
0000
0000
0100
0010
0000
1000
0001
0100
0000
,
0004
0000
0000
0023
0000
0430
0000
0300
,
0020
0000
0032
0000
0003
0200
0320
0030
,
4000
0000
0000
0000
0000
0000
0000
3000
,
0001
0010
0000
0010
0100
0000
1000
0000
0000
0010
0100
0000
0001
1000
0010
0000
,
4000
0000
0000
3200
0000
0340
0000
0030
,
0001
1000
0000
1000
0000
0010
0000
0010
0100
0001
1000
0000
0100
1000
0001
0000
,
4000
0000
0000
0000
0000
0000
0000
3000
,
0001
0010
0000
0010
0100
0000
1000
0000
0000
0010
0100
0000
0001
1000
0010
0000
,
4000
0000
0000
3200
0000
0340
0000
0030
,
000M
000M
000M
0000
M000
M000
M000
0000
0M00
0M00
0M00
0000
0M00
0M00
0M00
0000
,
1000
0000
0001
0100
0000
0010
0100
0000
0001
1000
0000
0010
0100
0001
1000
0000
,
0001
0000
1000
0010
0000
0100
0010
0000
1000
0001
0000
0100
0010
1000
0001
1000
,
0100
0020
0000
0032
0000
0103
0020
0000
,
1030
0001
0000
0001
0000
0100
0000
0100
0010
1000
0001
0000
0010
0001
1000
0000
,
0001
0000
1000
0010
0000
0100
0010
0000
1000
0001
0000
0100
0010
1000
0010
1000
,
0001
0000
1000
0010
0000
0100
0010
0000
1000
0001
0000
0100
0010
1000
0010
1000
,
0004
0000
0000
0023
0000
0430
0000
0300
,
1000
0100
1000
0001
0100
0001
0010
0001
1000
0010
1000
0100
1000
0001
0100
0001
,
0010
0000
0100
0010
0000
0001
0010
0000
0100
1000
0000
0100
0010
0001
1000
0000
,
0001
0000
1000
0010
0000
0100
0010
0000
1000
0001
0000
0100
0010
1000
0001
1000
,
0100
0020
0000
0032
0000
0103
0020
0000
,
1030
0001
0000
0001
0000
0100
0000
0100
0010
1000
0001
0000
0010
0001
1000
0000
,
0001
0000
1000
0010
0000
0100
0010
0000
1000
0001
0000
0100
0010
1000
0001
0000
,
1000
0000
0001
0100
0000
0010
0100
0000
0001
1000
0000
0010
0100
0001
1000
0000
,
0100
0020
0000
0032
0000
0103
0020
0000
,
1030
0001
0000
0001
0000
0100
0000
0100
0010
1000
0001
0000
0010
0001
1000
0000
,
0004
0000
0000
0000
0000
0000
0000
0003
,
1000
0100
0010
0000
0001
0100
0010
0000
1000
0100
0010
0000
0001
0100
0010
0000
,
4000
0000
0000
3200
0000
0340
0000
0030
,
0001
0010
0100
0000
1000
0010
0100
0000
0001
0010
0100
0000
1000
0010
0100
0000
,
0004
0000
0000
0000
0000
0000
0000
0003
,
1000
0100
0000
0100
0010
0000
0001
0000
0000
0100
0010
0000
1000
0001
0100
0000
,
0004
0000
0000
0023
0000
0430
0000
0300
,
2000
0000
3002
0000
0003
0100
0020
0000
,
4030
0000
0000
0000
0000
0000
0000
3000
,
0001
0010
0000
0010
0100
0000
1000
0000
0000
0010
0100
0000
0001
1000
0010
0000
,
4000
0000
0000
3200
0000
0340
0000
0030
,
0001
1000
0000
1000
0000
0010
0000
0010
0100
0001
1000
0000
0100
1000
0001
0000
,
4000
0000
0000
0000
0000
0000
0000
3000
,
0001
0010
0000
0010
0100
0000
1000
0000
0000
0010
0100
0000
0001
1000
0010
0000
,
4000
0000
0000
3200
0000
0340
0000
0030
,
M000
M000
M000
0000
000M
000M
000M
0000
00M0
00M0
00M0
0000
00M0
00M0
00M0
0000
,
0001
1000
0000
1000
0000
0010
0000
0100
0000
0001
0000
0100
0001
1000
0001
0000
,
0020
0000
0130
1000
0002
0000
0023
0000
,
0030
0000
0001
1000
0000
0010
0000
0100
0000
0001
0000
0010
0100
1000
0001
0000
,
2000
0000
0000
0000
3001
0010
0001
0100
,
0001
1000
0000
1000
0000
0010
0000
0100
0000
0001
0000
0100
0001
1000
0001
0000
,
0020
0000
0130
1000
0002
0000
0023
0000
,
0031
0100
0001
1000
0010
1000
0001
0100
0001
1000
0100
1000
0010
1000
0001
1000
,
0001
0100
0010
0100
0010
0100
0001
1000
0010
0100
0010
1000
0001
0100
0001
1000
,
00M0
00M0
00M0
0000
0M00
0M00
0M00
0000
0000
0000
000M
000M
000M
0000
0000
0000
,
1000
0010
1000
0001
1000
0100
1000
0001
1000
0010
0100
0000
0001
0010
0100
0000
,
1000
0010
0100
0000
0001
0010
0100
0000
1000
0010
0100
0000
0001
0010
0100
0000
,
1000
0001
0000
0001
0000
0100
0000
0100
0010
1000
0001
0000
0010
0001
1000
0000
,
0001
0010
0100
0000
1000
0010
0100
0000
0001
0010
0100
0000
1000
0010
0100
0000
,
0001
0100
0010
0000
1000
0100
0010
0000
0001
0100
0010
0000
1000
0100
0010
0000
,
0001
0100
0010
0000
1000
0100
0010
0000
0001
0100
0010
0000
1000
0100
0010
0000
,
0001
0010
0001
1000
0010
1000
0100
1000
0001
0100
0001
0010
0001
1000
0010
1000
,
0200
0000
0000
0000
0310
0000
0000
0100
0010
0001
1000
0000
0100
0010
0001
1000
,
0010
0000
0000
0100
0010
0000
0100
0010
1000
0001
1000
0000
0001
1000
0001
0010
,
0100
0000
0000
0010
0100
0000
0010
0100
1000
0001
1000
0000
0001
1000
0001
0100
,
0010
0000
0000
0000
0100
0000
0010
0100
0001
0010
0001
1000
0010
1000
0001
0100
,
0010
0000
0000
1000
0001
0000
0100
0001
1000
0001
0100
0000
0010
0100
0001
0100
,
0000
0000
0000
0001
1000
0000
0100
1000
0001
1000
0100
0000
0010
0100
1000
0100
,
0000
0000
0000
1000
0001
0000
0010
0001
1000
0001
0010
0000
0100
0010
0001
0010
,
0000
0000
0000
0001
1000
0000
0010
1000
0001
1000
0010
0100
0010
1000
0100
0010
,
0000
0000
0000
0100
1000
0000
0001
1000
0100
1000
0001
0000
0010
0001
1000
0001
,
0000
0000
0000
0100
0001
0000
1000
0001
0100
0001
1000
0000
0010
1000
0001
1000
,
0000
0000
0000
0010
1000
0000
0001
1000
0010
1000
0001
0000
0100
0001
1000
0001
,
0000
0000
0000
0010
0001
0000
1000
0001
0010
0001
1000
0000
0100
1000
0001
1000
,
0000
0000
0000
0001
0010
0000
0100
1000
0001
1000
0100
0000
1000
0001
0010
0001
,
0000
0000
0000
1000
0010
0000
0100
0001
1000
0001
0100
0000
0001
0010
0001
1000
,
0000
0000
0000
0001
0010
0000
0100
1000
0001
1000
0100
0000
1000
0001
0010
0001
,
0000
0000
0000
1000
0010
0000
0100
0001
1000
0001
0100
0000
0001
0010
0001
1000
,
0200
0000
0000
0000
,
0000
0000
0000
0000
,
0000
0000
0000
0000
0000
0000
0000
0000
0000
0000
000M
000M
000M
000M
000M
000M
,
000M
000M
000M
000M
000M
000M
000M
000M
000M
000M
000M
000M
000M
000M
000M
000M
,
000M
0000
0000
0000
,
0000
0300
0000
0000
0000
0000
0000
0000
,
0000
0000
0000
0000
,
0M00
0M00
0M00
0000
00M0
00M0
00M0
0000
000M
000M
000M
0000
0M00
0000
00M0
00M0
,
00M0
00M0
00M0
00M0
00M0
00M0
00M0
00M0
00M0
00M0
00M0
0000
0000
0000
0000
0000
,
0000
0000
0000
0000
,
M000
M000
M000
0000
0000
00M0
00M0
00M0
0000
0M00
0M00
0M00
0000
0000
0000
0000
,
00M0
00M0
00M0
0000
0M00
0M00
0M00
0000
M000
M000
M000
0000
00M0
0000
0M00
0M00
,
0M00
0M00
0M00
0M00
0M00
0M00
0M00
0M00
0M00
0M00
0M00
0000
0000
0000
0000
0000
,
0000
0000
0000
0000
,
0M00
0M00
0M00
0000
000M
0000
M000
M000
M000
0000
00M0
00M0
00M0
0000
0M00
0000
,
000M
000M
000M
0000
M000
00M0
0000
0000
0000
0000
M000
00M0
0000
0000
0000
0000
,
0001
0000
0000
0000
0001
0000
0000
0000
0001
0000
0000
0000
0M00
0M00
0M00
0M00
,
1000
0001
0010
0001
0100
0010
1000
0100
1000
0001
1000
0010
1000
0001
0010
0001
,
1000
0100
1000
0001
0100
0001
1000
0100
1000
0001
0100
0001
1000
0100
0010
0001
,
1000
0010
0100
0010
0100
0010
1000
0001
0010
0100
0010
0001
1000
0010
0100
0001
,
1000
0010
1000
0001
0010
0001
1000
0001
0100
0001
1000
0010
1000
0100
0010
0001
,
1000
0001
0010
0001
0100
0010
1000
0100
1000
0001
1000
0010
1000
0001
0010
0001
,
1000
0100
1000
0001
0100
0001
1000
0100
1000
0001
0100
0001
1000
0100
0010
0001
,
1000
0010
0100
0010
0100
0010
1000
0001
0010
0100
0010
0001
1000
0010
0100
0001
,
1000
0100
0010
0100
1000
0010
0100
0001
0100
0010
1000
0100
0010
0100
1000
0001
,
1000
0001
0010
0001
0100
0010
1000
0100
1000
0001
1000
0010
1000
0001
0010
0001
,
1000
0100
1000
0001
0100
0001
1000
0100
1000
0001
0100
0001
1000
0100
0010
0001
,
1000
0010
0100
0010
0100
0010
1000
0001
0010
0100
0010
0001
1000
0010
0100
0001
,
1000
0010
1000
0001
0010
0001
1000
0001
0100
0001
1000
0010
1000
0100
0010
0001
,
1000
0001
0010
0001
0100
0010
1000
0100
1000
0001
1000
0010
1000
0001
0010
0001
,
1000
0100
1000
0001
0100
0001
1000
0100
1000
0001
0100
0001
1000
0100
0010
0001
,
1000
0010
0100
0010
0100
0010
1000
0001
0010
0100
0010
0001
1000
0010
0100
0001
,
M000
M000
M000
0000
000M
000M
000M
0000
00M0
00M0
00M0
0000
00M0
00M0
00M0
0000
,
0001
1000
0100
0010
0100
1000
0001
0100
0010
0100
0001
1000
0100
0010
0001
1000
,
0001
1000
0100
0010
0100
1000
0001
0100
0010
0100
0001
1000
0100
0010
0001
1000
,
0001
0010
0100
1000
0100
1000
0010
0100
0010
0100
0001
1000
0100
0010
0001
1000
,
0001
0010
0001
1000
0010
1000
0001
1000
0100
1000
0001
0010
0001
0100
0010
1000
,
0001
1000
0100
0010
0100
1000
0001
0100
0010
0100
0001
1000
0010
0100
0010
1000
,
0001
1000
0100
0010
0100
1000
0001
0100
0010
0100
0001
1000
0010
0100
0010
1000
,
0001
0010
0100
0010
0100
0010
0001
1000
0010
0100
0010
1000
0001
0010
0100
1000
,
0001
0010
0001
1000
0010
1000
0100
1000
0001
0100
0001
0010
0001
1000
0010
1000
,
0100
0000
0010
0100
0000
1000
0100
0000
0010
0001
0000
0010
0100
1000
0001
0000
,
0100
0000
0010
0100
0010
1000
0001
0100
0010
0100
0001
1000
0100
0010
0001
1000
,
0001
0010
0100
1000
0100
1000
0010
0100
0010
0100
0001
1000
0100
0010
0001
1000
,
0001
0010
0001
1000
0010
1000
0001
1000
0100
1000
0001
0010
0001
0100
0010
1000
,
0001
1000
0100
0010
0100
1000
0001
0100
0010
0100
0001
1000
0100
0010
0001
1000
,
0001
1000
0100
0010
0100
1000
0001
0100
0010
0100
0001
1000
0100
0010
0001
1000
,
0001
0010
0100
1000
0100
1000
0010
0100
0010
0100
0001
1000
0100
0010
0001
1000
,
0001
0010
0001
1000
0010
1000
0001
0100
0001
1000
0010
0100
0001
0010
0100
1000
,
0001
1000
0100
1000
0010
0100
0001
0010
0001
1000
0001
0100
0001
1000
0100
1000
,
0001
0100
0001
1000
0010
1000
0001
0100
0001
1000
0100
1000
0010
1000
0001
1000
,
0001
0100
0010
0100
0010
0100
0001
1000
0100
0010
0100
1000
0001
0100
0010
1000
,
0001
0010
0001
1000
0100
1000
0001
0010
0001
1000
0010
1000
0100
1000
0001
1000
,
0001
1000
0100
1000
0010
0100
0001
0010
0001
1000
0001
0100
0001
1000
0100
1000
,
0001
0010
0001
1000
0010
1000
0001
0010
0001
1000
0010
1000
0001
0010
0100
1000
,
0001
0100
0010
0100
0010
0100
0001
1000
0100
0010
0100
1000
0001
0100
0010
1000
,
0001
0010
0100
0010
0001
0100
0010
1000
0010
0100
0001
0010
0100
0010
0001
1000
,
0001
1000
0100
1000
0010
0100
0001
0010
0001
1000
0001
0100
0001
1000
0100
1000
,
0001
0010
0001
1000
0010
1000
0001
0010
0001
1000
0010
1000
0001
0010
0100
1000
,
0001
0100
0010
0100
0010
0100
0001
1000
0100
0010
0100
1000
0001
0100
0010
1000
,
0001
0100
0001
1000
0100
1000
0001
1000
0010
1000
0001
0100
0001
0010
0100
1000
,
0001
1000
0100
1000
0010
0100
0001
0010
0001
1000
0001
0100
0001
1000
0100
1000
,
0001
0010
0001
1000
0010
1000
0001
0010
0001
1000
0010
1000
0001
0010
0100
1000
,
0001
0100
0010
0100
0010
0100
0001
1000
0100
0010
0100
1000
0001
0100
0010
1000
,
000M
000M
000M
0000
M000
M000
M000
0000
0M00
0M00
0M00
0000
0M00
0M00
0M00
0000
,
1000
0010
1000
0001
0010
0001
1000
0001
0100
0001
1000
0010
1000
0100
0010
0001
,
1000
0010
0100
0001
1000
0100
1000
0001
0010
0100
0010
0001
1000
0010
0100
0001
,
0100
0010
1000
0001
0010
0001
1000
0001
0100
0001
1000
0010
1000
0100
0010
0001
,
1000
0010
1000
0100
0010
0001
1000
0001
0010
0001
0100
0010
1000
0001
0100
0001
,
1000
0010
1000
0001
0010
0001
1000
0001
0100
0001
1000
0010
1000
0100
0010
0001
,
1000
0010
0100
0001
1000
0100
1000
0001
0010
0100
0010
0001
1000
0010
0100
0001
,
1000
0010
1000
0001
0100
0001
1000
0010
1000
0001
0010
0001
0100
0001
1000
0001
,
1000
0010
0100
0010
0100
0010
1000
0001
0100
0010
0100
0001
1000
0010
1000
0001
,
1000
0100
0010
0100
0010
0001
0100
0010
1000
0001
0010
0100
0010
0001
0100
0001
,
1000
0010
1000
0010
0100
0001
1000
0010
1000
0001
0010
0001
0100
0001
1000
0001
,
1000
0100
1000
0001
0010
0001
1000
0100
1000
0001
0100
0001
0010
0001
1000
0001
,
1000
0010
1000
0001
0010
0001
1000
0001
0100
0001
1000
0100
1000
0010
0100
0001
,
1000
0010
1000
0001
0100
0001
1000
0010
1000
0001
0010
0001
0100
0001
1000
0001
,
1000
0100
1000
0001
0010
0001
1000
0100
1000
0001
0100
0001
0010
0001
1000
0001
,
1000
0010
1000
0001
0100
0001
1000
0010
1000
0001
0010
0001
0100
0001
1000
0001
,
1000
0100
1000
0001
0100
0001
0010
0001
1000
0010
1000
0100
1000
0001
0100
0001
,
1000
0100
1000
0001
0010
0001
0100
0001
1000
0100
1000
0001
0010
0001
0100
0001
,
1000
0100
1000
0001
0010
0001
0100
0001
1000
0100
1000
0010
0100
0010
0100
0001
,
1000
0100
1000
0001
0010
0001
0100
0001
1000
0100
1000
0001
0010
0001
0100
0001
,
1000
0100
1000
0001
0010
0001
0100
0001
1000
0100
1000
0001
0010
0001
0100
0001
,
1000
0010
1000
0001
0100
0001
0010
0001
1000
0010
1000
0001
0100
0001
0010
0001
,
1000
0010
1000
0001
0100
0001
0010
0001
1000
0010
1000
0100
0010
0100
0010
0001
,
1000
0010
1000
0001
0100
0001
0010
0001
1000
0010
1000
0001
0100
0001
0010
0001
,
1000
0010
1000
0001
0100
0001
0010
0001
1000
0010
1000
0001
0100
0001
0010
0001
,
1000
0100
1000
0010
0100
0010
1000
0001
1000
0100
1000
0010
0100
0010
1000
0001
,
1000
0100
1000
0010
0100
0010
1000
0001
1000
0100
1000
0001
0100
0001
0100
0010
,
1000
0100
1000
0010
0100
0010
1000
0001
1000
0100
1000
0010
0100
0010
1000
0001
,
1000
0100
1000
0010
0100
0010
1000
0001
1000
0100
1000
0010
0100
0010
1000
0001
,
1000
0010
1000
0100
0010
0100
1000
0001
1000
0010
1000
0100
0010
0100
1000
0001
,
1000
0010
1000
0100
0010
0100
1000
0001
1000
0010
1000
0001
0010
0001
0010
0100
,
1000
0010
1000
0100
0010
0100
1000
0001
1000
0010
1000
0100
0010
0100
1000
0001
,
1000
0010
1000
0100
0010
0100
1000
0001
1000
0010
1000
0100
0010
0100
1000
0010
,
0200
0000
0000
0000
,
0300
0000
0000
0000
;

//---------------dance-single - I. Pyles----------------
#NOTES:
     dance-single:
     I. Pyles:
     Challenge:
     16:
     1.000,1.000,0.000,0.011,1.000,3422.000,0.000,4.000,255.000,0.000:

0000
0000
0000
0000
,
0000
0000
0000
0000
,
1000
0100
1000
0001
0010
0001
0100
0001
1000
0100
1000
0001
0010
0001
0100
0001
,
1000
0100
1000
0001
0010
0001
0100
0001
1000
0100
1000
0010
0100
0010
0100
0001
,
1000
0100
1000
0001
0010
0001
0100
0001
1000
0100
1000
0001
0010
0001
0100
0001
,
1000
0100
1000
0001
0010
0001
0100
0001
1000
0100
1000
0001
0010
0001
0100
0001
,
1000
0010
1000
0001
0100
0001
0010
0001
1000
0010
1000
0001
0100
0001
0010
0001
,
1000
0010
1000
0001
0100
0001
0010
0001
1000
0010
1000
0100
0010
0100
0010
0001
,
1000
0010
1000
0001
0100
0001
0010
0001
1000
0010
1000
0001
0100
0001
0010
0001
,
1000
0010
1000
0001
0100
0001
0010
0001
1000
0010
1000
0001
0100
0001
0010
0001
,
1000
0100
1000
0010
0100
0010
1000
0001
1000
0100
1000
0010
0100
0010
1000
0001
,
1000
0100
1000
0010
0100
0010
1000
0001
1000
0100
1000
0001
0100
0001
0100
0010
,
1000
0100
1000
0010
0100
0010
1000
0001
1000
0100
1000
0010
0100
0010
1000
0001
,
1000
0100
1000
0010
0100
0010
1000
0001
1000
0100
1000
0010
0100
0010
1000
0001
,
1000
0010
1000
0100
0010
0100
1000
0001
1000
0010
1000
0100
0010
0100
1000
0001
,
1000
0010
1000
0100
0010
0100
1000
0001
1000
0010
1000
0001
0010
0001
0010
0100
,
1000
0010
1000
0100
0010
0100
1000
0001
1000
0010
1000
0100
0010
0100
1000
0001
,
1000
0010
1000
0100
0010
0100
1000
0001
1000
0010
1000
0100
0010
0100
1000
0001
,
0100
0010
1000
0001
0100
0010
0100
0001
0010
0100
1000
0001
0100
0001
1000
0001
,
0010
0100
1000
0001
0010
0100
0010
0001
0100
0010
1000
0001
0010
0001
1000
0001
,
0010
0100
1000
0001
0010
0100
0010
0001
0100
0010
1000
0001
0010
0001
1000
0001
,
0010
0100
1000
0001
0010
0100
0010
0001
0100
0010
1000
0001
0010
0001
1000
0001
,
0100
0010
1000
0001
0100
0010
0100
0001
0010
0100
1000
0001
0100
0001
1000
0001
,
0010
0100
1000
0001
0010
0100
0010
0001
0100
0010
1000
0001
0010
0001
1000
0001
,
0100
0010
1000
0001
0100
0010
0100
0001
0010
0100
1000
0001
0100
0001
1000
0001
,
0010
0100
1000
0001
0010
0100
0010
0001
0100
0010
1000
0001
0010
0001
1000
0001
,
0100
0010
1000
0001
0100
0010
0100
0001
0010
0100
1000
0001
0100
0001
1000
0001
,
0100
0010
1000
0001
0100
0010
0100
0001
0010
0100
1000
0001
0100
0001
1000
0001
,
0100
0010
1000
0001
0100
0010
0100
0001
0010
0100
1000
0001
0100
0001
1000
0001
,
0010
0100
1000
0001
0010
0100
0010
0001
0100
0010
1000
0001
0010
0001
1000
0001
,
0100
0010
1000
0001
0100
0010
0100
0001
0010
0100
1000
0001
0100
0001
1000
0001
,
0010
0100
1000
0001
0010
0100
0010
0001
0100
0010
1000
0001
0010
0001
1000
0001
,
0100
0010
1000
0001
0100
0010
0100
0001
0010
0100
1000
0001
0100
0001
1000
0001
,
0010
0100
1000
0001
0010
0100
0010
0001
0100
0010
1000
0001
0010
0001
1000
0001
,
0100
0001
1000
0001
0010
0001
1000
0010
1000
0001
0100
0001
0010
0100
1000
0001
,
0100
0001
1000
0001
0010
0001
1000
0010
1000
0001
0100
0001
0010
0100
1000
0001
,
0100
0001
1000
0001
0010
0001
1000
0010
1000
0001
0100
0001
0010
0100
1000
0001
,
0100
0001
1000
0001
0010
0001
1000
0010
1000
0001
0100
0001
0010
0100
1000
0001
,
0100
0010
1000
0001
0010
0100
1000
0100
1000
0001
0100
0001
0010
0001
1000
0001
,
0100
0010
1000
0001
0010
0100
1000
0010
0100
0001
0100
0010
1000
0001
0010
0100
,
0010
0001
0010
0100
0010
0001
0010
0100
1000
0001
1000
0100
0010
0001
1000
0001
,
1000
0010
0100
0001
1000
0001
0010
0001
0100
0010
1000
0001
0100
0001
1000
0001
,
0100
0001
1000
0001
0010
0001
1000
0010
1000
0001
0100
0001
0010
0100
1000
0001
,
0100
0001
1000
0001
0010
0001
1000
0010
1000
0001
0100
0001
0010
0100
1000
0001
,
0100
0001
1000
0001
0010
0001
1000
0010
1000
0001
0100
0001
0010
0100
1000
0001
,
0100
0001
1000
0001
0010
0001
1000
0010
1000
0001
0100
0001
0010
0100
1000
0001
,
0100
0010
1000
0001
0010
0100
1000
0100
1000
0001
0100
0001
0010
0001
1000
0001
,
0100
0010
1000
0001
0010
0100
1000
0010
0100
0001
0100
0010
1000
0001
0010
0001
,
0100
0010
1000
0001
0100
0010
0100
0001
0010
0100
1000
0001
0100
0001
1000
0001
,
0100
0010
1000
0001
0100
0010
0100
0001
0010
0100
1000
0001
0100
0001
1000
0001
,
0010
0001
1000
0001
0100
0001
1000
0100
1000
0001
0010
0001
0100
0010
1000
0001
,
0010
0001
1000
0001
0100
0001
1000
0100
1000
0001
0010
0001
0100
0010
1000
0001
,
0010
0001
1000
0001
0100
0001
1000
0100
1000
0001
0010
0001
0100
0010
1000
0001
,
0010
0001
1000
0001
0100
0001
1000
0100
1000
0001
0010
0001
0100
0010
1000
0001
,
0010
0100
1000
0001
0100
0010
1000
0010
1000
0001
0010
0001
0100
0001
1000
0001
,
0010
0100
1000
0001
0100
0010
1000
0100
0010
0001
0010
0100
1000
0001
0100
0010
,
0100
0001
0100
0010
0100
0001
0100
0010
1000
0001
1000
0010
0100
0001
1000
0001
,
1000
0100
0010
0001
1000
0001
0100
0001
0010
0100
1000
0001
0010
0001
1000
0001
,
0010
0001
1000
0001
0100
0001
1000
0100
1000
0001
0010
0001
0100
0010
1000
0001
,
0010
0001
1000
0001
0100
0001
1000
0100
1000
0001
0010
0001
0100
0010
1000
0001
,
0010
0001
1000
0001
0100
0001
1000
0100
1000
0001
0010
0001
0100
0010
1000
0001
,
0010
0001
1000
0001
0100
0001
1000
0100
1000
0001
0010
0001
0100
0010
1000
0001
,
0010
0100
1000
0001
0100
0010
1000
0010
1000
0001
0010
0001
0100
0001
1000
0001
,
0010
0100
1000
0001
0100
0010
1000
0100
0010
0001
0010
0100
1000
0001
0100
0001
,
0010
0100
1000
0001
0010
0100
0010
0001
0100
0010
1000
0001
0010
0001
1000
0001
,
0010
0100
1000
0100
0010
0100
1000
0010
0100
0010
1000
0100
0010
0001
1000
0001
,
0200
0000
0000
0000
,
0000
0000
0000
0000
,
0000
0000
0000
0000
,
000M
000M
000M
000M
000M
000M
000M
000M
000M
000M
000M
000M
000M
000M
000M
000M
,
000M
0000
0000
0000
,
0000
0300
MMMM
0000
0000
0000
0000
0000
,
0000
0000
0000
0000
,
00M0
00M0
00M0
0000
0M00
0M00
0M00
0000
M000
M000
M000
0000
00M0
0000
0M00
0M00
,
0M00
0M00
0M00
0M00
0M00
0M00
0M00
0M00
0M00
0M00
0M00
0000
0000
0000
0000
0000
,
0000
0000
0000
0000
,
000M
000M
000M
0000
0000
0M00
0M00
0M00
0000
00M0
00M0
00M0
0000
0000
0000
0000
,
0M00
0M00
0M00
0000
00M0
00M0
00M0
0000
000M
000M
000M
0000
0M00
0000
00M0
00M0
,
00M0
00M0
00M0
00M0
00M0
00M0
00M0
00M0
00M0
00M0
00M0
0000
0000
0000
0000
0000
,
0000
0000
0000
0000
,
00M0
00M0
00M0
0000
M000
0000
000M
000M
000M
0000
0M00
0M00
0M00
0000
00M0
0000
,
M000
M000
M000
0000
000M
0M00
0000
0000
0000
0000
000M
0M00
0000
0000
0000
0000
,
0000
0000
0000
0000
0000
0000
0000
0000
0000
0000
0000
0000
00M0
00M0
00M0
00M0
,
0001
1000
0100
1000
0010
0100
0001
0010
0001
1000
0001
0100
0001
1000
0100
1000
,
0001
0010
0001
1000
0010
1000
0001
0010
0001
1000
0010
1000
0001
0010
0100
1000
,
0001
0100
0010
0100
0010
0100
0001
1000
0100
0010
0100
1000
0001
0100
0010
1000
,
0001
0100
0001
1000
0100
1000
0001
1000
0010
1000
0001
0100
0001
0010
0100
1000
,
0001
1000
0100
1000
0010
0100
0001
0010
0001
1000
0001
0100
0001
1000
0100
1000
,
0001
0010
0001
1000
0010
1000
0001
0010
0001
1000
0010
1000
0001
0010
0100
1000
,
0001
0100
0010
0100
0010
0100
0001
1000
0100
0010
0100
1000
0001
0100
0010
1000
,
0001
0010
0100
0010
0001
0100
0010
1000
0010
0100
0001
0010
0100
0010
0001
1000
,
0001
1000
0100
1000
0010
0100
0001
0010
0001
1000
0001
0100
0001
1000
0100
1000
,
0001
0010
0001
1000
0010
1000
0001
0010
0001
1000
0010
1000
0001
0010
0100
1000
,
0001
0100
0010
0100
0010
0100
0001
1000
0100
0010
0100
1000
0001
0100
0010
1000
,
0001
0100
0001
1000
0100
1000
0001
1000
0010
1000
0001
0100
0001
0010
0100
1000
,
0001
1000
0100
1000
0010
0100
0001
0010
0001
1000
0001
0100
0001
1000
0100
1000
,
0001
0010
0001
1000
0010
1000
0001
0010
0001
1000
0010
1000
0001
0010
0100
1000
,
0001
0100
0010
0100
0010
0100
0001
1000
0100
0010
0100
1000
0001
0100
0010
1000
,
000M
000M
000M
0000
M000
M000
M000
0000
0M00
0M00
0M00
0000
0M00
0M00
0M00
0000
,
1000
0001
0010
0100
0010
0001
1000
0010
0100
0010
1000
0001
0010
0100
1000
0001
,
1000
0001
0010
0100
0010
0001
1000
0010
0100
0010
1000
0001
0010
0100
1000
0001
,
1000
0100
0010
0001
0010
0001
0100
0010
0100
0010
1000
0001
0010
0100
1000
0001
,
1000
0100
1000
0001
0100
0001
1000
0001
0010
0001
1000
0100
1000
0010
0100
0001
,
1000
0001
0010
0100
0010
0001
1000
0010
0100
0010
1000
0001
0100
0010
0100
0001
,
1000
0001
0010
0100
0010
0001
1000
0010
0100
0010
1000
0001
0100
0010
0100
0001
,
1000
0100
0010
0100
0010
0100
1000
0001
0100
0010
0100
0001
1000
0100
0010
0001
,
1000
0100
1000
0001
0100
0001
0010
0001
1000
0010
1000
0100
1000
0001
0100
0001
,
0010
0000
0100
0010
0000
0001
0010
0000
0100
1000
0000
0100
0010
0001
1000
0000
,
0010
0000
0100
0010
0100
0001
1000
0010
0100
0010
1000
0001
0010
0100
1000
0001
,
1000
0100
0010
0001
0010
0001
0100
0010
0100
0010
1000
0001
0010
0100
1000
0001
,
1000
0100
1000
0001
0100
0001
1000
0001
0010
0001
1000
0100
1000
0010
0100
0001
,
1000
0001
0010
0100
0010
0001
1000
0010
0100
0010
1000
0001
0010
0100
1000
0001
,
1000
0001
0010
0100
0010
0001
1000
0010
0100
0010
1000
0001
0010
0100
1000
0001
,
1000
0100
0010
0001
0010
0001
0100
0010
0100
0010
1000
0001
0010
0100
1000
0001
,
1000
0100
1000
0001
0100
0001
1000
0010
1000
0001
0100
0010
1000
0100
0010
0001
,
1000
0001
0010
0001
0100
0010
1000
0100
1000
0001
1000
0010
1000
0001
0010
0001
,
1000
0010
0100
0001
1000
0100
1000
0001
1000
0010
0100
0001
1000
0100
1000
0001
,
1000
0010
0100
0010
0100
0010
1000
0001
0010
0100
0010
0001
1000
0010
0100
0001
,
1000
0100
0010
0001
1000
0010
1000
0001
1000
0100
0010
0001
1000
0010
1000
0001
,
1000
0001
0010
0001
0100
0010
1000
0100
1000
0001
1000
0010
1000
0001
0010
0001
,
1000
0100
1000
0001
0100
0001
1000
0100
1000
0001
0100
0001
1000
0100
0010
0001
,
1000
0010
0100
0010
0100
0010
1000
0001
0010
0100
0010
0001
1000
0010
0100
0001
,
1000
0100
0010
0100
1000
0010
0100
0001
0100
0010
1000
0100
0010
0100
1000
0001
,
1000
0001
0010
0001
0100
0010
1000
0100
1000
0001
1000
0010
1000
0001
0010
0001
,
1000
0100
1000
0001
0100
0001
1000
0100
1000
0001
0100
0001
1000
0100
0010
0001
,
1000
0010
0100
0010
0100
0010
1000
0001
0010
0100
0010
0001
1000
0010
0100
0001
,
1000
0010
1000
0001
0010
0001
1000
0001
0100
0001
1000
0010
1000
0100
0010
0001
,
1000
0001
0010
0001
0100
0010
1000
0100
1000
0001
1000
0010
1000
0001
0010
0001
,
1000
0100
1000
0001
0100
0001
1000
0100
1000
0001
0100
0001
1000
0100
0010
0001
,
1000
0010
0100
0010
0100
0010
1000
0001
0010
0100
0010
0001
1000
0010
0100
0001
,
M000
M000
M000
0000
000M
000M
000M
0000
00M0
00M0
00M0
0000
00M0
00M0
00M0
0000
,
0001
0100
0001
1000
0100
1000
0001
1000
0010
1000
0001
0100
0001
0010
0100
1000
,
0001
0100
0010
1000
0001
0010
0001
1000
0100
0010
0100
1000
0001
0100
0010
1000
,
0010
0100
0001
1000
0100
1000
0001
1000
0010
1000
0001
0100
0001
0010
0100
1000
,
0001
0100
0001
0010
0100
1000
0001
1000
0100
1000
0010
0100
0001
1000
0010
1000
,
0001
0100
0001
1000
0100
1000
0001
1000
0010
1000
0001
0100
0001
0010
0100
1000
,
0001
0100
0010
1000
0001
0010
0001
1000
0100
0010
0100
1000
0001
0100
0010
1000
,
0001
0100
0001
1000
0010
1000
0001
0100
0001
1000
0100
1000
0010
1000
0001
1000
,
0001
0100
0010
0100
0010
0100
0001
1000
0010
0100
0010
1000
0001
0100
0001
1000
,
00M0
00M0
00M0
0000
0M00
0M00
0M00
0000
0000
0000
000M
000M
000M
0000
0000
0000
,
1000
0010
1000
0001
1000
0100
1000
0001
1000
0010
0100
0001
1000
0100
1000
0001
,
1000
0010
0100
0001
1000
0100
1000
0001
1000
0010
0100
0001
1000
0100
1000
0001
,
1000
0010
1000
0001
0010
0001
1000
0001
0100
0001
1000
0100
1000
0010
0100
0001
,
1000
0100
0010
0001
1000
0010
1000
0001
1000
0100
0010
0001
1000
0010
1000
0001
,
1000
0010
0100
0001
1000
0100
1000
0001
1000
0010
0100
0001
1000
0100
1000
0001
,
1000
0100
0010
0001
1000
0010
1000
0001
1000
0100
0010
0001
1000
0010
1000
0001
,
1000
0100
1000
0001
0100
0001
0010
0001
1000
0010
1000
0100
1000
0001
0100
0001
,
0020
0000
0000
0000
0130
0000
0000
0010
0100
1000
0001
0000
0010
0100
1000
0001
,
0100
0000
0000
0010
0100
0000
0010
0100
0001
1000
0001
0000
1000
0001
1000
0100
,
0010
0000
0000
0100
0010
0000
0100
0010
0001
1000
0001
0000
1000
0001
1000
0010
,
0100
0000
0000
0000
0010
0000
0100
0010
1000
0100
1000
0001
0100
0001
1000
0010
,
0100
0000
0000
0001
1000
0000
0010
1000
0001
1000
0010
0000
0100
0010
1000
0010
,
0000
0000
0000
1000
0001
0000
0010
0001
1000
0001
0010
0000
0100
0010
0001
0010
,
0000
0000
0000
0001
1000
0000
0100
1000
0001
1000
0100
0000
0010
0100
1000
0100
,
0000
0000
0000
1000
0001
0000
0100
0001
1000
0001
0100
0010
0100
0001
0010
0100
,
0000
0000
0000
0010
0001
0000
1000
0001
0010
0001
1000
0000
0100
1000
0001
1000
,
0000
0000
0000
0010
1000
0000
0001
1000
0010
1000
0001
0000
0100
0001
1000
0001
,
0000
0000
0000
0100
0001
0000
1000
0001
0100
0001
1000
0000
0010
1000
0001
1000
,
0000
0000
0000
0100
1000
0000
0001
1000
0100
1000
0001
0000
0010
0001
1000
0001
,
0000
0000
0000
1000
0100
0000
0010
0001
1000
0001
0010
0000
0001
1000
0100
1000
,
0000
0000
0000
0001
0100
0000
0010
1000
0001
1000
0010
0000
1000
0100
1000
0001
,
0000
0000
0000
1000
0100
0000
0010
0001
1000
0001
0010
0000
0001
1000
0100
1000
,
0000
0000
0000
0001
0100
0000
0010
1000
0001
1000
0010
0000
1000
0100
1000
0001
,
0020
0000
0000
0000
,
0000
0000
0000
0000
,
0000
0000
0000
0000
0000
0000
0000
0000
0000
0000
M000
M000
M000
M000
M000
M000
,
M000
M000
M000
M000
M000
M000
M000
M000
M000
M000
M000
M000
M000
M000
M000
M000
,
M000
0000
0000
0000
,
0000
0030
0000
0000
0000
0000
0000
0000
,
0000
0000
0000
0000
,
0M00
0M00
0M00
0000
00M0
00M0
00M0
0000
000M
000M
000M
0000
0M00
0000
00M0
00M0
,
00M0
00M0
00M0
00M0
00M0
00M0
00M0
00M0
00M0
00M0
00M0
0000
0000
0000
0000
0000
,
0000
0000
0000
0000
,
M000
M000
M000
0000
0000
00M0
00M0
00M0
0000
0M00
0M00
0M00
0000
0000
0000
0000
,
00M0
00M0
00M0
0000
0M00
0M00
0M00
0000
M000
M000
M000
0000
00M0
0000
0M00
0M00
,
0M00
0M00
0M00
0M00
0M00
0M00
0M00
0M00
0M00
0M00
0M00
0000
0000
0000
0000
0000
,
0000
0000
0000
0000
,
0M00
0M00
0M00
0000
000M
0000
M000
M000
M000
0000
00M0
00M0
00M0
0000
0M00
0000
,
000M
000M
000M
0000
M000
00M0
0000
0000
0000
0000
M000
00M0
0000
0000
0000
0000
,
0001
0000
0000
0000
0001
0000
0000
0000
0001
0000
0000
0000
0M00
0M00
0M00
0M00
,
1000
0001
0010
0001
0100
0010
1000
0100
1000
0001
1000
0010
1000
0001
0010
0001
,
1000
0100
1000
0001
0100
0001
1000
0100
1000
0001
0100
0001
1000
0100
0010
0001
,
1000
0010
0100
0010
0100
0010
1000
0001
0010
0100
0010
0001
1000
0010
0100
0001
,
1000
0010
1000
0001
0010
0001
1000
0001
0100
0001
1000
0010
1000
0100
0010
0001
,
1000
0001
0010
0001
0100
0010
1000
0100
1000
0001
1000
0010
1000
0001
0010
0001
,
1000
0100
1000
0001
0100
0001
1000
0100
1000
0001
0100
0001
1000
0100
0010
0001
,
1000
0010
0100
0010
0100
0010
1000
0001
0010
0100
0010
0001
1000
0010
0100
0001
,
1000
0100
0010
0100
1000
0010
0100
0001
0100
0010
1000
0100
0010
0100
1000
0001
,
1000
0001
0010
0001
0100
0010
1000
0100
1000
0001
1000
0010
1000
0001
0010
0001
,
1000
0100
1000
0001
0100
0001
1000
0100
1000
0001
0100
0001
1000
0100
0010
0001
,
1000
0010
0100
0010
0100
0010
1000
0001
0010
0100
0010
0001
1000
0010
0100
0001
,
1000
0010
1000
0001
0010
0001
1000
0001
0100
0001
1000
0010
1000
0100
0010
0001
,
1000
0001
0010
0001
0100
0010
1000
0100
1000
0001
1000
0010
1000
0001
0010
0001
,
1000
0100
1000
0001
0100
0001
1000
0100
1000
0001
0100
0001
1000
0100
0010
0001
,
1000
0010
0100
0010
0100
0010
1000
0001
0010
0100
0010
0001
1000
0010
0100
0001
,
M000
M000
M000
0000
000M
000M
000M
0000
00M0
00M0
00M0
0000
00M0
00M0
00M0
0000
,
0001
1000
0100
0010
0100
1000
0001
0100
0010
0100
0001
1000
0100
0010
0001
1000
,
0001
1000
0100
0010
0100
1000
0001
0100
0010
0100
0001
1000
0100
0010
0001
1000
,
0001
0010
0100
1000
0100
1000
0010
0100
0010
0100
0001
1000
0100
0010
0001
1000
,
0001
0010
0001
1000
0010
1000
0001
1000
0100
1000
0001
0010
0001
0100
0010
1000
,
0001
1000
0100
0010
0100
1000
0001
0100
0010
0100
0001
1000
0010
0100
0010
1000
,
0001
1000
0100
0010
0100
1000
0001
0100
0010
0100
0001
1000
0010
0100
0010
1000
,
0001
0010
0100
0010
0100
0010
0001
1000
0010
0100
0010
1000
0001
0010
0100
1000
,
0001
0010
0001
1000
0010
1000
0100
1000
0001
0100
0001
0010
0001
1000
0010
1000
,
0100
0000
0010
0100
0000
1000
0100
0000
0010
0001
0000
0010
0100
1000
0001
0000
,
0100
0000
0010
0100
0010
1000
0001
0100
0010
0100
0001
1000
0100
0010
0001
1000
,
0001
0010
0100
1000
0100
1000
0010
0100
0010
0100
0001
1000
0100
0010
0001
1000
,
0001
0010
0001
1000
0010
1000
0001
1000
0100
1000
0001
0010
0001
0100
0010
1000
,
0001
1000
0100
0010
0100
1000
0001
0100
0010
0100
0001
1000
0100
0010
0001
1000
,
0001
1000
0100
0010
0100
1000
0001
0100
0010
0100
0001
1000
0100
0010
0001
1000
,
0001
0010
0100
1000
0100
1000
0010
0100
0010
0100
0001
1000
0100
0010
0001
1000
,
0001
0010
0001
1000
0010
1000
0001
0100
0001
1000
0010
0100
0001
0010
0100
1000
,
0001
1000
0100
1000
0010
0100
0001
0010
0001
1000
0001
0100
0001
1000
0100
1000
,
0001
0100
0001
1000
0010
1000
0001
0100
0001
1000
0100
1000
0010
1000
0001
1000
,
0001
0100
0010
0100
0010
0100
0001
1000
0100
0010
0100
1000
0001
0100
0010
1000
,
0001
0010
0001
1000
0100
1000
0001
0010
0001
1000
0010
1000
0100
1000
0001
1000
,
0001
1000
0100
1000
0010
0100
0001
0010
0001
1000
0001
0100
0001
1000
0100
1000
,
0001
0010
0001
1000
0010
1000
0001
0010
0001
1000
0010
1000
0001
0010
0100
1000
,
0001
0100
0010
0100
0010
0100
0001
1000
0100
0010
0100
1000
0001
0100
0010
1000
,
0001
0010
0100
0010
0001
0100
0010
1000
0010
0100
0001
0010
0100
0010
0001
1000
,
0001
1000
0100
1000
0010
0100
0001
0010
0001
1000
0001
0100
0001
1000
0100
1000
,
0001
0010
0001
1000
0010
1000
0001
0010
0001
1000
0010
1000
0001
0010
0100
1000
,
0001
0100
0010
0100
0010
0100
0001
1000
0100
0010
0100
1000
0001
0100
0010
1000
,
0001
0100
0001
1000
0100
1000
0001
1000
0010
1000
0001
0100
0001
0010
0100
1000
,
0001
1000
0100
1000
0010
0100
0001
0010
0001
1000
0001
0100
0001
1000
0100
1000
,
0001
0010
0001
1000
0010
1000
0001
0010
0001
1000
0010
1000
0001
0010
0100
1000
,
0001
0100
0010
0100
0010
0100
0001
1000
0100
0010
0100
1000
0001
0100
0010
1000
,
000M
000M
000M
0000
M000
M000
M000
0000
0M00
0M00
0M00
0000
0M00
0M00
0M00
0000
,
1000
0010
1000
0001
0010
0001
1000
0001
0100
0001
1000
0010
1000
0100
0010
0001
,
1000
0010
0100
0001
1000
0100
1000
0001
0010
0100
0010
0001
1000
0010
0100
0001
,
0100
0010
1000
0001
0010
0001
1000
0001
0100
0001
1000
0010
1000
0100
0010
0001
,
1000
0010
1000
0100
0010
0001
1000
0001
0010
0001
0100
0010
1000
0001
0100
0001
,
1000
0010
1000
0001
0010
0001
1000
0001
0100
0001
1000
0010
1000
0100
0010
0001
,
1000
0010
0100
0001
1000
0100
1000
0001
0010
0100
0010
0001
1000
0010
0100
0001
,
1000
0010
1000
0001
0100
0001
1000
0010
1000
0001
0010
0001
0100
0001
1000
0001
,
1000
0010
0100
0010
0100
0010
1000
0001
0100
0010
0100
0001
1000
0010
1000
0001
,
1000
0100
0010
0100
0010
0001
0100
0010
1000
0001
0010
0100
0010
0001
0100
0001
,
1000
0010
1000
0010
0100
0001
1000
0010
1000
0001
0010
0001
0100
0001
1000
0001
,
1000
0100
1000
0001
0010
0001
1000
0100
1000
0001
0100
0001
0010
0001
1000
0001
,
1000
0010
1000
0001
0010
0001
1000
0001
0100
0001
1000
0100
1000
0010
0100
0001
,
1000
0010
1000
0001
0100
0001
1000
0010
1000
0001
0010
0001
0100
0001
1000
0001
,
1000
0100
1000
0001
0010
0001
1000
0100
1000
0001
0100
0001
0010
0001
1000
0001
,
1000
0010
1000
0001
0100
0001
1000
0010
1000
0001
0010
0001
0100
0001
1000
0001
,
1000
0100
1000
0001
0100
0001
0010
0001
1000
0010
1000
0100
1000
0001
0100
0001
,
1000
0100
1000
0001
0010
0001
0100
0001
1000
0100
1000
0001
0010
0001
0100
0001
,
1000
0100
1000
0001
0010
0001
0100
0001
1000
0100
1000
0010
0100
0010
0100
0001
,
1000
0100
1000
0001
0010
0001
0100
0001
1000
0100
1000
0001
0010
0001
0100
0001
,
1000
0100
1000
0001
0010
0001
0100
0001
1000
0100
1000
0001
0010
0001
0100
0001
,
1000
0010
1000
0001
0100
0001
0010
0001
1000
0010
1000
0001
0100
0001
0010
0001
,
1000
0010
1000
0001
0100
0001
0010
0001
1000
0010
1000
0100
0010
0100
0010
0001
,
1000
0010
1000
0001
0100
0001
0010
0001
1000
0010
1000
0001
0100
0001
0010
0001
,
1000
0010
1000
0001
0100
0001
0010
0001
1000
0010
1000
0001
0100
0001
0010
0001
,
1000
0100
1000
0010
0100
0010
1000
0001
1000
0100
1000
0010
0100
0010
1000
0001
,
1000
0100
1000
0010
0100
0010
1000
0001
1000
0100
1000
0001
0100
0001
0100
0010
,
1000
0100
1000
0010
0100
0010
1000
0001
1000
0100
1000
0010
0100
0010
1000
0001
,
1000
0100
1000
0010
0100
0010
1000
0001
1000
0100
1000
0010
0100
0010
1000
0001
,
1000
0010
1000
0100
0010
0100
1000
0001
1000
0010
1000
0100
0010
0100
1000
0001
,
1000
0010
1000
0100
0010
0100
1000
0001
1000
0010
1000
0001
0010
0001
0010
0100
,
1000
0010
1000
0100
0010
0100
1000
0001
1000
0010
1000
0100
0010
0100
1000
0001
,
1000
0010
1000
0100
0010
0100
1000
0001
1000
0010
1000
0100
0010
0100
1000
0010
,
0200
0000
0000
0000
,
0300
0000
0000
0000
;
