#TITLE:ZERO-ONE;
#SUBTITLE:NMS SYSTEM MIX;
#ARTIST:DJ UPSET;
#TITLETRANSLIT:;
#SUBTITLETRANSLIT:;
#ARTISTTRANSLIT:;
#CREDIT:;
#BANNER:ZERO-ONE NMS.png;
#BACKGROUND:zero-one NMS-bg.png;
#LYRICSPATH:;
#CDTITLE:!Dokuroridertitle2.png;
#MUSIC:DJ UPSET - ZERO-ONE (NMS System Mix).mp3;
#OFFSET:-0.420;
#SAMPLESTART:156.400;
#SAMPLELENGTH:16.900;
#SELECTABLE:YES;
#BPMS:0.000=160.000,608.000=168.500,624.000=170.000,630.000=178.000,632.000=180.000,638.000=188.000,640.000=190.000,652.000=189.999,654.000=194.999,662.000=199.999,664.000=203.999,670.000=205.999,678.000=207.999,680.000=209.999,686.000=219.999,702.000=221.999,710.000=233.999,718.000=233.999,720.000=234.999,726.000=238.999,735.000=159.999;
#STOPS:;
#BGCHANGES:;
// cache tags:
#FIRSTBEAT:0.000;
#LASTBEAT:741.750;
#SONGFILENAME:Songs/mongol/ZERO ONE NMS/ZERO ONE NMS.sm;
#HASMUSIC:1;
#HASBANNER:1;
#MUSICLENGTH:273.510;
// end cache tags

//---------------dance-single - ----------------
#NOTES:
     dance-single:
     :
     Easy:
     4:
     0.296,0.373,0.011,0.128,0.000,529.000,3.000,35.000,0.000,0.000:
1000
0000
1000
0000
,
0001
0000
0001
0000
,
1000
0000
1000
0000
,
0001
0000
0001
0000
,
1000
0000
0100
0100
,
0010
0000
0100
0100
,
0010
0000
0001
0001
,
0100
0010
1000
0010
,
0100
0001
0100
0100
,
0010
1000
0100
0100
,
0010
0001
0001
1000
,
1000
0100
0010
0000
,
0001
0100
0001
0001
,
1000
0010
1000
1000
,
0100
0100
0100
0100
,
0020
0000
0000
0030
,
0001
0100
0001
0100
,
0010
1000
0010
0000
,
1000
0100
1000
0100
,
0010
0001
0010
0000
,
0100
1000
0100
0000
,
0010
0001
0010
0000
,
0100
1000
0001
0000
,
0100
0001
1000
0000
,
0001
0010
0001
0010
,
0100
1000
0001
0000
,
1000
0100
1000
0100
,
0010
0001
1000
0000
,
0010
1000
0010
0000
,
0100
0001
0100
0000
,
0010
1000
0001
0000
,
0010
0001
2000
3002
,
0103
0000
0100
0001
,
0100
0000
0010
1000
,
0010
0000
1000
0100
,
0010
0000
0001
0100
,
0010
1000
0010
0010
,
0100
0001
0100
0100
,
0010
1000
0100
0010
,
0001
0100
0010
0200
,
0301
0000
0001
0100
,
0001
0000
1000
0010
,
1000
0000
0100
0010
,
0100
0000
0010
0100
,
0010
0001
0001
0010
,
0100
1000
1000
0100
,
0020
0030
0002
0003
,
0020
0030
0200
0300
,
1000
0100
1000
0100
,
0010
0100
0010
0000
,
0001
0010
0001
0010
,
0100
0010
0100
0000
,
1000
1000
0001
0000
,
1000
1000
0001
0000
,
0100
0010
0100
0000
,
0010
0100
0010
0000
,
0100
0001
0100
0001
,
0010
0001
0100
0000
,
0010
1000
0010
1000
,
0100
1000
0010
0000
,
0100
0001
1000
0000
,
0010
1000
0001
0000
,
0100
1000
0010
0000
,
0100
0001
0010
0000
,
0100
0000
1000
0000
,
0100
0000
1000
0000
,
0001
0000
0010
0000
,
0001
0000
0010
0000
,
0100
0000
1000
0000
,
0001
0000
0100
0000
,
0010
0000
1000
0000
,
0001
0000
0010
0000
,
0100
0100
0100
0000
,
0010
0010
0010
0000
,
0100
0100
0100
0000
,
0010
0010
0010
0000
,
0001
0100
0001
0001
,
1000
0100
1000
1000
,
0002
0003
2000
3000
,
0200
0300
0020
0030
,
0001
0100
0010
1000
,
0010
0100
0001
0000
,
1000
0100
0010
0001
,
0010
0100
1000
0000
,
0010
0100
0100
0000
,
0010
0100
0100
0000
,
0001
1000
0001
1000
,
0001
0000
1000
0000
0001
1000
0001
0000
,
2000
3000
0200
0300
,
2000
3000
0020
0030
,
0100
0100
0001
1000
,
0002
0003
2000
3000
,
0100
0100
0000
0000
,
0010
0010
0000
0000
,
0001
0100
0001
0100
,
0010
1000
0000
2002
0000
0000
3003
0000
,
0200
0000
0300
0000
,
0020
0000
0030
0000
,
0200
0000
0300
0000
,
0020
0000
0030
0000
,
0000
0001
0000
0001
0000
0001
0000
0000
,
0000
1000
0000
1000
0000
1000
0000
0000
,
0000
0001
0000
0001
0000
0001
0000
0000
,
1000
1000
1000
0000
,
0100
0100
0010
0001
,
0100
0100
0010
1000
,
0100
1000
0100
0010
,
0001
0001
1000
0000
,
0100
0100
1000
0100
,
0010
0001
0010
0000
,
0100
0100
1000
0100
,
0010
0001
0010
0000
,
0001
0100
0010
0000
,
1000
0100
0010
0000
,
0100
0010
0001
0000
,
0100
0010
1000
0000
,
0100
0000
0100
0000
,
0010
0000
0010
0000
,
0001
0000
0001
0000
,
1000
0000
1000
0000
,
0100
1000
0100
0000
,
0010
0001
0010
0000
,
0002
0003
2000
3000
,
0002
0003
2000
3000
,
0100
0100
0000
0000
,
0010
0010
0000
0000
,
0100
0100
0000
0000
,
0010
0010
0000
0000
,
0001
0100
0001
0100
,
0001
1000
0001
1000
,
0100
1000
0100
1000
,
0010
0100
0010
0100
,
0001
0000
0001
0001
,
1000
0000
1000
1000
,
0001
0000
0100
0010
,
0010
0000
0010
0100
,
0100
0000
1001
0000
,
0001
1000
0100
0000
,
0020
0000
0032
0000
0023
0000
0000
0031
,
0000
0000
0100
0100
,
0010
0000
1000
0010
,
1000
0000
0001
0010
,
0001
0000
0100
0010
,
0100
0000
0010
0100
,
0010
0000
1000
0100
,
0010
0001
1000
0100
,
0010
0001
2000
3000
,
0002
0003
0000
0000
,
0100
0100
0100
0000
,
0010
0010
0010
0000
,
1000
1000
1000
0000
,
0001
0001
0001
0000
,
0000
0000
0000
0000
,
0000
0000
0000
0000
,
0000
0000
0000
0000
,
0000
0000
0000
0000
,
1000
0000
0100
0000
,
1000
0100
1000
0000
,
0010
0000
0001
0000
,
0010
0001
0010
0000
,
0100
1000
0100
0000
,
1000
0000
0001
0000
,
0100
0001
0100
0000
,
0001
0000
1000
0000
,
0010
1000
0010
0000
,
1000
0000
0001
0000
,
0010
0001
0100
0000
,
0001
0000
0100
0000
,
0010
1000
0100
0000
,
1000
0000
0100
0000
,
0010
0010
0001
0000
,
0001
0000
1000
0000
,
0010
0010
1000
0000
,
1000
0000
0001
0000
,
0100
0100
0001
0000
,
0001
0000
1000
0000
,
0100
1000
0100
1000
,
0100
0000
0010
0000
,
0001
0010
0001
0010
,
0001
0000
1000
0000
,
0100
0100
0010
0010
,
0100
0000
0100
0000
,
0010
0001
0010
0001
,
0100
0010
1000
2002
,
0000
0000
0000
0000
,
0000
0000
0000
0000
0000
0000
0000
3003
0000
0000
0000
0000
0000
0000
0000
0000
;

//---------------dance-single - ----------------
#NOTES:
     dance-single:
     :
     Medium:
     6:
     0.461,0.508,0.165,0.179,0.005,789.000,45.000,49.000,0.000,0.000:
1000
0000
0000
0100
0000
0000
1100
0000
,
0001
0000
0000
0010
0000
0000
0011
0000
,
0100
0000
0000
0001
0000
0000
1001
0000
,
0010
0000
0000
0000
0000
0000
1000
0000
0000
0000
0001
0000
0000
0000
0000
1000
,
0001
0000
0000
0101
0000
0000
0100
0000
,
0010
0000
0000
1010
0000
0000
1000
0000
,
0100
0000
0000
1100
0000
0000
1000
0000
,
0010
0000
1000
0000
0010
0100
0010
0000
,
0100
0100
0001
1000
,
0100
0100
1000
0001
,
0010
0010
0001
1000
,
0010
0000
0000
0000
0010
0000
0000
0000
1000
0000
0000
0000
0000
0000
0000
0001
,
1000
0100
1000
0100
,
0010
0001
0010
0001
,
0100
0010
1000
0001
1000
0100
0000
2000
,
0100
0100
3100
0000
,
0100
0010
0001
0010
0100
1000
0100
1000
,
0010
0100
0001
0100
0010
0000
0000
0000
,
0100
0010
1000
0010
0100
0001
0100
0001
,
0010
0100
1000
0100
0010
0000
0000
0000
,
0001
0100
0100
0010
,
1000
0000
0100
0000
0100
0000
0010
0001
,
1000
1000
0100
1000
,
0010
1000
0000
0020
0000
0000
0030
0000
,
0100
0001
0010
0001
0100
0010
1000
0010
,
0100
0001
1000
0001
0100
0000
0000
0000
,
0010
1000
0100
1000
0010
0100
0001
0100
,
0010
1000
0001
1000
0010
0000
0000
0000
,
0100
0001
0001
0010
,
0100
0000
1000
0000
1000
0000
0010
0100
,
0001
0001
0010
0100
,
0010
0001
0000
0010
0001
0010
0001
0010
,
0100
1000
0100
1100
,
0010
0001
0010
0011
,
0100
0001
0100
0101
,
0010
1000
0010
1010
,
0100
0000
0100
0000
0100
1000
0001
0000
,
0010
0000
0010
0000
0010
0001
1000
0000
,
0100
0001
0100
0000
0001
0100
0001
0000
,
1000
0010
1000
0000
0010
1000
0010
0000
,
1000
0100
1000
1010
,
0001
0010
0001
0011
,
0100
0001
0010
0110
,
0100
1000
0010
0110
,
0001
0010
0001
0000
0010
0100
0010
0000
,
0100
1000
0100
0000
1000
0010
1000
0000
,
0010
0100
0010
0000
0100
0001
0100
0000
,
0001
1000
0001
0000
1000
0000
1001
0000
,
0001
0100
0001
0100
0010
1000
0010
0100
,
0001
0010
0100
0010
0100
0000
0000
0000
,
1000
0010
1000
0010
0100
0001
0100
0010
,
1000
0100
0010
0100
0010
0000
0000
0000
,
0001
1000
0001
0100
,
0001
0000
1000
0000
0100
0000
1000
0001
,
1000
0001
0100
0010
,
1000
0100
0000
2000
0000
0000
3000
0000
,
0010
0001
0010
0100
1000
0100
0010
0001
,
0100
0001
0100
0010
1000
0000
0000
0000
,
0100
1000
0100
0010
0001
0010
0100
1000
,
0010
1000
0010
0100
0001
0000
0000
0000
,
0100
0001
0100
0100
,
0010
0000
1000
0000
0010
0000
0010
0100
,
0001
0001
1000
1000
,
0100
0010
0000
0200
0000
0300
0000
0000
,
1000
0010
1000
0010
,
1000
0010
1000
0010
,
0100
0001
0100
0001
,
0100
0001
0100
0001
,
0010
0100
0010
0100
,
1000
0001
1000
0001
,
0100
0010
0100
0010
,
0001
1000
0001
1000
,
0100
0010
0001
0011
,
0010
0100
1000
1010
,
1000
0100
1000
1010
,
0001
0100
0001
0101
,
0010
1000
0010
1000
,
0100
0000
1000
0000
0100
0010
0100
0000
,
0010
0001
0010
0001
,
0100
0010
0100
0010
0100
0000
0000
0000
,
0001
0100
0001
0100
0010
1000
0100
1000
,
0010
0100
0001
0010
0001
0000
0000
0000
,
1000
0010
1000
0010
0100
0001
0010
0001
,
0100
0010
1000
0100
1000
0000
0000
0000
,
0010
0000
0100
0000
0001
0000
0100
0010
,
0100
0000
0010
0000
1000
0000
0100
0010
,
0100
0010
0001
0010
,
0100
0000
0100
0000
1000
0001
1000
0000
,
0100
0010
0001
0010
,
0100
1000
0100
0010
,
0001
0000
1000
0000
0001
0100
0000
0002
,
0000
0003
0000
0000
,
0010
0100
0010
0000
,
0001
1000
0001
0000
,
1000
1000
0100
0100
,
0010
0001
0000
2002
0000
0000
3003
0000
,
0001
0000
0000
0001
0000
0000
0001
0000
,
0000
1000
0000
0000
1000
0000
1000
0000
,
0001
0000
0000
0001
0000
0000
0001
0000
,
0000
1000
0000
0000
1000
0000
1000
0000
,
0000
0100
0000
0010
0000
0100
0000
0010
,
0000
0100
0000
1000
0000
0100
0000
1000
,
0000
0010
0000
0100
0000
0001
0000
0100
,
0001
1000
1001
0000
,
0100
1000
0100
1000
0010
0100
0010
0000
,
0100
0001
0100
0001
0010
0100
0010
0000
,
1000
0100
1000
0000
0001
0010
0001
0000
,
1000
0001
0000
2002
0000
3003
0000
0000
,
0100
0010
1000
0010
0100
0001
0100
0000
,
0010
0100
0001
0100
0010
1000
0010
0000
,
1000
0100
1000
0010
0100
0010
1000
0000
,
0001
0010
0001
0100
0010
0100
0001
0000
,
0100
0001
0100
0001
,
1000
0000
0100
0000
1000
0000
0100
1000
,
0001
0010
0001
0010
,
0001
0100
0000
0202
0000
0303
0000
0000
,
0010
1000
0010
0100
,
0001
0010
0001
0100
,
0010
0010
0100
0100
,
0001
1000
0001
1000
,
0100
0010
0001
0010
,
0100
1000
0100
0010
,
0001
0001
1000
1000
,
0100
0010
0100
0010
,
0001
0100
0001
0100
,
0010
1000
0010
1000
,
0100
0010
0100
0010
,
0001
1000
0001
1000
,
0100
0100
0010
0010
,
0001
0100
0010
1000
,
0100
0100
0010
0010
,
0001
0100
0010
1000
,
0001
0001
1000
1000
,
0010
0100
0001
0010
,
0001
0001
1000
1000
,
0010
0100
0001
0010
,
0001
0000
1000
0000
0000
0000
0100
0010
,
0100
0010
0100
0000
,
1000
0001
1000
0001
1000
0001
0000
2002
,
0000
3003
0000
0000
0000
0000
0000
0000
,
1000
0100
1000
1010
,
0001
0100
0001
0011
,
0100
1000
0100
1100
,
0010
0001
0010
0011
,
0000
0100
0001
0100
,
0010
0000
0000
1000
0001
0000
1001
0000
,
0000
0000
0000
0000
0100
0010
0000
0220
,
0000
0330
0000
0000
0000
0000
0000
0000
,
0001
0001
0100
0010
,
1000
1000
0100
0010
,
0001
0001
0100
0010
,
1000
0000
1000
0000
0100
0000
0010
0110
,
0000
0000
0000
0000
,
0000
0000
0000
0000
,
0000
0000
0000
0000
,
0000
0000
0000
0000
,
0001
0000
1000
0001
,
1000
0100
0000
0000
0110
0000
0000
0000
,
0000
0001
0100
0001
0100
0000
0010
0000
,
1000
0001
0000
2002
0000
3003
0000
0000
,
1000
0000
0100
0000
0010
0001
0010
0000
,
0100
1000
0000
2200
0000
3300
0000
0000
,
0000
0000
0000
0000
0010
0000
0001
0000
0010
0000
0000
0001
0010
0000
0100
0000
,
1000
0001
0000
2002
0000
3003
0000
0000
,
2000
3000
0002
0003
2000
3000
0002
0003
,
0100
0010
0000
0220
0000
0330
0000
0000
,
1000
0010
0100
0001
,
1000
0100
0000
2200
0000
3300
0000
0000
,
0001
0010
0001
0000
0000
0010
0001
0000
,
0100
0001
0000
0202
0000
0303
0000
0000
,
0010
1000
0010
0000
1000
0100
1000
0000
,
0100
0010
0000
0220
0000
0330
0000
0000
,
0001
0000
0100
0000
0001
1000
0001
0000
,
1000
0100
0000
2200
0000
3300
0000
0000
,
0000
0000
0010
0001
0010
0001
0100
0000
,
0010
0100
0000
0220
0000
0330
0000
0000
,
1000
0001
1000
0001
,
1000
0010
0000
2020
0000
3030
0000
0000
,
0200
0300
0002
0003
0200
0300
0002
0003
,
0100
0010
0000
2020
0000
3030
0000
0000
,
1000
0001
1000
0000
0001
1000
0001
0000
,
1000
0001
0000
2002
0000
3003
0000
0000
,
0001
0000
0100
0000
0010
1000
0010
1000
,
0010
0000
0100
0001
0000
0000
2002
0000
,
0000
0000
0000
0000
,
0000
0000
0000
0000
0000
0000
0000
3003
0000
0000
0000
0000
0000
0000
0000
0000
;

//---------------dance-single - ----------------
#NOTES:
     dance-single:
     :
     Hard:
     8:
     0.546,0.644,0.223,0.168,0.181,938.000,61.000,46.000,0.000,0.000:
1000
0000
0100
0010
0000
0010
0100
0000
,
1000
0000
0010
0100
0000
0100
0010
0000
,
1000
0000
0001
0010
0000
1000
0010
0000
,
0001
0000
0000
0000
0100
0000
1000
0000
0000
0000
0100
0000
0000
0001
0000
0010
,
0100
0000
1000
0100
0000
0100
1000
0000
,
1001
0000
0001
0010
0000
0010
0001
0000
,
1001
0000
1000
0001
0000
1000
0001
0100
,
1000
0000
0100
0000
0001
0000
0010
0000
0100
1000
0100
1000
0100
0000
0000
0000
,
0010
0000
0001
0000
0100
0001
0100
0000
,
0010
0000
1000
0000
0100
1000
0100
0010
,
0001
0000
0010
0000
0100
1000
0100
0000
,
1000
0000
0000
0000
0010
0000
0000
0000
0100
0000
0001
0000
0000
0100
0000
0010
,
1000
0000
0010
0000
0100
0100
0001
0000
,
1000
0000
0100
0000
0010
0010
0001
0000
,
0100
0000
0010
0000
0100
0010
0100
0000
0001
0000
0010
0000
0000
0000
0210
0000
,
1000
0000
1000
0000
1300
0000
0000
0001
,
0010
0000
0000
0100
0000
1000
0000
0000
0100
0000
0000
1000
0000
0100
0000
0000
,
0010
0000
0001
0000
0010
0000
0001
0010
0000
0000
0000
0000
0000
0000
0100
0000
,
1000
0000
0000
0010
0000
0100
0000
0000
0001
0000
0000
0100
0000
0010
0000
0000
,
0100
0000
0010
0000
1000
0000
0010
0100
0000
0000
0000
0000
0000
0000
0001
0000
,
0010
0100
0000
0000
1000
0000
0000
0000
0100
0000
0000
0000
0010
0000
0001
0000
,
0100
0000
0001
0000
0100
0000
0010
1000
,
0100
0010
0000
0000
0001
0000
0000
0000
1000
0000
0000
0000
0001
0000
0000
0000
,
0100
0010
0000
2002
0000
3003
0000
0001
,
0100
0000
0000
0010
0000
1000
0000
0000
0010
0000
0000
0100
0000
0001
0000
0000
,
0100
0000
0010
0000
1000
0000
0010
0100
0000
0000
0000
0000
0000
0000
0001
0000
,
0010
0000
0000
0100
0000
1000
0000
0000
0100
0000
0000
0010
0000
0001
0000
0000
,
0010
0000
0100
0000
1000
0000
0100
0010
0000
0000
0000
0000
0000
0000
0001
0000
,
0100
0010
0000
0000
1000
0000
0000
0000
0100
0000
0000
0000
1000
0000
0010
0000
,
1000
0000
0100
0000
1000
0000
0001
0010
,
0001
0100
0000
0000
0001
0000
0000
0000
0010
0000
0000
0000
0100
0000
0000
0000
,
1000
0010
0000
0120
0100
0100
0100
0130
,
0001
0000
0101
0000
0010
1000
0010
0000
,
1000
0000
1100
0000
0010
0001
0010
0001
,
0100
0000
0101
0000
1000
0100
1000
0000
,
0010
0000
1010
0000
0001
0010
0001
0010
,
0100
1000
0100
0000
1000
0010
0001
0010
,
0100
0001
0100
0000
0001
0010
1000
0010
,
0100
1000
0100
0000
1000
0010
0001
0010
,
0100
0000
0001
0000
0100
0000
0000
0000
0010
0000
1000
0000
0001
1000
0001
0000
,
1000
1000
0100
0100
,
0001
0000
0001
0000
0100
1000
0010
0000
,
0001
0001
0100
0100
,
1000
0000
1000
0000
0010
0001
0100
0000
,
1000
0000
0000
0000
0100
0000
0000
0000
1000
0000
0100
0000
0010
0100
0010
0000
,
0001
0000
0000
0000
0100
0000
0000
0000
0001
0000
0100
0000
0010
0100
0010
0000
,
1000
0000
0000
0000
0100
0000
0000
0000
1000
0000
0001
0000
1000
0001
1000
0000
,
0001
0000
0010
0000
0001
1000
1001
0100
,
0010
0000
0000
0001
0000
0010
0000
0000
0100
0000
0000
1000
0000
0100
0000
0000
,
0010
0000
0001
0000
1000
0000
0001
1000
0000
0000
0000
0000
0000
0000
0010
0000
,
0100
0000
0000
0001
0000
0100
0000
0000
0010
0000
0000
1000
0000
0010
0000
0000
,
0100
0000
0001
0000
1000
0000
0001
1000
0000
0000
0000
0000
0000
0000
0100
0000
,
1000
0010
0000
0000
0100
0000
0000
0000
0001
0000
0000
0000
0100
0000
0010
0000
,
1000
0000
0100
0000
0010
0000
0001
0100
,
0010
1000
0000
0000
0010
0000
0000
0000
0100
0000
0000
0000
0001
0000
1000
0000
,
0100
0010
0000
2002
0000
3003
0000
0010
,
1000
0000
0000
0010
0000
0100
0000
0000
0001
0000
0000
0010
0000
0100
0000
0000
,
1000
0000
0010
0000
0100
0000
0010
1000
0000
0000
0000
0000
0000
0000
0100
0000
,
1000
0000
0000
0010
0000
0100
0000
0000
0001
0000
0000
0010
0000
0100
0000
0000
,
1000
0000
0010
0000
0100
0000
0010
1000
0000
0000
0000
0000
0000
0000
0100
0000
,
0010
0001
0000
0000
0010
0000
0000
0000
0001
0000
0000
0000
0100
0000
0010
0000
,
0100
0000
0010
0000
1000
0000
0100
0010
,
0100
0010
0000
0000
0001
0000
0000
0000
1000
0000
0000
0000
0001
0000
0100
0000
,
0010
1000
0000
0220
0000
0330
0000
0000
,
0001
0010
0100
1000
,
0010
0001
0010
1000
,
0001
0100
0010
1000
,
0100
0001
0100
1000
,
0010
0100
0010
1000
,
0100
0001
0100
0001
,
0010
0100
0010
0001
,
0100
1000
0100
0010
,
0001
0100
0001
0000
1000
0100
1000
0000
,
0001
0010
0001
0000
1000
0010
1000
0000
,
0100
0010
0001
0010
0100
1000
0001
0000
,
0100
0010
1000
0010
0100
0001
1000
0000
,
0100
1000
0100
1000
0010
0001
0010
0000
,
0100
0001
0100
0001
0010
1000
0010
0000
,
0001
0100
0001
0100
0010
1000
0010
1000
,
0100
0010
0100
0010
0100
0010
0100
0000
0110
0000
0000
0000
0000
0000
1000
0000
,
0010
0000
0000
1000
0000
0100
0000
0000
0010
0000
0000
0001
0000
0100
0000
0000
,
0001
0000
0010
0000
0100
0000
1000
0100
0000
0000
0000
0000
0000
0000
0001
0000
,
0010
0000
0000
0001
0000
0100
0000
0000
0010
0000
0000
1000
0000
0100
0000
0000
,
1000
0000
0010
0000
0100
0000
0001
0100
0000
0000
0000
0000
0000
0000
0010
0000
,
1000
0001
0000
0000
0100
0000
0000
0000
0001
0000
0000
0000
0100
0000
0010
0000
,
1000
0000
0100
0000
1000
0000
0010
0100
,
0001
1000
0000
0000
0100
0000
0000
0000
1000
0001
0000
0000
0100
0000
0000
0000
,
0010
0100
0000
0000
0010
0100
0000
0000
0001
0000
1000
0000
0001
0000
0000
0000
,
1000
0100
1000
0010
,
0100
0001
0010
0001
,
0100
0000
0010
0000
1000
0001
0000
0220
,
0000
0330
0000
0000
,
0000
0001
0010
0001
0010
0000
0000
0000
,
0000
0100
1000
0100
1000
0000
0000
0000
,
0110
1001
1100
0011
,
1000
0001
0000
0220
0000
0000
0000
0330
,
1000
0000
0000
1000
0000
0000
1000
0000
,
0000
0001
0000
0000
0001
0000
0001
0000
,
1000
0000
0000
1000
0000
0000
1000
0000
,
0000
0001
0000
0000
0001
0000
0001
0100
,
0010
1000
0000
0010
0000
1000
0000
0010
,
1000
0100
0000
1000
0000
0100
0000
0010
,
0001
0100
0000
0001
0000
0100
0000
0010
,
1010
0101
1001
0000
,
1000
0100
1000
0100
0010
0001
0010
0001
,
0100
0010
0100
0010
1000
0001
1000
0000
,
0010
0100
0010
0100
0001
0010
0001
0010
,
0100
1000
0000
0220
0000
0330
0000
0001
,
0010
0000
0000
0100
0000
0100
0000
0000
1000
0000
0000
0010
0000
0010
0000
0000
,
0100
0000
0001
0000
1000
0000
0100
0010
0000
0000
0000
0000
0000
0000
0001
0000
,
0010
0000
0000
0100
0000
0100
0000
0000
1000
0000
0000
0010
0000
0010
0000
0000
,
0100
0000
0001
0000
1000
0000
0100
0010
0000
0000
0000
0000
0000
0000
0001
0000
,
0100
0010
0000
0000
1000
0000
0000
0000
0010
0000
0000
0000
0100
0000
0001
0000
,
1000
0000
0100
0000
1000
0000
0010
0100
,
0001
1000
0000
0000
0100
0000
0000
0000
0010
0001
0000
0000
0100
0000
0000
0000
,
0010
1000
0000
0220
0000
0000
0330
0000
,
0001
0011
1000
1100
,
0010
1010
0100
0101
,
0010
0011
0010
0011
,
0100
1100
0100
1100
,
0010
0000
0110
0000
0001
0001
1001
0000
,
0100
0000
0110
0000
1000
1000
1001
0000
,
0100
1000
1100
0000
0010
0001
0011
0000
,
0100
1000
0010
1000
0100
0010
1001
0000
,
0001
0001
1000
1000
,
0001
0001
1000
1000
,
0100
0100
0010
0010
,
0100
0100
0010
0010
,
0001
0100
0001
0100
,
1000
0100
1000
0100
,
0001
0010
0001
0010
,
1000
0010
1000
0010
,
0001
1000
0001
1000
,
0100
0000
0100
0000
0010
0001
0100
0000
,
0010
0000
0010
0000
0100
0001
0010
0000
,
0100
0000
0100
0000
1000
0010
0001
0000
,
0100
0000
0100
0000
1100
0000
0010
0001
,
0010
0000
1100
0000
1000
0010
0010
0000
,
0100
0001
0100
0001
0100
0010
0000
2002
,
0000
3003
0000
0110
,
1000
0000
0000
1000
0000
0000
0100
0000
1000
0000
0000
1000
0000
0000
0010
0000
,
0100
0000
0000
0100
0000
0000
0001
0000
0100
0000
0000
0100
0000
0000
0010
0000
,
1000
0000
0000
1000
0000
0000
0100
0000
1000
0000
0000
1000
0000
0000
0010
0000
,
0100
0000
0000
0100
0000
0000
0001
0000
0100
0000
0000
0100
0000
0000
0010
0000
,
1000
0000
0100
0000
1000
0000
0010
0100
,
0001
0000
0100
0000
0010
0000
1000
0100
,
0010
0000
0100
0000
0001
0100
0000
2002
,
0000
3003
0000
0000
,
0100
0100
0100
1000
,
0010
0010
0010
0001
,
0100
0100
0100
1000
,
0010
0000
0010
0000
0010
0000
0001
1001
,
0000
0000
0000
0000
,
0000
0000
0000
0000
,
0000
0000
0000
0000
,
0000
0000
0000
0000
,
1100
0000
0010
0100
,
0001
0010
0000
0000
0011
0000
0000
0000
,
0000
0100
1000
0001
0100
0001
1000
0100
,
1000
0010
0000
0220
0000
0330
0000
0000
,
0001
0010
0001
0010
0100
1000
0100
1000
,
0010
0100
0000
0220
0000
0330
0000
0000
,
0000
0000
1000
0000
0100
0000
0010
0000
0001
0000
0000
0010
0100
0000
1000
0000
,
0010
0100
0000
0220
0000
0330
0000
0000
,
0001
0010
0001
0010
0001
0010
0100
1000
,
0010
0100
0000
0220
0000
0330
0000
0000
,
1000
0100
0010
0100
1000
0010
0100
0010
,
1000
0001
0000
2002
0000
3003
0000
0000
,
0001
0010
1000
0010
0000
0001
0100
0000
,
0001
1000
0000
2002
0000
3003
0000
0000
,
0100
1000
0010
0001
0010
1000
0100
0010
,
0001
1000
0000
2002
0000
3003
0000
0000
,
0110
0000
1000
0001
1000
0010
0100
0001
,
1000
0001
0000
2002
0000
3003
0000
0000
,
0000
0010
0100
1000
0100
0010
0001
0010
,
0100
1000
0000
2020
0000
3030
0000
0000
,
0100
0001
0010
1000
,
0100
0001
0000
0202
0000
0303
0000
0000
,
0010
0100
0010
0100
0010
0100
0010
0100
,
1000
0010
0000
2020
0000
3030
0000
0000
,
0100
0001
0100
0001
0010
0100
1000
0100
,
0010
0001
0000
0022
0000
0033
0000
0000
,
0100
1000
0010
1000
0100
1000
0010
0100
,
0001
0010
0100
1000
0000
0000
0220
0000
,
0000
0000
0000
0000
,
0000
0000
0000
0000
0000
0000
0000
0330
0000
0000
0000
0000
0000
0000
0000
0000
;

//---------------dance-single - ----------------
#NOTES:
     dance-single:
     :
     Challenge:
     9:
     0.635,0.712,0.377,0.015,0.302,1109.000,103.000,4.000,0.000,0.000:
1010
0000
0000
0000
0100
0000
0001
0000
0000
0100
0001
0000
0010
0000
0100
0000
,
1100
0000
0000
0000
0010
0000
0001
0000
0000
0010
0001
0000
0100
0000
0010
0000
,
1001
0000
0000
0000
0100
0000
0010
0000
0000
0100
0001
0000
0010
0000
0100
0000
,
0110
0000
0000
0000
1000
0000
0001
0000
0000
1000
0010
0000
0000
0100
0000
0001
,
0100
0000
0000
0000
0010
0000
1010
0000
0000
0100
0001
0000
0100
0000
0010
0000
,
1000
0000
0000
0000
0100
0000
1100
0000
0000
0010
0001
0000
0010
0000
0100
0000
,
1000
0000
0000
0000
0010
0000
1010
0000
0000
0100
0001
0000
0100
0000
0010
0000
,
1000
0100
1000
0100
0010
0001
0010
0001
0100
0000
0001
0000
1001
0000
0000
0000
,
0100
0000
1000
0000
0100
1000
0010
0100
,
0001
0000
0100
0000
0001
0010
0100
1000
,
0010
0000
1000
0000
0100
0001
0100
1000
,
0010
0000
0000
0000
0100
0000
0000
0000
0001
0000
0010
0000
0000
1000
0000
0010
,
0001
0000
0100
0000
0001
0010
0001
0100
,
0001
0000
1000
0000
0100
0010
0100
1000
,
0100
0000
0010
0000
0001
1000
0001
1000
0001
0000
0100
0000
0000
0000
0010
0000
,
0100
0000
0101
0000
0010
0100
0010
1000
,
0100
0000
0000
0011
0000
0010
0000
0000
0100
0000
0000
1010
0000
0010
0000
0000
,
0100
0000
0001
0000
0010
0000
0100
1000
0000
0000
0100
0000
0010
0000
0001
0000
,
0100
0000
0000
1001
0000
0100
0000
0000
0010
0000
0000
1001
0000
0010
0000
0000
,
0100
0000
0001
0000
0010
0000
0100
0010
0000
0000
0001
0000
0100
0000
0010
0000
,
1000
0100
0000
0000
0010
0000
0100
0000
1000
0000
0100
0000
0010
0000
0000
0000
,
1001
0000
0100
0010
1000
0010
0100
0001
,
1000
0001
0000
0000
0010
0000
0100
0000
1000
0000
0100
0000
0010
0000
0001
0000
,
0100
0000
0001
0000
0000
0000
0100
0000
0001
0000
0010
0000
0100
0010
0100
0000
,
1000
0000
0000
0010
0000
1010
0000
0000
0001
0000
0000
0010
0000
0011
0000
0000
,
1000
0000
0001
0000
1000
0000
0100
0010
0000
0000
0001
0000
0010
0000
0100
0000
,
1000
0000
0000
0010
0000
0110
0000
0000
0001
0010
0000
0100
0000
0110
0000
0000
,
1000
0000
0010
0000
0100
0000
0001
0100
0000
0000
0010
0000
1000
0000
0100
0000
,
0001
0100
0000
0000
1000
0000
0000
0000
0010
0000
0001
0000
0010
0000
1000
0000
,
0100
0010
0001
0000
0100
1000
0100
0001
,
0010
0100
0000
0000
1000
0000
0000
0000
0100
0000
0001
0000
0100
0000
1000
0000
,
0010
0100
0000
0010
0100
0001
1000
0001
,
1000
0000
0000
0100
0000
0010
0000
0000
0001
0000
0000
0100
0000
0010
0000
0000
,
1000
0000
0000
0100
0000
0100
0000
0000
0010
0000
0000
0001
0000
0001
0000
0000
,
0100
0000
0000
0010
0000
1000
0000
0000
0010
0000
0000
0100
0000
0001
0000
0000
,
0010
0000
0000
0100
0000
1000
0000
0100
0010
0000
0001
0010
0000
0001
0000
0000
,
0100
0000
0010
1000
0000
0010
0000
0000
0100
0000
0001
0010
0000
0001
0000
0000
,
0100
0000
0010
1000
0000
0010
0000
0100
0001
0000
1000
0100
0000
1000
0000
0000
,
0010
0000
0100
0001
0000
0100
0000
0000
0010
0000
1000
0001
0000
1000
0000
0000
,
0100
0000
0010
0001
0000
0010
0000
0100
1000
0000
0001
0000
1001
0000
0000
0000
,
0100
0100
0010
0000
0001
0100
1000
0100
,
0001
0001
0010
0000
0100
1000
0010
0001
,
0010
0000
0010
0000
1000
0000
0000
0000
0100
0000
0100
0000
1000
0001
1000
0000
,
0001
0000
0100
0000
0100
0000
0000
0000
0010
0000
1000
0000
0100
0010
0100
0000
,
0010
0000
0001
0000
0100
0001
0000
0000
0100
0000
0010
0000
1000
0010
0000
0000
,
0100
0000
0001
0000
1000
0001
0000
1000
0001
0000
0100
0000
0010
1000
0000
0000
,
0100
0000
0010
0000
0001
0010
0000
0000
0100
0000
1000
0000
0100
1000
0000
0010
,
0100
0000
0001
0000
0100
0010
0000
0000
1001
0000
0000
0000
0000
0000
0100
0000
,
0010
0000
0000
0001
0000
0101
0000
0000
0010
0000
0000
1000
0000
1100
0000
0000
,
0010
0000
0001
0000
0100
0000
0010
1000
0000
0000
0100
0000
0010
0000
0100
0000
,
1000
0000
0000
0010
0000
1010
0000
0000
0001
0010
0000
0100
0000
1100
0000
0000
,
0010
0000
0100
0000
0001
0000
0100
0010
0000
0000
1000
0000
0100
0000
0001
0000
,
0100
1000
0000
0000
0010
0000
0100
0000
0001
0000
0100
0000
0010
0000
1000
0000
,
0100
0000
0010
0001
0010
0100
0010
0001
,
0100
0010
0000
0000
1000
0000
0100
0000
0001
0000
0000
0000
0001
0000
0100
0000
,
1000
0001
1000
0001
0100
1000
0100
0001
,
0010
0000
0000
0100
0000
0110
0000
0000
1000
0000
0000
0010
0000
0110
0000
0000
,
0001
0000
0010
0000
0100
0000
1000
0001
0000
0000
0100
0000
0001
0000
0010
0000
,
0001
0000
0000
0100
0000
0110
0000
0000
1000
0010
0000
0100
0000
0110
0000
0000
,
0001
0000
0010
0000
0100
0000
1000
0001
0000
0000
0100
0000
0001
0000
0010
0000
,
0001
0100
0000
0000
0010
0000
1000
0000
0100
0000
1000
0000
0010
0000
0000
0000
,
1001
0000
0100
0001
0010
0001
0100
0010
,
1000
0001
0000
0000
0010
0000
0100
0000
1000
0000
0100
0000
0010
0000
0001
0000
,
0101
0000
0000
1010
0000
0000
0000
0000
,
1000
0100
0000
0000
0001
0010
0000
0000
,
1000
0100
0000
0000
0001
0010
0000
0000
,
0110
0000
1100
0000
,
0110
0000
0011
0000
,
0100
0001
0000
0000
0010
1000
0000
0000
,
0100
0001
0000
0000
0010
1000
0000
0000
,
1100
0000
0110
0000
,
0011
0000
0110
0000
,
1000
0100
1000
0010
1000
0100
0010
0000
,
0001
0100
0001
0010
0001
0100
0010
0000
,
1000
0100
0001
0100
1000
0010
0100
0000
,
0001
0010
1000
0010
0001
0100
0010
0000
,
1000
0010
0100
0010
1000
0001
0010
0100
,
0010
0001
1000
0010
0100
0010
1000
0001
,
0010
0010
0010
0100
0010
0010
0010
0001
,
0100
0010
0100
0010
1000
0001
1000
0001
1000
0000
0000
0000
0000
0000
0100
0000
,
0010
0000
0000
0011
0000
0011
0000
0000
0100
0000
0000
1100
0000
1100
0000
0000
,
0010
0000
0001
0000
0100
0000
0001
0010
0000
0000
0100
0000
1000
0000
0010
0000
,
1000
0000
0000
1100
0000
1100
0000
0000
0001
0010
0000
0011
0000
0011
0000
0000
,
0100
0000
1000
0000
0010
0000
0100
0001
0000
0000
0100
0000
0010
0000
1000
0000
,
0001
1000
0000
0000
0100
0000
0010
0000
0001
0000
0010
0000
0100
0000
0000
0000
,
1000
0000
0010
0100
0001
0100
0010
1000
,
0001
1000
0000
0000
0100
0000
1000
0000
0010
0000
0000
0000
0100
0000
0001
0000
,
0010
0010
0100
0100
1000
1001
1001
0000
,
0001
0100
0001
0100
,
0010
0000
1000
0000
0010
0000
1000
0001
,
1000
0100
1000
0010
0100
0000
0000
0101
,
1001
0000
1100
0000
0010
0001
0010
0000
,
0001
0000
0100
0010
0100
0000
0010
0000
,
1000
0000
0100
0010
0100
0000
0010
0000
,
0001
0011
1100
1100
,
0010
0001
0000
2002
0000
0000
0000
3003
,
1000
0000
0100
0010
0000
0100
0010
0000
,
0001
0010
0000
0100
0010
0000
0110
0000
,
1000
0000
0010
0100
0000
0010
0100
0000
,
0001
0010
0000
0100
0010
0000
0110
0000
,
0001
0100
0000
0100
0000
0100
0010
1000
,
0000
1000
0000
1000
0100
0010
0000
0010
,
0001
0100
0000
0100
0010
1000
0100
1000
,
1100
0011
1001
0000
,
0001
0100
1000
0100
0001
0010
1000
0010
,
0001
0100
0010
0100
0001
0010
0100
0000
,
1000
0010
0001
0010
1000
0100
0010
0100
,
1000
0010
1000
0000
0010
0000
0100
0001
,
0010
0000
0000
0100
0000
1100
0000
0000
0010
0000
0000
0100
0000
0101
0000
0000
,
0010
0000
0100
0000
0010
0000
0001
1000
0000
0000
0100
0000
0010
0000
0100
0000
,
1000
0000
0000
0010
0000
1010
0000
0000
0001
0010
0000
0100
0000
0110
0000
0000
,
1000
0000
0010
0000
1000
0000
0010
0100
0000
0000
0001
0000
1000
0000
0001
0000
,
1000
0010
0000
0000
0100
0000
0001
0000
0100
0000
0010
0000
1000
0000
0010
0000
,
1000
0100
0010
0001
0010
0100
1000
0100
,
0010
0001
0000
0000
0010
0000
0001
0000
0100
0000
0010
0000
0100
0000
0001
0000
,
0010
0100
1000
0100
0010
0001
1001
0000
,
0100
1000
0100
1000
,
0010
0001
0010
0001
,
0100
1000
0100
1000
,
0010
0001
0010
0001
,
0100
0000
0010
0000
1000
0100
1000
0100
,
0010
0000
0100
0000
0001
0010
0001
0010
,
0100
1001
0010
1001
,
0100
0100
0010
0010
0100
0100
1001
0000
,
0001
0010
0001
0000
0010
0001
0010
0000
,
1000
0100
1000
0000
0100
1000
0100
0000
,
1000
0010
0100
0000
0010
0100
0001
0000
,
0001
0100
0010
0000
0100
0010
1000
0000
,
0100
0010
0001
0010
0100
0000
1001
0000
,
0010
0100
1000
0100
0010
0000
1001
0000
,
0100
0001
0100
0001
1000
0100
1000
0100
,
0010
0001
0010
0001
1000
0100
1000
0100
,
0010
0000
0011
0000
0100
1000
0100
0000
,
0010
0000
1010
0000
0100
0001
0100
0010
,
1000
0000
1100
0000
0010
1000
0010
0100
,
0001
0000
0011
0000
0100
0010
0100
0000
,
0001
0000
0001
0000
1001
0000
1000
0100
,
0001
0000
0100
0000
1000
0010
0010
0000
,
0100
0001
0100
0001
0100
0010
0000
1001
,
0000
1000
0001
0000
0011
0000
1100
0000
,
0010
0000
0000
0001
0000
0010
0000
0000
0100
0000
0000
1000
0000
0100
0000
0000
,
1000
0000
0000
0001
0000
0010
0000
0000
0001
0000
0000
1000
0000
0100
0000
1000
,
0010
0000
0000
0100
0000
0010
0000
0000
0100
0000
0000
0010
0000
0100
0000
0000
,
0001
0000
0000
1000
0000
0001
0000
0000
1000
0000
0000
0001
0000
1000
0000
0001
,
0010
0010
0100
0100
,
1000
0000
0001
1000
0001
0000
1000
0000
,
0100
0000
1100
0000
0010
0001
0010
0001
,
0010
0100
0010
0000
,
1001
1000
0100
0001
,
1001
0001
0010
1000
,
1001
1000
0100
0001
,
1001
0000
0001
0000
0010
0000
1000
1001
,
0000
0000
0000
0000
,
0000
0000
0000
0000
,
1001
0000
0000
0000
,
0000
0000
0000
0000
,
1000
0100
1000
0100
,
0010
0001
0010
0000
0001
0000
0100
0000
,
0010
1000
0010
1000
0100
0001
0100
0010
,
1000
0001
0000
1001
0000
0000
0000
0000
,
1000
0100
0010
0100
1000
0100
0010
0001
,
0100
0010
0000
0110
0000
0000
0000
0000
,
0000
0000
0001
0000
0100
0000
1000
0000
0100
0000
0000
0001
0010
0000
0100
0000
,
1000
0100
0000
1100
0000
0000
0000
0000
,
0010
0010
0100
0100
0010
0010
0100
1000
,
0010
0100
0000
0110
0000
0000
0000
0000
,
0001
0010
0100
0010
0001
0100
1000
0100
,
0001
0010
0000
0110
0000
0000
0000
0000
,
1000
0100
0010
0100
0000
1000
0100
0000
,
0010
0001
0000
0011
0000
0000
0000
0000
,
0001
0100
1000
0100
0001
0100
1000
0100
,
0001
0010
0000
0110
0000
0000
0000
0000
,
1010
0000
0100
0001
0100
0010
0100
0001
,
0010
0100
0000
0110
0000
0000
0000
0000
,
0000
1000
0100
0001
0100
1000
0100
0001
,
0100
1000
0000
1010
0000
0000
0000
0000
,
0100
0101
1010
0101
,
0010
0100
0000
0110
0000
0000
0000
0000
,
1000
0000
0100
0010
0000
0000
0100
0010
0000
0000
0100
0010
0000
0000
0000
0000
,
0001
0100
0000
0101
0000
0000
0000
0000
,
0010
1000
0010
0001
0010
0100
0001
0010
,
0100
1000
0000
1100
0000
0000
0000
0000
,
0010
0001
0100
1000
0100
0001
0010
0100
,
1000
0100
0010
0001
0000
0000
2002
0000
,
0000
0000
0000
0000
,
0000
0000
0000
0000
0000
0000
0000
3003
0000
0000
0000
0000
0000
0000
0000
0000
;

//---------------dance-double - ----------------
#NOTES:
     dance-double:
     :
     Hard:
     8:
     0.552,0.678,0.201,0.168,0.155,956.000,55.000,46.000,0.000,0.000:
00100000
00000000
00010000
10000000
00000000
01000000
00010000
00000000
,
00000010
00000000
00001000
00000001
00000000
00000010
00001000
00000000
,
01000000
00000000
00010000
10000000
00000000
00100000
00010000
00000000
,
00000100
00000000
00000000
00000000
00001000
00000000
00000001
00000000
00000000
00000000
00000010
00000000
00000000
00001000
00000000
00010000
,
00001000
00000000
01000000
00100000
00000000
10000000
01000000
00010000
,
00001000
00000000
01000000
00100000
00000000
10000000
01000000
00010000
,
00001000
00010000
00000100
00000010
00000001
00000010
00000100
00010000
,
00001000
00000000
00000100
00000000
00000001
00000000
00001000
00000000
00000001
00001000
00000001
00001000
00000001
00000000
00000000
00000000
,
00000100
00000000
00000010
00000000
00000100
00001000
00010000
00000000
,
01000000
00000000
00100000
00000000
01000000
00010000
00001000
00010000
,
00000100
00000000
00000010
00000000
00000001
00000100
00001000
00000000
,
01000000
00000000
00000000
00000000
00100000
00000000
00000000
00000000
10000000
00000000
01000000
00000000
00000000
00010000
00000000
00001000
,
00010000
00000000
00001000
00000000
00000100
00000000
00000001
00000010
,
00000001
00000000
00000100
00000000
00001000
00000000
00010000
00001000
,
00010000
01000000
10000000
00100000
01000000
00001000
00000000
00022000
,
00000000
00000000
00033000
00000000
00000000
00000000
00000000
00000010
,
00000001
00000000
00000000
00000100
00000000
00000001
00000000
00000000
00000100
00000000
00000000
00001000
00000000
00010000
00000000
00000000
,
00001000
00000000
01000000
00000000
00100000
00000000
10000000
00100000
00000000
00000000
00000000
00000000
00000000
00000000
00100000
00000000
,
10000000
00000000
00000000
01000000
00000000
10000000
00000000
00000000
01000000
00000000
00000000
00010000
00000000
00001000
00000000
00000000
,
00010000
00000000
00000010
00000000
00000100
00000000
00000001
00000100
00000000
00000000
00000000
00000000
00000000
00000000
00000100
00000000
,
00001000
00010000
00000000
00000000
00001000
00000000
00000000
00000000
00010000
00000000
00000000
00000000
01000000
00000000
10000000
00000000
,
01000000
00000000
00010000
00000000
00001000
00000000
00000100
00000001
,
00000100
00001000
00000000
00000000
00010000
00000000
00000000
00000000
00001000
00000000
00000000
00000000
00010000
00000000
00000000
00000000
,
01000000
00100000
00000000
20020000
00000000
30030000
00000000
00100000
,
10000000
00000000
00000000
00100000
00000000
00010000
00000000
00000000
00001000
00000000
00000000
00010000
00000000
00001000
00000000
00000000
,
00000100
00000000
00000001
00000000
00000010
00000000
00000100
00000010
00000000
00000000
00000000
00000000
00000000
00000000
00000010
00000000
,
00000001
00000000
00000000
00000010
00000000
00001000
00000000
00000000
00010000
00000000
00000000
00001000
00000000
00010000
00000000
00000000
,
01000000
00000000
10000000
00000000
00100000
00000000
01000000
00100000
00000000
00000000
00000000
00000000
00000000
00000000
10000000
00000000
,
01000000
00100000
00000000
00000000
01000000
00000000
00000000
00000000
00100000
00000000
00000000
00000000
00001000
00000000
00010000
00000000
,
00001000
00000000
00000100
00000000
00000010
00000000
00001000
00000001
,
00001000
00000001
00000000
00000000
00000100
00000000
00000000
00000000
00001010
00000000
00000000
00000000
00010000
00000000
00000000
00000000
,
00001000
00010000
00000000
00001000
00001000
00001000
00010000
00010000
,
00010000
00000000
01000000
00000000
10000000
00010000
10000000
00000000
,
00100000
00000000
00010000
00000000
00001000
00010000
00001000
00000000
,
00000100
00000000
00000010
00000000
00001000
00000001
00001000
00000000
,
00000100
00000000
00010000
00000000
00100000
01000000
00100000
01000000
,
00100000
00000000
00000000
00000000
10000000
00000000
00000000
00000000
01000000
00000000
00100000
00000000
01000000
00100000
00000000
00000000
,
00001000
00000000
00000000
00000000
00010000
00000000
00000000
00000000
00000100
00000000
00000010
00000000
00000100
00000010
00000000
00000000
,
00000001
00000000
00000000
00000000
00000100
00000000
00000000
00000000
00001000
00000000
00010000
00000000
00001000
00010000
00000000
00000000
,
00100000
00000000
00000000
00000000
10000000
00000000
00000000
00000000
00010000
00000000
10000000
00000000
00010000
10000000
00010000
00000000
,
10000000
00000000
11000000
00000000
00010000
00001000
00011000
00000000
,
00000010
00000000
00000011
00000000
00000100
00000010
00000110
00000000
,
00010000
00000000
00011000
00000000
01000000
00010000
01010000
00000000
,
00100000
00000000
10100000
00000000
01000000
00010000
00100000
01000000
,
10000000
01000000
00010000
00000000
01000000
00010000
00001000
00000000
,
00001000
00010000
00100000
00000000
00100000
00010000
00001000
00000000
,
00001000
00000100
00000001
00000100
00000010
00001000
00000100
00000001
,
00000100
00001000
00000001
00000100
00001000
00000000
00011000
00010000
,
01000000
00000000
00000000
10000000
00000000
10000000
00000000
00000000
01000000
00000000
00000000
00010000
00000000
00010000
00000000
00000000
,
00001000
00000000
00010000
00000000
00001000
00000000
00000100
00000010
00000000
00000000
00000000
00000000
00000000
00000000
00000100
00000000
,
00000001
00000000
00000000
00000010
00000000
00000010
00000000
00000000
00001000
00000000
00000000
01000000
00000000
01000000
00000000
00000000
,
00100000
00000000
10000000
00000000
00100000
00000000
01000000
00010000
00000000
00000000
00000000
00000000
00000000
00000000
00100000
00000000
,
01000000
10000000
00000000
00000000
01000000
00000000
00000000
00000000
00100000
00000000
00000000
00000000
01000000
00000000
00010000
00000000
,
00001000
00000000
00000100
00000000
00000010
00000000
00000100
00000001
,
00001000
00000100
00000000
00000000
00000010
00000000
00000000
00000000
00001000
00000000
00000000
00000000
00010000
00000000
00000000
00000000
,
00001000
00010000
00000000
00022000
00000000
00033000
00000000
01000000
,
10000000
00000000
00000000
00100000
00000000
00010000
00000000
00000000
00001000
00000000
00000000
00010000
00000000
01000000
00000000
00000000
,
10000000
00000000
01000000
00000000
00010000
00000000
00001000
00010000
00000000
00000000
00000000
00000000
00000000
00000000
00000100
00000000
,
00001000
00000000
00000000
00000010
00000000
00000001
00000000
00000000
00000010
00000000
00000000
00001000
00000000
00000100
00000000
00000000
,
00000001
00000000
00000100
00000000
00000010
00000000
00001000
00010000
00000000
00000000
00000000
00000000
00000000
00000000
01000000
00000000
,
10000000
01000000
00000000
00000000
00100000
00000000
00000000
00000000
00010000
00000000
00000000
00000000
01000000
00000000
00001000
00000000
,
00010000
00000000
00000100
00000000
00000010
00000000
00000001
00000100
,
00000010
00000100
00000000
00000000
00000001
00000000
00000000
00000000
00000010
00000000
00000000
00000000
00001000
00000000
00000000
00000000
,
00010000
00001000
00000000
00022000
00000000
00033000
00000000
00000000
,
01000000
10000000
01000000
10000000
,
00010000
00100000
00010000
00100000
,
00001000
00010000
00001000
00010000
,
00000100
00001000
00000100
00001000
,
00000010
00000100
00000001
00000000
00000100
00000000
00001000
00000000
,
00000100
00000010
00001000
00000000
00000001
00000000
00000010
00000000
,
00001000
00010000
00001000
00000000
01000000
00000000
00100000
00000000
,
10000000
00010000
10000000
00000000
01000000
00000000
00100000
00000000
,
01000000
10000000
00100000
00010000
00000100
00001000
00000001
00000000
,
00000100
00000001
00000010
00001000
01000000
00010000
10000000
00000000
,
01000000
00100000
01000000
10000000
01000000
00010000
00001000
00000000
,
00000100
00000010
00000100
00000001
00000100
00001000
00010000
00000000
,
01000000
10000000
01000000
00100000
00010000
01000000
10000000
01000000
,
00010000
00100000
00001000
00000100
00000010
00001000
00000100
00000010
,
00000001
00000100
00000001
00000100
00000010
00001000
00000010
00001000
,
00000100
00010000
00000100
00010000
00000100
00000000
00010000
00000000
00022000
00000000
00000000
00000000
00033000
00000000
01000000
00000000
,
00100000
00000000
00000000
10000000
00000000
00100000
00000000
00000000
01000000
00000000
00000000
00010000
00000000
01000000
00000000
00000000
,
00100000
00000000
00010000
00000000
00001000
00000000
00010000
00001000
00000000
00000000
00000000
00000000
00000000
00000000
00000100
00000000
,
00000010
00000000
00000000
00000001
00000000
00000010
00000000
00000000
00000100
00000000
00000000
00001000
00000000
00000100
00000000
00000000
,
00000010
00000000
00001000
00000000
00010000
00000000
00001000
00010000
00000000
00000000
00000000
00000000
00000000
00000000
01000000
00000000
,
00100000
10000000
00000000
00000000
00100000
00000000
00000000
00000000
10000000
00000000
00000000
00000000
01000000
00000000
00010000
00000000
,
00001000
00000000
00010000
00000000
00001000
00000000
00000100
00000001
,
00000010
00000001
00000000
00000000
00000100
00000000
00000000
00000000
00000010
00000000
00000000
00000000
00010000
00000000
00000000
00000000
,
00001000
01000000
00100000
10000000
01000000
01000000
01000000
00000000
,
00010000
01000000
10000000
01000000
,
00010000
00001000
00000100
00000001
,
00000100
00000000
00001000
00000000
00010000
00001000
00000000
00022000
,
00000000
00000000
00033000
00000000
,
01000000
10000000
01000000
10000000
00100000
00000000
01000000
00000000
,
00001000
00010000
00001000
00010000
00000100
00000000
00000010
00000000
,
00000011
00001001
00001100
00011000
,
00010000
00001000
00000000
00022000
00000000
00000000
00033000
00000000
,
01000000
00000000
00000000
10000000
00000000
00000000
01000000
00000000
,
00000000
00001000
00000000
00000000
00010000
00000000
00001000
00000000
,
00000010
00000000
00000000
00000001
00000000
00000000
00000010
00000000
,
00000000
00010000
00000000
00000000
00001000
00000000
00010000
01000000
,
10000000
01000000
00000000
00100000
00000000
01000000
00000000
00100000
,
00010000
00100000
00000000
00001000
00000000
00010000
00000000
00001000
,
00000100
00000001
00000000
00000100
00001000
00010000
00000000
00001000
,
00010000
00100000
10000000
00100000
01000000
00010000
10010000
00000000
,
10000000
01000000
10000000
01000000
00010000
00001000
00010000
00001000
,
00000010
00000001
00000010
00000001
00000100
00000010
00000100
00000000
,
00000001
00000010
00000001
00000010
00001000
00010000
00001000
00010000
,
00001000
00010000
00000000
00022000
00000000
00033000
00000000
01000000
,
00100000
00000000
00000000
10000000
00000000
00010000
00000000
00000000
01000000
00000000
00000000
00001000
00000000
00010000
00000000
00000000
,
00000100
00000000
00001000
00000000
00000001
00000000
00000100
00000001
00000000
00000000
00000000
00000000
00000000
00000000
00000100
00000000
,
00000010
00000000
00000000
00001000
00000000
00000001
00000000
00000000
00000010
00000000
00000000
00001000
00000000
00010000
00000000
00000000
,
01000000
00000000
10000000
00000000
00010000
00000000
01000000
00010000
00000000
00000000
00000000
00000000
00000000
00000000
00100000
00000000
,
01000000
00100000
00000000
00000000
00010000
00000000
00000000
00000000
01000000
00000000
00000000
00000000
00010000
00000000
00100000
00000000
,
00001000
00000000
00010000
00000000
00000100
00000000
00000010
00000001
,
00000010
00000100
00000000
00000000
00001000
00000000
00000000
00000000
00000100
00000000
00000000
00000000
00001000
00000000
00000000
00000000
,
00000010
00010000
00000000
00022000
00000000
00033000
00000000
00000000
,
01000000
00010000
00100000
01100000
,
01000000
10000000
00100000
01100000
,
00001000
00011000
00010000
00011000
,
00000100
00000010
00000001
00001001
,
00000100
00001000
00010000
00011000
,
01000000
00100000
00010000
00011000
,
00000100
00001100
00000010
00000011
,
00000100
00001000
00000001
00001001
,
00000100
00000001
00000100
00000001
,
00001000
00000100
00001000
00000100
,
00010000
00001000
00010000
00001000
,
00100000
00010000
00100000
00010000
,
10000000
01000000
10000000
00000000
01000000
00100000
01000000
00000000
,
00100000
00010000
00100000
00000000
00010000
01000000
00010000
00000000
,
01000000
00001000
01000000
00000000
00001000
00010000
00001000
00000000
,
00010000
00000100
00010000
00000000
00000100
00000010
00000100
00000000
,
00001000
00000100
00000010
00000001
00001000
00000010
00000001
00000010
,
00000100
00000001
00000010
00001000
00010000
00001000
00000100
00001000
,
00010000
01000000
10000000
01000000
00100000
00010000
01000000
10000000
,
01000000
00100000
10000000
01000000
00010000
00001000
00010000
00100000
,
00010000
00000000
00001000
00000000
00011000
00000000
00000100
00000010
,
00000001
00000000
00000010
00000000
00000100
00001000
00001001
00000000
,
00000100
00001000
00010000
00001000
00000100
00001000
00000000
00011000
,
00000000
01000000
00100000
00000000
10000000
00000000
10010000
00000000
,
01000000
10000000
01000000
00010000
,
00001000
00010000
00001000
00000100
,
00000001
00000000
00000100
00000000
00001000
00010000
00001000
00000000
,
00010000
00000000
01000000
00000000
10000000
01000000
10000000
00000000
,
01000000
00100000
00010000
00100000
,
01000000
00000000
00010000
00000000
00001000
00000000
00000100
00000001
,
00000100
00000000
00000000
00000000
00001000
00010000
00000000
00022000
,
00000000
00000000
00033000
00000000
,
01000000
01000000
10000000
00100000
,
00010000
00010000
00001000
00000100
,
00000001
00000001
00000010
00000100
,
00001000
00000000
00001000
00000000
00000010
00000000
00010000
00011000
,
00000000
00000000
00000000
00000000
,
00000000
00000000
00000000
00000000
,
00000000
00000000
00000000
00000000
,
00000000
00000000
00000000
00000000
,
10100000
00000000
01000000
00010000
,
01000000
00100000
00000000
00000000
10100000
00000000
00000000
00000000
,
00000000
01000000
10000000
01000000
00010000
01000000
00010000
00001000
,
00010000
00001000
00000000
00022000
00000000
00033000
00000000
00000000
,
00000010
00000001
00000010
00000001
00000100
00000010
00000100
00000010
,
00010000
00001000
00000000
00022000
00000000
00033000
00000000
00000000
,
00000000
00000000
01000000
00000000
00100000
00000000
10000000
00000000
01000000
00000000
00000000
10000000
00010000
00000000
01000000
00000000
,
00001000
00010000
00000000
00022000
00000000
00033000
00000000
00000000
,
00000100
00000100
00000010
00000010
00000100
00000100
00001000
00000010
,
00010000
00001000
00000000
00022000
00000000
00033000
00000000
00000000
,
01000000
10000000
01000000
00100000
00010000
01000000
00100000
00010000
,
00001000
00010000
00000000
00022000
00000000
00033000
00000000
00000000
,
00000100
00000010
00000001
00000010
00000000
00000001
00000100
00000000
,
00000010
00010000
00000000
00022000
00000000
00033000
00000000
00000000
,
01000000
00100000
10000000
00100000
00010000
00100000
10000000
01000000
,
00100000
00001000
00000000
00022000
00000000
00033000
00000000
00000000
,
00000110
00000000
00000001
00000100
00000001
00000100
00000010
00000000
,
00010000
00001000
00000000
00022000
00000000
00033000
00000000
00000000
,
00000000
00100000
10000000
01000000
10000000
01000000
00100000
00001000
,
00010000
00001000
00000000
00022000
00000000
00033000
00000000
00000000
,
00000100
00000010
00000001
00000100
,
00001000
00010000
00000000
00022000
00000000
00033000
00000000
00000000
,
01000000
00100000
10000000
00010000
00100000
01000000
10000000
00100000
,
00010000
00001000
00000000
00022000
00000000
00033000
00000000
00000000
,
00000100
00000010
00000001
00001000
00000010
00000100
00000001
00000010
,
00001000
00010000
00000000
00022000
00000000
00033000
00000000
00000000
,
01000000
00100000
10000000
00100000
10000000
01000000
00010000
01000000
,
00010000
00001000
00000100
00000001
00000000
00000000
00002002
00000000
,
00000000
00000000
00000000
00000000
,
00000000
00000000
00000000
00000000
00000000
00000000
00000000
00003003
00000000
00000000
00000000
00000000
00000000
00000000
00000000
00000000
;
