#TITLE:Complecks Baby;
#SUBTITLE:;
#ARTIST:DJ Sharpnel;
#TITLETRANSLIT:;
#SUBTITLETRANSLIT:;
#ARTISTTRANSLIT:;
#CREDIT:;
#BANNER:complex bn.png;
#BACKGROUND:complex bg.png;
#LYRICSPATH:;
#CDTITLE:;
#MUSIC:Complecks Baby.ogg;
#OFFSET:-0.030;
#SAMPLESTART:85.469;
#SAMPLELENGTH:21.192;
#SELECTABLE:YES;
#BPMS:0.000=181.200;
#STOPS:;
#BGCHANGES:;
// cache tags:
#FIRSTBEAT:4.000;
#LASTBEAT:472.000;
#SONGFILENAME:Songs/SHARPNELSTREAMZ v2/Complecks Baby/Complecks Baby.sm;
#HASMUSIC:1;
#HASBANNER:1;
#MUSICLENGTH:157.185;
// end cache tags

//---------------dance-single - 14- (HPF&TYLR)----------------
#NOTES:
     dance-single:
     14- (HPF&TYLR):
     Challenge:
     14:
     1.000,1.000,0.146,0.566,1.000,1199.000,23.000,89.000,72.000,0.000:
0000
0000
0000
0000
,
2001
0000
3002
0103
0M00
0000
0020
1030
,
M000
0000
0002
0013
00M0
0000
0200
0310
,
00M0
0000
0200
1300
M000
0000
0020
0130
,
0M00
0000
0002
1003
M000
0000
0120
0130
,
0100
0000
2000
3100
0M00
0000
0020
0031
,
000M
0000
0200
0310
00M0
0000
2000
3100
,
0M00
0000
0020
0031
000M
0000
0200
0310
,
00M0
0000
2000
3001
002M
0000
0032
0000
,
0013
0100
1000
0000
0010
0000
0100
0000
0001
1000
0001
1000
0100
0000
0010
0000
,
0100
1000
0001
0000
1000
0000
0010
0000
1000
0100
1000
0100
0010
0000
0100
0000
,
0010
0001
1000
0000
0010
0000
1000
0000
0001
0100
0001
0100
0010
0000
1000
0000
,
0001
0010
0100
0000
1000
0000
0001
0000
1000
0010
1000
0010
0100
0000
0001
0000
,
1000
0100
0010
0000
0100
0000
1000
0000
0001
0100
0001
0100
0010
0000
1000
0000
,
0001
0010
0100
0000
0010
0000
0001
0000
1000
0100
1000
0100
0010
0000
0100
0000
,
0010
0001
1000
0100
0010
0001
1000
0010
0100
0001
1000
0100
1000
0001
0010
0100
,
0020
0000
0000
0000
0030
M00M
0MM0
0000
,
1000
0001
0010
0001
1000
0010
1000
0010
0100
0001
1000
0100
0010
0001
0010
0001
,
1000
0001
0100
0001
1000
0100
1000
0100
0010
0100
1000
0001
0100
0010
0100
0010
,
1000
0001
0010
0100
1000
0001
1000
0001
0010
0100
1000
0001
0100
0001
0100
0001
,
1000
0010
0100
0010
1000
0001
1000
0001
0010
0100
1000
0001
0010
0001
0100
0010
,
1000
0001
0100
0010
1000
0001
1000
0001
0100
0010
1000
0010
0100
0001
0100
0001
,
1000
0100
0010
0100
1000
0001
1000
0001
0100
0010
1000
0010
0100
0001
0100
0001
,
0010
0100
1000
0001
0010
0100
0010
0100
1000
0001
0100
0010
1000
0001
1000
0001
,
0010
0100
1000
0001
0100
0010
0100
0010
1000
0100
0010
0001
1000
0100
1000
0010
,
0100
0001
1000
0010
0100
0001
0100
0001
1000
0001
0010
0100
1000
0001
1000
0001
,
0100
0010
1000
0010
0100
0001
0100
0001
1000
0001
0010
0100
1000
0010
1000
0010
,
0100
0001
1000
0100
0010
0001
0010
0001
1000
0010
0100
0001
1000
0010
1000
0010
,
0100
0001
1000
0100
0010
0001
0010
0001
1000
0010
0100
0001
0010
0100
1000
0010
,
0100
0001
1000
0010
0100
0001
0100
0001
1000
0010
0100
0001
1000
0100
1000
0100
,
0010
0001
1000
0010
0100
0001
0100
0001
1000
0100
0010
0001
0100
0010
0100
0010
,
1000
0001
0010
0100
1000
0001
1000
0001
0100
0010
1000
0100
0010
0001
0010
0001
,
1M00
0000
0M00
0000
00M0
0002
10M3
1000
,
1001
0000
0001
0000
0010
0000
0100
0000
0040
0000
0000
0000
0000
0030
0100
0000
,
4000
0000
0000
0000
0001
3000
000M
0000
0400
0000
0000
0000
0010
0300
00M0
0000
,
1002
0000
0000
0000
0000
0000
0000
0000
0000
0000
0000
0000
0000
0000
0000
0000
0000
0000
0000
0000
0000
0000
0000
0000
2003
0000
0000
0000
0000
0000
0000
0000
0000
0000
0000
0000
0000
0000
0000
0000
0000
0000
0000
0000
0000
0000
0000
0000
0000
0000
0000
0000
0000
0000
0000
0000
3000
0000
0000
0000
0000
0000
0000
0000
0000
0000
0000
0000
0000
0000
0000
0000
0000
0000
0000
0000
0000
0000
0000
0000
0000
0000
0000
0000
0000
0000
0000
0000
0000
0000
0000
0000
0000
0000
0000
0000
2000
0000
0000
0000
0000
0000
0000
0000
0000
0000
0000
0000
0000
0000
0000
0000
0000
0000
0000
0000
0000
0000
0000
0000
0000
0000
0000
0000
0000
0000
0000
0000
0000
0000
0000
0000
0000
0000
0000
0000
0000
0000
0000
0000
0000
0000
0000
0000
3002
0000
0000
0000
0000
0000
0003
0000
0000
0000
0000
0000
0000
0000
0000
0000
0000
0000
0000
0000
0000
0000
0000
0000
0002
0000
0000
0000
0000
0000
0003
0000
0000
0000
0000
0000
0000
0000
0000
0000
0000
0000
0000
0000
0000
0000
0000
0000
,
0020
0030
0000
0000
0020
0030
0000
0000
0200
0300
0000
0000
0000
0000
0000
0000
1000
0000
0000
0000
0000
0000
0000
0000
0001
0000
0000
0000
0001
0000
0000
0000
,
0101
0100
0010
0010
1000
0000
0000
0001
,
0010
0010
0000
0100
1000
1000
0001
0001
,
0100
0000
0000
0000
0000
0000
0000
0000
0000
0000
0000
0000
0000
0000
0000
0000
0000
0000
0000
0000
0000
0000
0000
0000
0020
0000
0000
0000
0000
0000
0000
0000
0000
0000
0000
0000
0000
0000
0000
0000
0000
0000
0000
0000
0000
0000
0000
0000
0000
0000
0000
0000
0000
0000
0000
0000
0030
0000
0000
0000
0000
0000
0000
0000
0000
0000
0000
0000
0000
0000
0000
0000
0000
0000
0000
0000
0000
0000
0000
0000
0000
0000
0000
0000
0000
0000
0000
0000
0000
0000
0000
0000
0000
0000
0000
0000
0020
0000
0000
0000
0000
0000
0000
0000
0000
0000
0000
0000
0000
0000
0000
0000
0000
0000
0000
0000
0000
0000
0000
0000
0000
0000
0000
0000
0000
0000
0000
0000
0000
0000
0000
0000
0000
0000
0000
0000
0000
0000
0000
0000
0000
0000
0000
0000
0230
0000
0000
0000
0000
0000
0300
0000
0000
0000
0000
0000
0000
0000
0000
0000
0000
0000
0000
0000
0000
0000
0000
0000
0200
0000
0000
0000
0000
0000
0300
0000
0000
0000
0000
0000
0000
0000
0000
0000
0000
0000
0000
0000
0000
0000
0000
0000
,
0002
0003
0000
0000
0002
0003
0000
0000
2000
3000
0000
0000
0000
0000
000M
0000
00M0
0000
0M00
0000
M000
0000
0000
0000
0010
0000
0000
0000
0010
0000
0000
0000
,
0410
0000
0000
0000
0004
0300
0000
0000
1000
0003
0010
0000
1000
0000
0200
0000
,
1000
0010
1300
0001
,
0200
0000
0320
0000
1030
1000
0001
0010
,
0021
0000
0000
0030
0000
0000
0000
0000
0002
0000
0000
0000
2003
0000
0000
0000
,
3001
0100
0010
1000
0001
0100
0010
1000
0001
1000
0010
0100
0001
0010
0100
0010
,
0001
1000
0001
0100
0010
0100
0001
1000
0100
0010
0100
1000
0001
0010
0001
1000
,
0001
0100
0010
1000
0001
1000
0010
0100
0001
1000
0100
0010
0001
0100
0010
1000
,
0001
0001
0001
0001
0200
0000
0302
0000
,
2MM3
3200
2300
3020
0230
0302
0023
0230
,
1000
1300
0002
0023
,
0230
0000
2300
0000
3020
0000
0230
0000
0302
0000
2003
0000
3020
0000
0230
0300
,
0M00
0000
0000
0000
2000
3000
0200
0300
2000
3000
0200
0300
0000
0000
0000
0000
,
0020
0000
0032
0000
2003
0000
3200
0000
0320
0000
0230
0000
2300
0000
0002
3000
,
0100
0103
0020
2030
,
3002
0020
0000
0000
0000
0000
0033
00MM
,
0000
0000
0000
0000
0210
0000
0000
0000
2300
0000
0000
0000
3002
0000
0000
0003
,
1001
0000
1000
0010
0000
1001
1000
0010
,
0101
0000
0001
1000
0000
0101
0001
1000
,
1100
0000
0010
0001
0000
1100
0010
0001
,
1001
0000
1000
0010
0000
1001
1000
0010
,
0101
0000
0001
1000
0000
0101
0001
1000
,
1100
0000
1000
0001
0000
1100
1000
0001
,
0011
0000
1000
0010
0000
0011
1000
0010
,
0100
0001
1000
0000
1000
0000
0100
0000
0010
0001
0010
0001
1000
0000
0001
0000
,
1000
0010
0100
0001
1000
0001
0100
0010
1000
0001
1000
0100
0010
0001
0010
0001
,
1000
0001
0100
0010
1000
0010
0100
0001
1000
0100
1000
0100
0010
0001
0010
0001
,
0100
0010
1000
0001
1000
0010
0100
0001
1000
0001
1000
0100
0010
0001
0010
0100
,
1000
0001
0100
0001
0100
0010
1000
0010
0100
0001
1000
0001
0100
0001
1000
0001
,
1000
0100
0010
0001
1000
0001
0010
0100
1000
0001
0010
0001
0100
0010
0100
0001
,
1000
0100
0010
0001
1000
0001
0010
0100
1000
0001
1000
0001
0100
0010
0100
0001
,
0010
0100
1000
0001
0010
0001
1000
0100
0010
0001
1000
0001
1000
0010
0100
0001
,
1000
0001
0100
0010
1000
0001
1000
0010
0100
0001
1000
0100
0010
0001
0010
0001
,
0100
0010
0100
0001
1000
0010
1000
0001
1000
0010
0100
0001
1000
0100
1000
0001
,
0010
0001
1000
0001
1000
0010
0100
0001
1000
0100
1000
0100
0010
0001
0010
0001
,
0100
0010
0100
0001
1000
0100
1000
0001
1000
0100
0010
0001
0100
0010
0100
0001
,
0010
0100
1000
0001
0010
0001
1000
0001
0100
0010
1000
0001
0100
0010
1000
0001
,
1000
0100
0010
0001
1000
0100
0010
0001
1000
0001
0010
0100
1000
0010
0100
0001
,
1000
0001
0100
0010
1000
0001
1000
0001
1000
0100
1000
0001
0010
0100
0010
0001
,
0100
0010
0100
0001
1000
0100
1000
0001
0010
0100
1000
0001
0010
0001
0100
0010
,
4000
0004
0000
0000
0000
0000
0000
0000
0000
0000
0000
0000
0000
0000
0000
0000
0000
0000
0000
0000
0000
0000
0000
0000
,
3MM3
0000
MMMM
0000
,
0001
0100
0010
1000
0100
1000
0100
1000
0001
0010
0100
1000
0001
0100
0001
0100
,
0010
1000
0100
1000
0001
0010
0001
0010
0100
1000
0001
0100
0010
1000
0010
1000
,
0001
0100
0010
1000
0001
0100
0001
0100
0010
1000
0100
1000
0010
1000
0010
1000
,
0001
0010
0100
0010
0001
1000
0001
1000
0010
0100
0001
1000
0100
1000
0010
0100
,
0001
1000
0010
0100
0001
1000
0001
1000
0100
0010
0001
1000
0010
0100
0010
0100
,
0001
1000
0100
1000
0010
1000
0010
1000
0001
0010
0100
1000
0001
0100
0001
0100
,
0010
1000
0001
1000
0100
0010
0100
0010
0001
1000
0010
0100
0001
1000
0001
1000
,
0020
0000
0000
0030
0200
0000
0000
0300
0010
1000
0010
1000
0001
0000
0001
0000
,
1000
0100
0010
0100
1000
0001
1000
0001
0100
0010
1000
0010
0100
0001
0100
0001
,
1000
0100
0010
0100
1000
0010
1000
0010
0100
0001
1000
0100
0010
0001
0010
0001
,
1000
0010
0100
0001
1000
0010
1000
0010
0100
0001
1000
0001
0010
0100
0010
0100
,
1000
0001
0100
0010
1000
0010
1000
0010
0100
0001
1000
0100
0010
0001
0100
0010
,
1000
0100
0010
0100
1000
0001
1000
0001
0010
0100
1000
0010
0100
0001
0100
0001
,
1000
0100
0010
0100
1000
0010
1000
0010
0100
0001
1000
0001
0010
0100
0010
0100
,
4000
0004
0000
0000
0000
0000
0000
0000
0000
0000
0000
0000
0000
0000
0000
0000
0000
0000
0000
0000
0000
0000
0000
3000
,
0013
0100
1000
1000
0002
0000
2003
0000
,
3001
0100
0010
0000
0100
0000
0001
0000
1000
0100
1000
0100
0010
0000
0001
0000
,
0100
0010
1000
0000
0001
0000
0100
0000
0001
1000
0001
1000
0100
0000
0010
0000
,
0001
1000
0100
0000
0010
0000
0001
0000
0100
0010
0100
0010
1000
0000
0001
0000
,
0100
0010
1000
0000
0001
0000
1000
0000
0100
0010
0100
0010
0001
0000
1000
0000
,
0010
0100
0001
0000
1000
0000
0001
0000
1000
0100
1000
0100
0010
0000
0001
0000
,
0100
0010
1000
0000
0001
0000
0100
0000
0010
1000
0010
1000
0001
0000
1000
0000
,
0001
0010
0100
0000
1000
0000
0001
0000
1000
0010
1000
0010
0100
0000
0010
0000
,
1000
0100
0010
0000
0100
0000
1000
0000
0002
0000
0000
0000
2003
0000
0000
0000
,
3001
0100
0010
0000
0100
0000
0001
0000
1000
0010
1000
0010
0100
0000
0001
0000
,
1000
0001
0010
0000
0100
0000
1000
0000
0001
1000
0001
1000
0100
0000
0010
0000
,
0100
1000
0001
0000
1000
0000
0010
0000
0100
0001
0100
0001
1000
0000
0001
0000
,
0010
0100
1000
0000
0001
0000
1000
0000
0001
0010
0001
0010
0100
0000
0010
0000
,
0001
1000
0010
0000
0100
0000
0010
0000
1000
0010
1000
0010
0100
0000
0010
0000
,
1000
0001
0010
0000
0100
0000
1000
0000
0001
1000
0001
1000
0100
0000
0010
0000
,
0001
1000
0100
0010
0001
1000
0100
1000
0001
0010
0100
1000
0010
0100
0001
1000
,
0200
0000
2300
3002
,
M003
0M00
M000
000M
M000
0M00
M000
000M
,
M000
0M00
M000
000M
M000
0M00
M000
000M
,
M000
0M00
M000
000M
M000
0M00
M000
000M
,
M000
0M00
M000
000M
M000
0M00
M000
000M
,
M000
0000
0000
0000
;

//---------------dance-single - 11 (HPF!)----------------
#NOTES:
     dance-single:
     11 (HPF!):
     Hard:
     11:
     0.919,1.000,0.547,0.598,0.439,820.000,86.000,94.000,126.000,0.000:
0000
0000
0000
0000
,
2001
0000
3002
0103
0M00
0000
0020
1030
,
M000
0000
0002
0013
00M0
0000
0200
0310
,
00M0
0000
0200
1300
M000
0000
0020
0130
,
0M00
0000
0002
1003
M000
0000
0120
0130
,
0100
0000
2000
3100
0M00
0000
0020
0031
,
000M
0000
0200
0310
00M0
0000
2000
3100
,
0M00
0000
0020
0031
000M
0000
0200
0310
,
00M0
0000
2000
3001
002M
0000
0032
0000
,
0013
0100
1000
0000
0010
0000
0100
0000
0001
1000
0001
1000
0100
0000
0010
0000
,
0100
1000
0001
0000
1000
0000
0010
0000
1000
0100
1000
0100
0010
0000
0100
0000
,
0010
0001
1000
0000
0010
0000
1000
0000
0001
0100
0001
0100
0010
0000
1000
0000
,
0001
0010
0100
0000
1000
0000
0001
0000
1000
0010
1000
0010
0100
0000
0001
0000
,
1000
0100
0010
0000
0100
0000
1000
0000
0001
0100
0001
0100
0010
0000
1000
0000
,
0001
0010
0100
0000
0010
0000
0001
0000
1000
0100
1000
0100
0010
0000
0100
0000
,
0010
0001
1000
0100
0010
0001
1000
0010
0100
0001
1000
0100
1000
0001
0020
0200
,
0000
0000
0000
0000
0000
0000
0000
0000
0000
0000
0000
0000
0330
0MM0
0000
0000
0000
0000
0000
0000
0000
0000
0000
0000
,
1000
0001
0100
0100
1000
0001
0010
0010
,
1000
0001
0010
0010
0100
0001
0100
0100
,
1000
0001
0010
0010
1000
0001
0100
0100
,
1000
0001
0010
0010
1000
0001
0100
0100
,
1001
1000
0010
0010
0001
1000
0100
0100
,
0001
1000
0010
0010
0001
1000
0100
0100
,
0001
1000
0010
0010
0001
0010
0100
0100
,
0001
1000
0100
0100
0001
1000
0010
0010
,
1001
1000
0100
0100
0001
1000
0010
0010
,
0100
1000
0100
0100
0001
1000
0010
0010
,
0100
1000
0100
0100
0001
1000
0010
0010
,
0100
1000
0100
0100
0001
0100
0010
0010
,
1001
1000
0100
0100
0010
1000
0010
0010
,
0001
1000
0100
0100
0001
1000
0010
0010
,
0001
1000
0100
0100
0001
1000
0010
0010
,
0M01
0000
0M00
0000
00M0
0002
10M3
1000
,
1001
0000
0001
0000
0010
0000
0100
0000
0040
0000
0000
0000
0000
0030
0100
0000
,
4000
0000
0000
0000
0001
3000
000M
0000
0400
0000
0000
0000
0010
0300
00M0
0000
,
1002
0000
0000
0000
0000
0000
0000
0000
0000
0000
0000
0000
0000
0000
0000
0000
0000
0000
0000
0000
0000
0000
0000
0000
2003
0000
0000
0000
0000
0000
0000
0000
0000
0000
0000
0000
0000
0000
0000
0000
0000
0000
0000
0000
0000
0000
0000
0000
0000
0000
0000
0000
0000
0000
0000
0000
3000
0000
0000
0000
0000
0000
0000
0000
0000
0000
0000
0000
0000
0000
0000
0000
0000
0000
0000
0000
0000
0000
0000
0000
0000
0000
0000
0000
0000
0000
0000
0000
0000
0000
0000
0000
0000
0000
0000
0000
2000
0000
0000
0000
0000
0000
0000
0000
0000
0000
0000
0000
0000
0000
0000
0000
0000
0000
0000
0000
0000
0000
0000
0000
0000
0000
0000
0000
0000
0000
0000
0000
0000
0000
0000
0000
0000
0000
0000
0000
0000
0000
0000
0000
0000
0000
0000
0000
3002
0000
0000
0000
0000
0000
0003
0000
0000
0000
0000
0000
0000
0000
0000
0000
0000
0000
0000
0000
0000
0000
0000
0000
0002
0000
0000
0000
0000
0000
0003
0000
0000
0000
0000
0000
0000
0000
0000
0000
0000
0000
0000
0000
0000
0000
0000
0000
,
0020
0030
0000
0000
0020
0030
0000
0000
0200
0300
0000
0000
0000
0000
0000
0000
1000
0000
0000
0000
0000
0000
0000
0000
0001
0000
0000
0000
0001
0000
0000
0000
,
0101
0000
0100
0000
0010
0000
0010
0000
4000
0000
0000
0000
0000
3000
0001
0000
,
0010
0010
0000
0100
1000
1000
0001
0001
,
0100
0000
0000
0000
0000
0000
0000
0000
0000
0000
0000
0000
0000
0000
0000
0000
0000
0000
0000
0000
0000
0000
0000
0000
0020
0000
0000
0000
0000
0000
0000
0000
0000
0000
0000
0000
0000
0000
0000
0000
0000
0000
0000
0000
0000
0000
0000
0000
0000
0000
0000
0000
0000
0000
0000
0000
0030
0000
0000
0000
0000
0000
0000
0000
0000
0000
0000
0000
0000
0000
0000
0000
0000
0000
0000
0000
0000
0000
0000
0000
0000
0000
0000
0000
0000
0000
0000
0000
0000
0000
0000
0000
0000
0000
0000
0000
0020
0000
0000
0000
0000
0000
0000
0000
0000
0000
0000
0000
0000
0000
0000
0000
0000
0000
0000
0000
0000
0000
0000
0000
0000
0000
0000
0000
0000
0000
0000
0000
0000
0000
0000
0000
0000
0000
0000
0000
0000
0000
0000
0000
0000
0000
0000
0000
0230
0000
0000
0000
0000
0000
0300
0000
0000
0000
0000
0000
0000
0000
0000
0000
0000
0000
0000
0000
0000
0000
0000
0000
0200
0000
0000
0000
0000
0000
0300
0000
0000
0000
0000
0000
0000
0000
0000
0000
0000
0000
0000
0000
0000
0000
0000
0000
,
0002
0003
0000
0000
0002
0003
0000
0000
2000
3000
0000
0000
0000
0000
000M
0000
00M0
0000
0M00
0000
M000
0000
0000
0000
0010
0000
0000
0000
0010
0000
0000
0000
,
0410
0000
0000
0000
0004
0300
0000
0000
1000
0003
0010
0000
1000
0000
0200
0000
,
1000
0010
1300
0001
,
0200
0000
0320
0000
1030
1000
0001
0010
,
0021
0000
0000
0030
0000
0000
0000
0000
0002
0000
0000
0000
2003
0000
0000
3000
,
1001
0000
1001
0001
1000
0000
1010
0010
,
0100
0000
0110
0010
1000
0000
1001
0001
,
0010
0000
0110
0100
1000
0000
1001
0001
,
0101
0101
0101
0101
0200
0000
0302
0000
,
2MM3
3200
2300
3020
0230
0302
0023
0230
,
1000
1300
0002
0023
,
0230
0000
2300
0000
3020
0000
0230
0000
0302
0000
2003
0000
3020
0000
0230
0300
,
0M00
0000
0000
0000
2000
3000
0200
0300
2000
3000
0200
0300
0000
0000
0000
0000
,
0020
0000
0032
0000
2003
0000
3200
0000
0320
0000
0230
0000
2300
0000
0002
3000
,
0100
0103
0020
2030
,
3002
0000
0020
0000
0000
0000
0000
0000
0033
00MM
0000
0000
0000
0000
0020
0000
,
0000
0030
0200
0000
2300
0000
3002
0000
,
1003
0100
1000
0100
0010
0001
0010
0001
0010
0001
1000
0010
0100
0001
0100
0001
,
1000
0010
1000
0010
0100
0001
0100
0001
0100
0001
1000
0100
0010
0001
0010
0001
,
1000
0000
0010
0000
1000
0000
0010
0000
0100
0000
0001
0000
0100
0000
0001
0000
0100
0000
0001
0000
1000
0000
0100
0000
0010
0000
0000
0000
0200
0300
0000
0000
,
1000
0000
0000
0000
0002
0003
0000
0000
0100
0000
0000
0000
0020
0030
0000
0000
1000
0000
0000
0000
0200
0300
0000
0000
0010
0000
0000
0000
0002
0003
0000
0000
,
1000
0010
1000
0010
0100
0001
0100
0001
0100
0001
1000
0100
0010
0001
0010
0001
,
1000
0010
1000
0010
0100
0001
0100
0001
0100
0001
1000
0100
0010
0001
0010
0001
,
1000
0100
1000
0100
0010
0001
0010
0001
0010
0001
0100
0010
1000
0010
1000
0010
,
0100
0001
1000
0000
1001
0000
0000
0000
0001
1000
0100
0000
0110
0000
0010
0000
,
0110
1100
0011
1001
,
1010
0110
0101
1001
,
1100
0011
1100
1001
,
0101
1010
0110
1010
,
0101
1100
1001
0011
,
0110
1100
0011
1001
,
0101
0110
1010
1001
,
1100
0011
0110
1001
,
M011
M000
M110
M000
M011
M000
M101
00M0
,
10M1
00M0
11M0
00M0
01M1
00M0
10M1
00M0
,
M101
M000
M011
M000
M101
M000
M110
000M
,
101M
000M
110M
000M
011M
000M
110M
000M
,
10M1
00M0
01M1
00M0
11M0
00M0
10M1
0M00
,
1M10
0M00
0M11
0M00
1M01
0M00
1M10
0M00
,
M101
M000
M011
M000
M110
M000
M011
M000
,
0004
4000
0000
0000
0000
0000
0000
0000
0000
0000
0000
0000
0000
0000
0000
0000
0000
0000
0000
0000
0000
0000
0000
0003
,
3MM0
0000
MMMM
0000
,
0001
1000
0100
0100
0010
1000
0010
0010
,
0001
1000
0100
0100
0010
1000
0010
0010
,
0001
1000
0100
0100
0001
1000
0010
0010
,
0001
1000
0100
0100
0001
0100
0010
0010
,
1001
1000
0100
0100
0001
1000
0010
0010
,
0100
1000
0100
0100
0001
1000
0010
0010
,
0001
1000
0100
0100
0010
1000
0010
0010
,
0400
0000
0000
0300
0040
0000
0000
0030
0100
1000
0100
1000
0001
0000
0001
0000
,
1001
1000
0010
0010
0001
1000
0100
0100
,
0001
0100
0010
0010
0100
1000
0100
0100
,
0001
1000
0010
0010
0001
1000
0100
0100
,
0001
0100
0010
0010
0100
1000
0100
0100
,
1001
1000
0010
0010
0001
1000
0100
0100
,
0001
0100
0010
0010
0100
1000
0100
0100
,
0004
4000
0000
0000
0000
0000
0000
0000
0000
0000
0000
0000
0000
0000
0000
0000
0000
0000
0000
0000
0000
0000
0000
0003
,
3010
0100
1000
1000
0002
0000
2003
0000
,
3001
0100
0010
0000
0100
0000
0001
0000
1000
0100
1000
0100
0010
0000
0001
0000
,
0100
0010
1000
0000
0001
0000
0100
0000
0001
1000
0001
1000
0100
0000
0010
0000
,
0001
1000
0100
0000
0010
0000
0001
0000
0100
0010
0100
0010
1000
0000
0001
0000
,
0100
0010
1000
0000
0001
0000
1000
0000
0100
0010
0100
0010
0001
0000
1000
0000
,
0010
0100
0001
0000
1000
0000
0001
0000
1000
0100
1000
0100
0010
0000
0001
0000
,
0100
0010
1000
0000
0001
0000
0100
0000
0010
1000
0010
1000
0001
0000
1000
0000
,
0001
0010
0100
0000
1000
0000
0001
0000
1000
0010
1000
0010
0100
0000
0010
0000
,
1000
0100
0010
0000
0100
0000
1000
0000
0002
0000
0000
0000
2003
0000
0000
0000
,
3001
0100
0010
0000
0100
0000
0001
0000
1000
0010
1000
0010
0100
0000
0001
0000
,
1000
0001
0010
0000
0100
0000
1000
0000
0001
1000
0001
1000
0100
0000
0010
0000
,
0100
1000
0001
0000
1000
0000
0010
0000
0100
0001
0100
0001
1000
0000
0001
0000
,
0010
0100
1000
0000
0001
0000
1000
0000
0001
0010
0001
0010
0100
0000
0010
0000
,
0001
1000
0010
0000
0100
0000
0010
0000
1000
0010
1000
0010
0100
0000
0010
0000
,
1000
0001
0010
0000
0100
0000
1000
0000
0001
1000
0001
1000
0100
0000
0010
0000
,
0001
1000
0100
0010
0001
1000
0100
1000
0001
0010
0100
1000
0010
0100
0001
1000
,
0200
0000
2300
3002
,
M003
0M00
M000
000M
M000
0M00
M000
000M
,
M000
0M00
M000
000M
M000
0M00
M000
000M
,
M000
0M00
M000
000M
M000
0M00
M000
000M
,
M000
0M00
M000
000M
M000
0M00
M000
000M
,
M000
0000
0000
0000
;
