#TITLE:Scream Hard as You Can;
#SUBTITLE:;
#ARTIST:Fear, And Loathing In Los Vegas;
#TITLETRANSLIT:;
#SUBTITLETRANSLIT:;
#ARTISTTRANSLIT:;
#CREDIT:;
#BANNER:../ban - Jawn2.png;
#BACKGROUND:../Jawn2 - bg.png;
#LYRICSPATH:;
#CDTITLE:../CDa.png;
#MUSIC:Scream Hard As You Can.ogg;
#OFFSET:0.009;
#SAMPLESTART:168.673;
#SAMPLELENGTH:16.010;
#SELECTABLE:YES;
#DISPLAYBPM:240.000;
#BPMS:0.000=198.000,418.000=120.000,522.000=240.000;
#STOPS:;
#BGCHANGES:;
// cache tags:
#FIRSTBEAT:0.500;
#LASTBEAT:747.000;
#SONGFILENAME:Songs/Jimmy Jawns 2/Scream Hard As You Can - [Aoreo]/Scream Hard As You Can.sm;
#HASMUSIC:1;
#HASBANNER:1;
#MUSICLENGTH:236.454;
// end cache tags

//---------------dance-single - J. Nero----------------
#NOTES:
     dance-single:
     J. Nero:
     Challenge:
     14:
     1.000,1.000,0.461,0.186,0.892,1687.000,109.000,44.000,12.000,0.000:
0000
1000
1001
0002
0000
1003
1100
0100
,
0010
0001
1001
2000
0000
3001
0101
0100
,
0010
1000
1001
0002
0000
1003
1100
0100
,
0010
0000
0001
0000
1001
0000
2200
3300
0000
0000
0220
0330
0000
0000
0022
0033
,
0000
0001
0000
2001
0000
3001
0101
0000
,
0100
1010
0010
1100
,
1000
0100
0110
0010
0000
0001
1001
0000
,
1000
0000
0000
0000
1010
0000
0010
1000
0001
1000
0001
0010
0100
0000
1000
0000
,
0000
1010
0000
0110
0000
0100
0001
0010
,
0100
0000
0010
0000
0001
0000
1000
0100
1000
0000
0010
0000
0100
0000
0001
0000
,
0010
0000
0100
0000
1000
0000
2001
0000
0000
0000
3001
0100
0010
0000
1000
0000
,
0010
0000
1000
0000
0100
0000
0010
0001
1000
0000
0001
0000
0100
0000
0010
0000
,
0100
0000
0001
0000
1000
0000
2100
0000
0000
0000
3100
0010
0001
0000
0100
0000
,
0001
1000
0001
1000
0100
0000
1100
0000
0000
0000
1000
0001
0100
0000
0010
0000
,
1000
0001
1000
0001
0010
0000
0110
0000
0100
1000
0001
0100
0001
1000
0010
0100
,
0010
1000
0100
0010
0100
1000
0010
0100
0010
1000
0001
0010
0001
0010
0100
1000
,
0010
0100
0001
0010
0100
1000
0010
1000
0001
0000
0010
0000
0001
1000
0001
0000
,
1000
0000
0010
0000
1000
0100
0010
0000
0001
0000
0100
0000
0001
0010
0001
0000
,
0100
0000
0010
0000
1000
0001
1000
0000
0100
0000
0010
0000
0001
0010
0100
0000
,
1000
0000
0001
0000
1000
0010
1000
0000
0001
0000
0010
0000
0001
0000
0100
0000
,
0010
0000
2000
0000
0000
3000
1001
0000
0000
0000
0001
0000
1001
0000
1000
0000
,
0100
0010
0011
0001
1000
0010
1010
1000
,
0001
1000
0001
0020
0000
0130
0110
0010
,
0001
1000
1001
0001
0100
0010
1010
1000
,
0100
0010
0011
0002
0000
1003
1100
0100
,
1000
0010
0110
0100
0001
1000
1001
0001
,
0010
0100
1100
2000
0000
3010
1010
0000
,
1000
0001
0101
0100
0001
1000
1001
0000
,
1010
0000
0001
1002
0000
1003
1100
0100
,
0010
0000
0001
0000
1000
0000
0100
0000
1000
0000
0001
0000
0100
0000
0001
1000
,
0001
0010
0110
0100
1000
0001
0101
0100
,
0010
0000
1000
0000
0100
0000
0010
0000
0001
0000
0100
0000
0101
0000
0001
1000
,
0100
1000
1100
0100
1000
0010
0110
0100
,
0001
0000
1000
0000
0100
0000
0010
0000
0100
0000
1000
0000
1001
0000
0001
0010
,
0100
1000
1010
0010
0100
0001
1000
1010
,
0000
0000
0010
0000
1001
0000
1000
0100
1000
0001
0100
0010
0000
1000
0100
0000
,
0010
0001
1000
0000
0001
0100
0100
0000
,
0010
1000
1000
0000
0001
1000
1000
0000
,
0100
0010
0010
0001
0100
0010
0010
0000
,
1000
0100
0100
0000
1000
0010
0010
0000
,
1000
0001
0001
0100
0101
0000
0001
0010
,
0100
0010
0001
0100
0010
1000
0100
1000
,
0001
0000
0100
0000
0010
0000
1000
0000
0001
1000
0001
0010
0100
1000
0001
0100
,
0010
0000
0000
0000
0000
0000
0000
0000
0000
0000
0000
0000
1000
0000
0000
0000
0000
0000
0000
0000
0000
0000
0000
0000
0010
0000
0000
0000
0000
0000
0000
0000
0000
0000
0000
0000
0100
0000
0000
0000
0000
0000
0000
0000
0000
0000
0000
0000
0001
0000
0000
0000
0000
0000
0000
0000
0000
0000
0000
0000
0010
0000
0000
0000
0000
0000
0000
0000
0000
0000
0000
0000
0100
0000
0000
0000
0000
0000
0000
0000
0000
0000
0000
0000
0000
0000
0000
0000
0000
0000
0000
0000
0000
0000
0000
0000
0000
1000
0000
0000
0000
0000
0000
0000
0000
0000
0000
0000
0000
0000
0000
0000
0000
0000
0000
0000
0000
0000
0000
0000
0000
0100
0000
0000
0000
0000
0000
0000
0000
0000
0000
0000
0000
0000
0000
0000
0000
0000
0000
0000
0000
0000
0000
0000
0000
0010
0000
0000
0000
0000
0000
0000
0000
0000
0000
0000
0000
0000
0000
0000
0000
0000
0000
0000
0000
0000
0000
0000
0000
0100
0000
0000
0000
0000
0000
0000
0000
0000
0000
0000
0000
0000
0000
0000
0000
0000
0000
0000
0000
0000
0000
0000
,
0000
1000
0000
0000
0000
0000
0000
0000
0000
0000
0000
0000
0000
0000
0000
0000
0000
0000
0000
0000
0000
0000
0000
0000
0000
0000
0000
0000
0000
0000
0000
0000
0000
0000
0000
0000
0000
0000
0000
0000
0000
0000
0000
0000
0000
0000
0000
0000
0001
0000
0000
0000
0000
0000
0000
0000
0000
0000
0000
0000
0000
0000
0000
0000
0000
0000
0000
0000
0000
0000
0000
0000
0000
0000
0000
0000
0000
0000
0000
0000
0000
0000
0000
0000
0000
0000
0000
0000
0000
0000
0000
0000
0000
0000
0000
0000
1000
0000
0000
0000
0000
0000
0000
0000
0000
0000
0000
0000
0000
0000
0000
0000
0000
0000
0000
0000
0000
0000
0000
0000
0001
0000
0000
0000
0000
0000
0000
0000
0000
0000
0000
0000
0000
0000
0000
0000
0000
0000
0000
0000
0000
0000
0000
0000
0101
0000
0000
0000
0000
0000
0000
0000
0000
0000
0000
0000
0000
0000
0000
0000
0000
0000
0000
0000
0000
0000
0000
0000
0100
0000
0000
0000
0000
0000
0000
0000
0000
0000
0000
0000
0000
0000
0000
0000
0000
0000
0000
0000
0000
0000
0000
0000
,
0010
0000
1000
0000
1001
0000
0001
0000
0000
0000
0010
0100
1000
0000
1000
0000
,
0001
0100
0110
0010
1000
0001
1010
1000
,
0100
0010
0001
0000
1001
0000
1000
0000
0010
0000
1000
0100
0010
0000
0010
0000
,
0001
1000
1100
0100
1000
0001
0101
0100
,
0010
0000
1000
0000
1100
0000
0100
0000
0010
0000
0001
1000
0100
0000
0100
0000
,
1000
0010
0110
0100
0001
1001
1000
0010
,
1010
0000
1000
0000
0100
0000
0110
0000
0010
0000
0001
0000
1001
0000
1000
0010
,
0100
0000
0001
1000
0100
1000
0001
0100
0010
0000
1000
0000
1100
0000
0100
0000
,
0010
0000
0001
0000
1001
0000
1000
0000
0010
0000
1000
0010
0100
0000
0100
0000
,
0001
0010
0110
0100
1000
0001
0101
0100
,
0010
0000
1000
0000
1001
0000
0001
0000
0010
0000
0100
1000
0001
0000
0001
0000
,
1000
0000
0010
0000
1010
0000
1000
0000
0100
0000
0000
0000
0010
0000
0001
1000
,
0001
0000
1000
0000
0000
0000
0000
0000
0001
0000
1001
0000
0000
0000
1000
0010
,
0100
0000
0001
0000
1001
1000
0100
0000
,
1000
0010
0000
1000
0100
1000
0001
0010
,
0001
1000
0100
0010
0011
0001
1000
0000
,
0001
0100
0000
0001
1001
1000
0001
0101
,
0100
0000
0001
0000
1001
0000
1000
0000
0020
0030
0100
0000
0010
0000
0000
0000
,
1000
0100
0000
1000
0100
1000
0010
0100
,
0001
0010
0001
0100
0101
0000
0110
0000
,
1010
0000
0000
0000
1001
0000
0000
0000
0101
0000
0000
0000
0100
0001
1000
0100
,
0010
0001
0100
0001
0010
0100
1000
0010
1000
0000
0001
0000
1000
0100
0010
0000
,
0001
0000
1000
0000
0001
0100
0001
0000
1000
0000
0010
0000
1000
0100
0010
0000
,
0001
0000
1000
0000
0001
0100
0010
0000
1010
0000
1000
0000
0001
0100
0010
0000
,
1000
0000
0100
0000
0010
0001
1000
0000
0001
0000
1000
0000
0010
0100
0010
0000
,
1000
0000
0100
0000
0010
0001
1000
0000
1001
0000
0001
0000
1000
0010
0100
0000
,
0001
0000
0010
0000
0100
1000
0010
0000
0100
0000
0001
0000
1000
0100
1000
0000
,
0010
0000
0100
0000
0001
1000
0010
0000
1010
0000
1000
0000
0100
0010
0001
0000
,
1000
0000
0001
0000
1000
0100
1000
0000
0001
0100
0001
1000
0100
1000
0010
0100
,
0001
0010
0100
1000
0001
0100
0002
0000
0000
0000
1003
0010
0100
0000
0010
0000
,
1000
0100
1000
0010
0100
0001
0010
0100
,
1000
0000
0010
0000
0100
0000
0201
0000
0000
0000
0301
1000
0100
0000
0010
0000
,
0001
0100
0010
1000
0100
1000
0010
0100
,
0001
0010
0100
1000
1001
0001
0100
0020
,
0000
0000
1030
0000
0100
0000
0020
0000
0000
0000
0031
1000
0100
0000
2000
0000
,
0000
0000
3001
0100
0020
0000
0000
0000
1030
0000
0100
0000
1000
0000
0010
0000
,
1000
0000
0001
0000
0100
0000
0001
0000
1001
0000
0000
1100
0000
0000
0110
0000
,
0011
0000
0001
1001
0000
0000
0000
0000
,
0000
0000
0000
0000
0000
0000
0000
0000
1000
0001
1000
0010
0100
0000
0001
0010
,
0100
0000
1000
0010
1000
0100
0010
0001
0100
0001
1000
0010
1000
0000
0001
0000
,
0000
1000
1010
0000
0010
0000
0101
0000
,
0100
0000
0001
1000
0100
0000
0000
0000
1000
0010
1000
0010
0100
0000
0001
0000
,
0010
0000
0100
1000
0010
0000
0000
0000
1000
0100
1000
0100
0010
0000
0000
0000
,
0001
0100
0001
0100
0010
0000
0000
0000
1000
0001
1000
0001
0100
0000
0001
0000
,
0010
0000
0100
1000
0001
0000
0000
0000
1000
0000
0000
0000
1010
0000
0000
0000
,
0001
0000
0010
0100
1000
0000
0000
0000
0001
0100
0001
0100
0010
0000
1000
0000
,
0100
0000
0010
0001
1000
0000
0000
0000
0001
0100
0001
0100
0010
0000
1000
0010
,
1000
0001
0100
0001
1000
0010
1000
0100
0020
0000
0000
0000
0000
0000
0000
0000
,
0000
0000
0000
0000
0031
0001
1000
1000
,
0010
0000
0000
0000
0000
0000
0000
0000
1000
0001
0100
0000
0000
0000
0000
0000
,
0001
1000
0100
0000
0000
0000
0000
0000
1000
0100
1000
0000
0000
0000
0000
0000
,
0001
0100
0010
0000
0000
0000
0000
0000
1000
0100
0010
0000
0000
0000
0000
0000
,
0001
0100
0010
0000
0000
0000
0000
0000
1000
0100
1000
0100
0010
0000
0000
0000
,
0001
0100
0001
0100
0010
0000
0000
0000
1000
0010
0100
0000
0001
0000
0010
0000
,
0100
1000
0010
0000
0100
0000
0001
0000
1000
0010
0100
0000
0001
0000
0010
0000
,
0100
1000
0010
0000
0100
0000
0001
0000
1000
0100
1000
0000
0010
0000
0100
0000
,
0001
0010
0100
0000
1000
0000
0010
0000
1000
0100
1000
0100
0010
0000
0000
0000
,
0001
1000
0001
1000
0100
0000
0000
0000
1000
0000
0100
0000
0000
0000
1000
0000
,
0000
0000
0000
0001
0000
0000
0101
0000
0000
0000
0000
0000
0000
0000
0100
0000
0001
0000
0010
0000
0100
0000
1000
0000
,
0001
0000
0000
0000
0100
0000
0000
0000
0010
0000
0000
0000
1000
0000
0000
0000
0100
0000
0000
0000
0010
0000
0000
0000
0001
0000
0000
0000
0000
0000
M000
0000
0000
0M00
0000
0000
00M0
0000
0000
0M00
0000
0000
0000
0000
0000
M000
0000
0000
,
0000
00M0
M000
0M00
00M0
000M
0M00
00M0
1000
0100
0000
1000
0001
0000
0100
0001
,
0000
0010
0100
0000
1000
0100
0000
1000
0001
0100
0000
0001
0010
0000
0100
1000
,
0000
0010
1000
0000
0001
0100
0000
0010
1000
0100
0000
0010
0001
0000
1000
0100
,
0000
1000
0010
0000
1000
0001
0000
1000
0100
0010
0000
0001
0100
0000
0001
0010
,
0000
0001
1000
0000
0100
1000
0001
0100
0101
0001
0000
0010
0100
0000
1000
0001
,
0000
0100
0010
0000
1000
0100
0000
1000
0001
0100
0000
0001
0010
0000
0100
0010
,
0000
0100
1000
0000
0001
0100
0000
0001
1000
0100
0000
1000
0010
0000
0100
0001
,
0000
0010
0100
0000
1000
0010
0000
1000
0001
0100
0000
0001
1000
0000
0100
0010
,
0001
0000
1000
0000
0010
0000
0000
0000
1000
0001
1000
0100
0010
0001
1000
0010
1000
0000
0100
0000
0010
0000
0001
0000
0100
0000
0010
0000
1000
0000
0001
0000
,
0100
0100
1000
0001
0100
0100
1000
0100
0010
0001
1000
0100
1000
0010
0100
0001
,
0010
0001
1000
0010
1000
0001
0010
0100
2000
0010
3200
0001
0320
0001
1030
0100
,
1000
0001
0100
0010
0100
0001
1000
0100
2000
0010
3200
0001
0320
0001
1030
0100
,
1000
0000
0001
0000
0100
0000
0010
1000
0001
0000
0010
0000
0100
0000
1000
0000
0010
0000
0100
0000
0001
0000
0010
0000
0100
0000
0010
0000
0001
0000
1000
0000
,
0100
1000
0010
1000
0100
0100
0001
0010
0100
1000
0010
1000
0001
0100
0010
1000
,
0100
0010
0100
1000
0010
0100
0001
1000
0002
0100
0023
1000
0230
1000
0301
0010
,
0100
1000
0010
0100
0001
1000
0100
1000
0002
0100
0023
1000
0230
1000
0301
1000
,
0010
0000
0100
0000
0000
0000
0001
1000
0100
0000
0010
0000
0001
0000
1000
0000
1001
0000
0001
0000
1000
0000
0100
0000
1000
0000
0010
0000
0100
0000
0001
0000
,
0010
0100
1000
0010
1000
0001
0010
0001
0100
0010
1000
0100
0010
0001
1000
0100
,
1000
0010
0100
0010
1000
0100
0010
0100
1000
0010
0100
0001
0010
0100
1000
0010
,
1000
0100
0010
0001
0100
0010
0100
0001
0010
0100
1000
0010
0100
0001
1000
0100
,
1000
0000
0010
0000
1000
0000
0100
0000
0010
0000
0001
0000
1000
0000
0100
0000
1000
0000
0010
0000
0100
0000
0001
0000
1000
0000
0000
0001
0000
0000
0100
0000
0000
0010
0000
0000
1000
0000
0000
0100
0000
0000
1000
0000
0000
0010
0000
0000
,
0100
0001
0010
0100
1000
0010
0100
0010
1000
0100
0010
0100
1000
0010
0100
0001
,
0010
0100
0010
0001
1000
0100
1000
0010
0100
0001
0010
0100
1000
0010
0100
0001
,
1000
0100
1000
0001
0100
0001
1000
0001
0010
0100
1000
0001
0100
0010
1000
0001
,
1000
0001
1000
0100
0010
0001
1000
0001
0100
0010
1000
0010
0100
0001
0100
0010
1000
0000
0000
0000
0001
0000
1000
0000
0000
0000
0001
1000
0010
0000
0100
0000
,
0001
0000
0010
0000
0000
0000
0100
1000
0001
0000
0000
0000
1000
0001
1000
0010
0100
0000
0000
0000
0001
0000
0000
0000
0010
0000
0000
0000
0100
0000
0000
0000
,
0010
0001
0100
0010
1000
0100
1000
0010
,
0100
0001
0010
0001
0100
0010
1000
0001
,
1000
0100
1000
0100
0010
0001
0100
0010
,
0100
0001
0010
0100
0010
0001
0100
0010
,
1000
0001
0010
0001
0100
0010
0100
0001
,
0010
0100
1000
0010
1000
0001
0010
0001
,
0100
0010
1000
0001
0010
0001
0100
0010
,
1000
0100
0010
0001
0100
0010
0100
0001
,
0010
0100
1000
0010
1000
0001
0010
0001
,
0100
0010
1000
0100
0010
0100
1000
0001
,
0100
0001
0010
0001
0100
0001
0010
0100
,
1000
0010
0100
0001
0010
0001
0100
0010
,
0100
0001
0010
0100
0010
0001
1000
0100
,
1000
0010
0100
0001
1000
0100
0010
0100
,
1000
0001
0010
0001
0100
0010
1000
0100
,
0010
0001
0100
0001
1001
0000
1001
0000
,
1001
1001
0110
0110
,
0110
0000
0110
0000
1001
0000
1000
1001
,
0000
0000
0001
1000
0100
0000
0010
0000
0001
0000
1000
0000
0001
0000
1000
0100
,
0010
0000
0000
0000
0001
0100
0000
0010
,
0000
0100
0001
0010
0000
0100
0000
1000
,
0010
0000
0100
0000
0000
0000
0010
0000
1000
0000
0100
0000
0000
0000
1000
0001
,
0100
0000
0001
0000
0010
0000
0100
1000
,
0010
0000
0000
0000
0100
0000
0000
0000
0001
0000
0010
0000
0000
0000
0100
1000
,
0001
0000
2000
3000
0010
0100
0002
0013
,
0100
0000
1000
0000
0002
0000
0003
0000
1001
0000
0000
0000
0000
0000
1000
0001
,
0100
0000
0001
0000
0010
0000
0000
0000
0100
1000
0001
1000
0010
0000
0100
0000
,
0010
0000
1000
0000
0100
0000
0010
0000
0001
0000
1000
0000
0000
0000
0001
0100
,
0010
0000
1000
0000
0001
0000
1000
0100
,
0010
0000
0001
0000
1000
0010
0000
0100
,
0001
0000
1000
0000
0001
0000
0010
0100
,
1000
0000
0000
0000
0010
0000
0000
0000
1000
0000
0100
0000
0000
0000
1000
0001
,
1000
0000
0002
0003
1000
0000
0002
0103
,
0010
0000
1000
0000
0200
0000
0300
0000
0010
0000
0001
0000
0000
0000
1000
0001
,
1000
0000
0001
0000
1000
0010
0000
1000
,
0100
0000
0010
0000
0001
1000
1000
0010
,
0100
0100
0001
0010
0010
0100
1000
1000
,
0010
0000
0100
0000
0001
0000
1000
0000
0001
0100
0001
1000
0010
0100
0010
1000
,
0001
1000
0100
0010
0001
0100
0001
1000
0100
1000
0001
0100
0010
1000
0010
0100
,
0001
0000
1000
0000
0000
0000
0000
0000
1001
0000
0001
0000
1000
0010
0100
0000
,
0001
0000
0010
0000
0100
1000
0001
0000
1000
0000
0010
0000
0100
0001
0100
0000
,
0010
0000
1000
0000
0100
0010
0001
0000
1000
0000
0001
0000
0100
0010
1000
0000
,
0010
0000
0100
0000
0001
1000
0001
0000
0010
0000
0100
0000
1000
0001
0100
0000
,
0010
0000
1000
0000
0001
0010
0100
0000
1000
0000
0001
0000
0100
0001
0100
0000
,
0010
0000
1000
0000
0100
0010
0001
0000
1000
0000
0100
0000
1000
0010
1000
0000
,
0001
0000
0100
0000
0010
1000
0010
0000
0100
0000
0001
0000
0010
0100
1000
0000
,
0001
0000
0100
0000
0001
1000
0001
0000
1000
0100
1000
0001
0100
0010
1000
0010
,
0100
0001
1000
0100
0010
0001
1000
0010
1000
0000
0001
0000
1000
0100
0010
0000
,
0001
0000
0100
0000
0001
1000
0001
0000
0010
0000
0100
0000
1000
0001
0100
0000
,
0001
0000
1000
0000
0010
0100
0010
0000
1000
0000
0100
0000
0010
0001
1000
0000
,
0001
0000
1000
0000
0001
0100
0010
0000
1000
0000
0001
0000
1000
0100
1000
0000
,
0001
0000
0100
0000
0001
1000
0010
0000
1000
0000
0100
0000
0010
0001
1000
0000
,
0001
0000
0100
0000
0001
1000
0001
0000
0010
0000
0100
0000
1000
0001
1000
0000
,
0010
0000
0100
0000
0001
1000
0001
0000
0100
0000
0010
0000
1000
0000
0100
0000
,
0000
1000
0010
0000
0100
0001
0010
0100
,
0010
0000
0001
1000
0200
0000
0300
0000
;
