#TITLE:Simple and Clean (Remix);
#SUBTITLE:;
#ARTIST:宇多田ひかる;
#TITLETRANSLIT:;
#SUBTITLETRANSLIT:;
#ARTISTTRANSLIT:Utada Hikaru;
#CREDIT:S. Russell;
#BANNER:SimpleandClean-bn.png;
#BACKGROUND:SimpleandClean-bg.png;
#LYRICSPATH:;
#CDTITLE:;
#MUSIC:Utada Hikaru - Simple and Clean (Remix).ogg;
#OFFSET:-0.311;
#SAMPLESTART:61.217;
#SAMPLELENGTH:12.000;
#SELECTABLE:YES;
#BPMS:0.000=130.000,35.000=260.000,36.000=130.000,64.000=65.000,66.000=130.000,129.000=260.000,130.000=130.000,198.000=65.000,214.000=130.000,245.000=65.000;
#STOPS:35.000=0.230
,129.000=0.230
;
#BGCHANGES:;
// cache tags:
#FIRSTBEAT:35.000;
#LASTBEAT:245.750;
#SONGFILENAME:Songs/Rodd's Rad Christmas Pack/Simple and Clean (Rodd Steps)/Simple and Clean (Remix)(Rodd Steps).sm;
#HASMUSIC:1;
#HASBANNER:1;
#MUSICLENGTH:105.000;
// end cache tags

//---------------dance-single - R. Farias----------------
#NOTES:
     dance-single:
     R. Farias:
     Challenge:
     10:
     0.740,0.848,0.048,0.505,0.871,486.000,5.000,53.000,4.000,0.000:

0000
0000
0000
0000
,
0000
0000
0000
0000
,
0000
0000
0000
0000
,
0000
0000
0000
0000
,
0000
0000
0000
0000
,
0000
0000
0000
0000
,
0000
0000
0000
0000
,
0000
0000
0000
0000
,
0000
0000
0000
0000
0000
0000
0000
0000
0000
0000
0000
0000
0000
0000
0000
0000
0000
0000
20M2
3003
0000
0000
0000
0000
,
0001
0100
0000
0100
0010
0000
0100
0001
0000
1000
0100
0000
0010
0001
1000
0000
,
0001
0100
0000
0010
1000
0000
0100
0010
0000
0100
1000
0000
0001
0100
0010
0000
,
1000
0100
0000
1000
0100
0000
0100
0010
0000
0100
0010
0000
0001
0000
0100
0000
,
0010
1000
0000
0010
1000
0000
1000
0001
0000
1000
0001
0000
1000
0000
1000
0000
,
0001
0100
0010
0000
1000
0000
0100
0010
0000
0100
1000
0000
0001
0100
0001
0000
,
0100
0010
1000
0000
0100
0000
0010
0100
0000
1000
0001
0000
0100
0010
1000
0000
,
0001
1000
0100
0010
0001
0010
0100
1000
0001
0100
0010
1000
0001
0100
0010
1000
,
0002
0000
0000
1003
0200
0000
0000
0310
0001
0000
0100
0000
0010
0000
0000
0100
,
0000
0001
1000
0000
0100
0010
0100
0000
0010
0000
0001
0000
1000
0000
0000
0001
,
0000
0000
0100
0000
0000
0010
0000
0000
1000
0000
0000
0000
0100
0000
0000
0010
,
0000
0100
1000
0000
0001
0100
0001
0000
1000
0100
1000
0000
0100
0000
0000
0010
,
0000
0000
0001
0000
0000
0100
0000
0000
0010
0000
0000
0000
0100
0000
0000
0001
,
0000
1000
0100
0000
0010
0001
0010
0001
0010
0000
0000
0000
0000
0000
0001
0000
,
0200
0000
0000
0000
0000
0000
0310
2000
0000
0000
0000
0000
0100
0000
0000
0001
,
3000
0000
0001
0000
1000
0000
0001
0000
0100
0010
1000
0001
0100
0010
0100
0001
,
1000
0100
0010
0100
1000
0001
0100
0010
1000
0000
0100
0000
1000
0000
0010
0000
,
0100
0000
0001
2000
0000
0000
3100
0000
0000
0000
0010
0000
0001
0000
0100
0000
,
0010
0000
0100
0002
0000
0000
1003
0000
0100
0000
0000
0000
0000
0000
0010
0002
,
0000
1003
0000
0000
0000
0001
0100
0010
,
1000
0000
1000
0000
0100
0000
0010
0000
0100
1000
0001
0010
0100
1000
0100
0010
,
0001
1000
0100
0010
0001
0010
0100
1000
0001
0100
0010
1000
0100
1000
0010
0100
,
0001
0010
0001
1000
0010
1000
0001
0010
0001
0100
0010
1000
0100
0010
0001
0100
,
0000
0000
0010
0000
0000
0000
1000
0000
0100
0000
0000
0010
0000
0000
0001
0000
,
1000
0000
0000
0000
0000
0000
0000
0000
0000
0000
0000
0000
2M02
0000
3003
0000
0000
0000
0000
0000
0000
0000
0000
0000
0101
0000
0000
0000
0000
0000
0100
0000
0000
0010
0000
0000
0000
0000
0000
0010
0000
0000
1000
0000
0000
0000
0000
0000
,
1000
0001
0000
0001
1000
0000
0100
0000
0010
0000
0000
0001
0000
0000
0100
0000
,
0000
0010
0000
0000
1000
0000
0100
0000
0010
0001
0000
0100
0010
0000
0100
0001
,
0000
1000
0100
0000
0010
0000
0001
0000
0010
0100
0000
1000
0001
0000
0100
0010
,
0000
0100
0010
0000
1000
0000
0100
0010
0002
0000
0000
0203
0000
0000
2300
0000
,
3002
0000
0000
0023
0000
0000
2030
0000
3002
0000
0000
2003
0000
0000
3200
0000
,
0320
0000
0000
0230
0000
0000
2300
0000
3002
0000
0000
0000
0003
0000
0100
0020
,
0000
0000
0000
0000
0030
0000
1000
0000
0001
1000
0100
0010
0100
1000
0100
0010
,
0001
0010
0100
0010
0001
0100
0010
1000
0001
0100
0010
0000
1000
0000
1000
0000
,
0000
0100
0010
0000
1000
0000
1000
0000
0200
0000
0000
0000
0000
0000
0000
0000
,
0320
0000
0000
0000
0000
0000
0000
0000
0032
0000
0000
0203
0000
0000
2300
0000
,
3002
2003
3200
0302
2003
0000
0000
3200
,
0320
0000
0000
0000
0032
0000
0203
0000
0320
2030
0000
3200
0000
0302
0000
0203
,
0000
0310
0001
0000
0100
0000
0010
0000
1000
0000
0000
0101
0000
0000
0100
0000
,
0010
0000
0000
1001
0000
0000
1000
0000
0100
0000
0001
0000
0100
0000
0010
0000
,
0001
0000
0100
0000
1000
0000
0100
0000
0010
1000
0100
0010
0001
0010
0100
1000
,
0001
0100
0010
1000
0001
0100
0010
0100
0002
0000
0000
0003
2000
0000
0000
3000
,
0100
0000
0000
0010
0000
0000
0001
0000
0200
0000
0000
0000
0320
0000
0000
0000
,
0031
0000
0000
0010
0000
0000
1000
0000
0100
0000
0001
0000
0100
0000
0010
0000
0002
0000
0000
0000
0000
0000
0000
0000
0103
0000
0000
0000
0010
0000
1000
0000
,
0100
0010
0000
0001
0000
0100
0000
0010
0000
0000
0000
0000
0000
0000
1000
0000
0001
0000
0000
0001
0000
0000
1000
0000
0100
0000
0000
0100
0000
0000
0010
0000
,
0001
0000
0001
0000
0100
0000
0010
0000
0100
0000
0001
0000
1000
0000
0200
0000
0000
0000
0000
0000
0300
1000
0002
0000
0000
0000
0000
0003
0000
0000
0000
0000
,
0001
0000
0000
0000
0100
0000
0000
0000
0010
0000
0000
1000
0000
0000
0001
0000
1000
0000
0100
0000
0010
0000
0000
0000
0010
0000
0000
0000
0001
0000
0000
0000
,
0001
0000
0100
0000
0010
0000
0001
0000
0010
0000
1000
0000
0001
0000
1000
0100
,
0000
1000
0010
0000
0100
0000
0001
0000
1000
0100
0000
0010
0001
0000
0100
0010
,
0000
0100
0001
0000
1000
0000
0001
0000
1000
0100
0000
0010
0100
0000
1000
0001
,
0000
0001
0100
0000
0010
0000
0010
0000
1000
0001
1000
0000
0001
0000
0100
0000
,
0100
0000
0010
0000
1000
0000
0010
0000
0100
0001
1000
0000
0100
0000
0010
0001
,
0000
0001
0100
0000
0010
0000
0100
0000
0001
1000
0100
0010
0001
0010
0100
1000
,
0001
0100
0010
1000
0001
0100
0010
0100
0001
1000
0100
0010
0001
1000
0100
0010
,
0001
0010
0100
1000
0002
0000
M2M3
0300
0000
0000
0000
0000
0000
0000
0000
0000
;
