#TITLE:POST音頭;
#SUBTITLE:;
#ARTIST:wonderland*material(s);
#TITLETRANSLIT:;
#SUBTITLETRANSLIT:;
#ARTISTTRANSLIT:;
#CREDIT:;
#BANNER:post_x.png;
#BACKGROUND:post_x-bg.png;
#LYRICSPATH:;
#CDTITLE:cdtitle.png;
#MUSIC:post_x.mp3;
#OFFSET:-0.060;
#SAMPLESTART:37.500;
#SAMPLELENGTH:12.000;
#SELECTABLE:YES;
#BPMS:0.000=160.000,0.000=120.000,0.500=240.000,1.000=120.000,1.500=240.000,2.000=120.000,2.500=240.000,3.000=120.000,3.500=240.000,4.000=120.000,4.500=240.000,5.000=120.000,5.500=240.000,6.000=120.000,6.500=240.000,7.000=120.000,7.500=240.000,8.000=120.000,8.500=240.000,9.000=120.000,9.500=240.000,10.000=120.000,10.500=240.000,11.000=120.000,11.500=240.000,12.000=120.000,12.500=240.000,13.000=120.000,13.500=240.000,14.000=120.000,14.500=240.000,15.000=120.000,15.500=240.000,16.000=120.000,16.500=240.000,17.000=120.000,17.500=240.000,18.000=120.000,18.500=240.000,19.000=120.000,19.500=240.000,20.000=120.000,20.500=240.000,21.000=120.000,21.500=240.000,22.000=120.000,22.500=240.000,23.000=120.000,23.500=240.000,24.000=120.000,24.500=240.000,25.000=120.000,25.500=240.000,26.000=120.000,26.500=240.000,27.000=120.000,27.500=240.000,28.000=120.000,28.500=240.000,29.000=120.000,29.500=240.000,30.000=120.000,30.500=240.000,31.000=120.000,31.500=240.000,32.000=120.000,32.500=240.000,33.000=120.000,33.500=240.000,34.000=120.000,34.500=240.000,35.000=120.000,35.500=240.000,36.000=120.000,36.500=240.000,37.000=120.000,37.500=240.000,38.000=120.000,38.500=240.000,39.000=120.000,39.500=240.000,40.000=120.000,40.500=240.000,41.000=120.000,41.500=240.000,42.000=120.000,42.500=240.000,43.000=120.000,43.500=240.000,44.000=120.000,44.500=240.000,45.000=120.000,45.500=240.000,46.000=120.000,46.500=240.000,47.000=120.000,47.500=240.000,48.000=120.000,48.500=240.000,49.000=120.000,49.500=240.000,50.000=120.000,50.500=240.000,51.000=120.000,51.500=240.000,52.000=120.000,52.500=240.000,53.000=120.000,53.500=240.000,54.000=120.000,54.500=240.000,55.000=120.000,55.500=240.000,56.000=120.000,56.500=240.000,57.000=120.000,57.500=240.000,58.000=120.000,58.500=240.000,59.000=120.000,59.500=240.000,60.000=120.000,60.500=240.000,61.000=120.000,61.500=240.000,62.000=120.000,62.500=240.000,63.000=120.000,63.500=240.000,64.000=120.000,64.500=240.000,65.000=120.000,65.500=240.000,66.000=120.000,66.500=240.000,67.000=120.000,67.500=240.000,68.000=120.000,68.500=240.000,69.000=120.000,69.500=240.000,70.000=120.000,70.500=240.000,71.000=120.000,71.500=240.000,72.000=120.000,72.500=240.000,73.000=120.000,73.500=240.000,74.000=120.000,74.500=240.000,75.000=120.000,75.500=240.000,76.000=120.000,76.500=240.000,77.000=120.000,77.500=240.000,78.000=120.000,78.500=240.000,79.000=120.000,79.500=240.000,80.000=120.000,80.500=240.000,81.000=120.000,81.500=240.000,82.000=120.000,82.500=240.000,83.000=120.000,83.500=240.000,84.000=120.000,84.500=240.000,85.000=120.000,85.500=240.000,86.000=120.000,86.500=240.000,87.000=120.000,87.500=240.000,88.000=120.000,88.500=240.000,89.000=120.000,89.500=240.000,90.000=120.000,90.500=240.000,91.000=120.000,91.500=240.000,92.000=120.000,92.500=240.000,93.000=120.000,93.500=240.000,94.000=120.000,94.500=240.000,95.000=120.000,95.500=240.000,96.000=120.000,96.500=240.000,97.000=120.020,97.500=240.000,98.000=120.000,98.500=240.000,99.000=120.000,99.500=240.000,100.000=120.000,100.500=240.000,101.000=120.000,101.500=240.000,102.000=120.000,102.500=240.000,103.000=120.000,103.500=240.000,104.000=120.000,104.500=240.000,105.000=120.000,105.500=240.000,106.000=120.000,106.500=240.000,107.000=120.000,107.500=240.000,108.000=120.000,108.500=240.000,109.000=120.000,109.500=240.000,110.000=120.000,110.500=240.000,111.000=120.000,111.500=240.000,112.000=120.000,112.500=240.000,113.000=120.000,113.500=240.000,114.000=120.000,114.500=240.000,115.000=120.000,115.500=240.000,116.000=120.000,116.500=240.000,117.000=120.000,117.500=240.000,118.000=120.000,118.500=240.000,119.000=120.000,119.500=240.000,120.000=120.000,120.500=240.000,121.000=120.000,121.500=240.000,122.000=120.000,122.500=240.000,123.000=120.000,123.500=240.000,124.000=120.000,124.500=240.000,125.000=120.000,125.500=240.000,126.000=120.000,126.500=240.000,127.000=120.000,127.500=240.000,128.000=120.000,128.500=240.000,129.000=120.000,129.500=240.000,130.000=120.000,130.500=240.000,131.000=120.000,131.500=240.000,132.000=120.000,132.500=240.000,133.000=120.000,133.500=240.000,134.000=120.000,134.500=240.000,135.000=120.000,135.500=240.000,136.000=120.000,136.500=240.000,137.000=120.000,137.500=240.000,138.000=120.000,138.500=240.000,139.000=120.000,139.500=240.000,140.000=120.000,140.500=240.000,141.000=120.000,141.500=240.000,142.000=120.000,142.500=240.000,143.000=120.000,143.500=240.000,144.000=120.000,144.500=240.000,145.000=120.000,145.500=240.000,146.000=120.000,146.500=240.000,147.000=120.000,147.500=240.000,148.000=120.000,148.500=240.000,149.000=120.000,149.500=240.000,150.000=120.000,150.500=240.000,151.000=120.000,151.500=240.000,152.000=120.000,152.500=240.000,153.000=120.000,153.500=240.000,154.000=120.000,154.500=240.000,155.000=120.000,155.500=240.000,156.000=120.000,156.500=240.000,157.000=120.000,157.500=240.000,158.000=120.000,158.500=240.000,159.000=120.000,159.500=240.000,160.000=120.000,160.500=240.000,161.000=120.000,161.500=240.000,162.000=120.000,162.500=240.000,163.000=120.000,163.500=240.000,164.000=120.000,164.500=240.000,165.000=120.000,165.500=240.000,166.000=120.000,166.500=240.000,167.000=120.000,167.500=240.000,168.000=120.000,168.500=240.000,169.000=120.000,169.500=240.000,170.000=120.000,170.500=240.000,171.000=120.000,171.500=240.000,172.000=120.000,172.500=240.000,173.000=120.000,173.500=240.000,174.000=120.000,174.500=240.000,175.000=120.000,175.500=240.000,176.000=120.000,176.500=240.000,177.000=120.000,177.500=240.000,178.000=120.000,178.500=240.000,179.000=120.000,179.500=240.000,180.000=120.000,180.500=240.000,181.000=120.000,181.500=240.000,182.000=120.000,182.500=240.000,183.000=120.000,183.500=240.000,184.000=120.000,184.500=240.000,185.000=120.000,185.500=240.000,186.000=120.000,186.500=240.000,187.000=120.000,187.500=240.000,188.000=120.000,188.500=240.000,189.000=120.000,189.500=240.000,190.000=120.000,190.500=240.000,191.000=120.000,191.500=240.000,192.000=120.000,192.500=240.000,193.000=120.000,193.500=240.000,194.000=120.000,194.500=240.000,195.000=120.000,195.500=240.000,196.000=120.000,196.500=240.000,197.000=120.000,197.500=240.000,198.000=120.000,198.500=240.000,199.000=120.000,199.500=240.000,200.000=120.000,200.500=240.000,201.000=120.000,201.500=240.000,202.000=120.000,202.500=240.000,203.000=120.000,203.500=240.000,204.000=120.000,204.500=240.000,205.000=120.000,205.500=240.000,206.000=120.000,206.500=240.000,207.000=120.000,207.500=240.000,208.000=120.000,208.500=240.000,209.000=120.000,209.500=240.000,210.000=120.000,210.500=240.000,211.000=120.000,211.500=240.000,212.000=120.000,212.500=240.000,213.000=120.000,213.500=240.000,214.000=120.000,214.500=240.000,215.000=120.000,215.500=240.000,216.000=120.000,216.500=240.000,217.000=120.000,217.500=240.000,218.000=120.000,218.500=12.000,218.875=240.000;
#STOPS:;
#BGCHANGES:;
// cache tags:
#FIRSTBEAT:4.500;
#LASTBEAT:219.500;
#SONGFILENAME:Songs/Japanese Collaboration Mix/post_x/post_x.sm;
#HASMUSIC:1;
#HASBANNER:1;
#MUSICLENGTH:84.841;
// end cache tags

//---------------dance-single - ----------------
#NOTES:
     dance-single:
     :
     Challenge:
     11:
     1.000,1.000,0.554,1.000,0.548,440.000,47.000,130.000,0.000,0.000:
0000
0000
0000
0000
,
0000
0001
0010
0100
1000
0000
0000
0010
,
0100
0010
0100
1001
0000
0000
0000
0000
,
0000
1000
0100
0010
0001
0000
0000
0100
,
0010
0100
0010
1001
0000
0000
0000
0000
,
1001
0100
0010
0100
0020
0000
0030
0001
,
0010
0100
1000
0022
0000
0000
0033
0000
,
0110
0001
1000
0001
2000
0000
0000
3001
,
0010
0000
0100
0000
1000
0000
0001
0000
0010
0100
1000
0000
0001
0010
0100
0000
,
1000
0100
0001
0000
0100
0010
0100
0000
1000
0010
0001
0000
0010
0100
0010
0000
,
1000
0100
1000
0000
0100
1000
0100
0000
0010
0001
0010
0000
0001
0010
0001
0000
,
1000
0100
0010
0000
0001
1000
0100
0000
0010
0001
1000
0000
0100
0010
0001
0000
,
1000
0100
0001
0000
0100
1000
0010
0000
0001
0010
1000
0000
0100
1000
0010
0000
,
1000
0100
0010
0000
0100
1000
0100
0000
0010
1000
0010
0000
0100
0010
0001
0000
,
0010
0100
0010
0000
0100
0010
0100
0000
1000
0001
1000
0000
0001
1000
0001
0000
,
0100
0010
1000
0000
0001
0100
0010
0000
0100
0010
1000
0000
0001
0100
0010
0000
,
1000
0100
0010
0000
0100
0010
0001
0000
0010
0100
1000
0000
0001
0010
0100
0000
,
1000
0001
0000
1001
0000
0000
0000
0000
,
0100
0010
0000
0110
0000
0000
0000
0000
,
0010
0100
0000
0110
0000
0000
0000
0000
,
0001
1000
0000
1001
0000
0000
0000
0000
,
0110
0001
0000
1001
0000
0000
0000
0000
,
0110
1000
0000
1001
0000
0000
0000
0000
,
1001
0100
0000
0011
0000
0000
0000
0000
,
1001
0010
0000
1100
0000
0011
0000
0100
,
0001
1000
0001
1000
0010
0100
0010
0100
,
0001
1000
0100
0010
0001
1000
0010
0100
,
0001
0100
1000
0100
0001
0100
1000
0100
,
0010
1000
0100
0010
0001
0100
1000
0001
,
0010
1000
0010
0100
0010
1000
0010
0100
,
0010
1000
0010
0100
0010
0001
0010
0100
,
0001
1000
0001
1000
0001
1000
0001
1000
,
0002
2003
3002
0003
2000
3002
2003
3000
0002
2003
3002
0003
2000
3002
2003
3000
,
0010
1001
0000
1001
0000
1001
0000
1001
,
0000
1001
0000
1000
0100
0010
0002
0003
,
2000
3200
2300
3000
0200
2300
3200
0300
2000
3200
2300
3000
0200
2300
3200
0300
,
2000
3020
0230
0300
0002
2003
3200
0300
0020
0230
2300
3000
0002
0203
0320
0030
,
0200
0320
2030
3000
0002
0203
0320
0030
2000
3020
0230
0300
0002
0023
0230
0300
,
2000
3002
2003
3000
0002
2003
3002
0003
2000
3002
2003
3000
0002
2003
3002
0003
,
2000
3020
2030
3000
0020
2030
3020
0030
0200
0302
0203
0300
0002
0203
0302
0003
,
2000
3200
2300
3000
0002
0203
0302
0003
2000
3200
2300
3000
0002
0203
0302
0003
,
2000
3002
2003
3000
0020
0230
0320
0030
0002
2003
3002
0003
0020
0230
0320
0030
,
2000
3002
2003
3000
0002
2003
3002
0003
2000
3020
0230
0300
0002
0203
0320
0030
,
1000
0000
0110
0000
0000
0110
0000
0000
0110
0000
0110
0000
0000
0110
0000
0000
,
0110
0000
0110
0000
0000
0110
0000
0000
0110
0000
0110
0000
0000
0110
0000
0000
,
0110
0000
0110
0000
0000
0110
0000
0000
0110
0000
0110
0000
0000
0110
0000
0000
,
0110
0000
0110
0000
0000
0110
0000
0000
0110
0000
0110
0000
0000
0110
0000
0000
,
2000
0001
0001
0010
0010
0100
0100
0010
,
0010
0001
0001
0010
0010
0100
0100
0010
,
0010
0001
0001
0010
0010
0100
0100
0010
,
0010
0001
0001
0010
3010
0000
0101
0000
,
1000
0100
0020
0030
0001
0010
0200
0300
1000
0100
0020
0030
0001
0010
0200
0300
,
1000
0100
2000
3000
0100
1000
0200
0300
0010
0001
0200
0300
0010
1000
0200
0300
,
0010
0001
2000
3000
0010
1000
0002
0003
0010
0001
2000
3000
0010
1000
0002
0003
,
0100
0010
0200
0300
0010
0100
0020
0030
0100
0010
0002
0000
2000
0000
3003
0000
;
